<?xml version="1.0" standalone="no"?>
<!DOCTYPE svg PUBLIC "-//W3C//DTD SVG 1.1//EN" "http://www.w3.org/Graphics/SVG/1.1/DTD/svg11.dtd" >
<svg xmlns="http://www.w3.org/2000/svg" xmlns:xlink="http://www.w3.org/1999/xlink" version="1.1">
<metadata>
Created by FontForge 20190801 at Mon May  1 23:00:29 2017
 By www-data
Copyright (C)2017 Commercial Type.
</metadata>
<defs>
<font id="DrukCondSuperCy" horiz-adv-x="287" >
  <font-face 
    font-family="DrukCondSuperCy"
    font-weight="1000"
    font-stretch="condensed"
    units-per-em="1000"
    panose-1="0 0 0 0 0 0 0 0 0 0"
    ascent="805"
    descent="-195"
    x-height="538"
    cap-height="744"
    bbox="-30 -211 821 983"
    underline-thickness="84"
    underline-position="-20"
    unicode-range="U+0020-FB04"
  />
<missing-glyph horiz-adv-x="500" 
 />
    <glyph glyph-name="f_f" unicode="ff" horiz-adv-x="375" 
d="M210 0v437h-44v-437h-124v437h-38v101h38v140q0 32 19.5 49t46.5 17h92v-97h-23q-11 0 -11 -12v-97h44v140q0 32 19 49t46 17h96v-97h-26q-11 0 -11 -12v-97h37v-101h-37v-437h-124z" />
    <glyph glyph-name="f_i" unicode="fi" horiz-adv-x="345" 
d="M202 744v-97h-25q-11 0 -11 -12v-97h35v-100h-35v-438h-123v438h-39v100h39v140q0 32 19 49t46 17h94zM337 668v-116h-123v116h123zM337 538v-538h-123v538h123z" />
    <glyph glyph-name="f_l" unicode="fl" horiz-adv-x="345" 
d="M202 744v-97h-25q-11 0 -11 -12v-97h35v-100h-35v-438h-123v438h-39v100h39v140q0 32 19 49t46 17h94zM337 744v-744h-123v744h123z" />
    <glyph glyph-name="emdash.alt" unicode="&#x2014;&#x2014;" horiz-adv-x="829" 
d="M8 340h813v-78h-813v78z" />
    <glyph glyph-name=".notdef" horiz-adv-x="500" 
 />
    <glyph glyph-name=".null" horiz-adv-x="0" 
 />
    <glyph glyph-name="nonmarkingreturn" horiz-adv-x="333" 
 />
    <glyph glyph-name="space" unicode=" " horiz-adv-x="78" 
 />
    <glyph glyph-name="exclam" unicode="!" horiz-adv-x="141" 
d="M5 744h131q0 -14 -15.5 -274.5t-16.5 -323.5h-68q-1 60 -16 319.5t-15 278.5zM124 129v-129h-108v129h108z" />
    <glyph glyph-name="quotedbl" unicode="&#x22;" horiz-adv-x="189" 
d="M88 744v-158h-80v158h80zM181 744v-158h-82v158h82z" />
    <glyph glyph-name="numbersign" unicode="#" horiz-adv-x="255" 
d="M120 0l12 255h-20l-12 -255h-74l11 255h-34l4 75h34l5 112h-34l4 76h33l10 226h76l-11 -226h20l10 226h76l-11 -226h33l-4 -76h-32l-5 -112h32l-4 -75h-32l-12 -255h-75zM116 330h19l5 112h-19z" />
    <glyph glyph-name="dollar" unicode="$" horiz-adv-x="293" 
d="M155 -7v-44h-21v44q-127 0 -127 112v200h114v-189q0 -22 13 -26v232l-62 48q-63 47 -63 132v134q0 115 125 115v40h21v-40q65 0 94 -26t29 -83v-164h-110v157q0 23 -13 26v-204l66 -51q36 -27 50.5 -57.5t14.5 -76.5v-153q0 -60 -34 -93t-97 -33zM121 514q0 -27 13 -40
v187q-13 -3 -13 -26v-121zM169 259q0 32 -14 46v-215q14 3 14 27v142z" />
    <glyph glyph-name="percent" unicode="%" horiz-adv-x="397" 
d="M8 500v166q0 41 21.5 62.5t59.5 21.5h13q82 0 82 -84v-166q0 -40 -22.5 -61.5t-60.5 -21.5h-12q-81 0 -81 83zM270 744h71l-214 -744h-72zM104 487v193q0 11 -8 11t-8 -11v-193q0 -10 8 -10t8 10zM212 79v166q0 83 81 83h14q82 0 82 -83v-166q0 -41 -22.5 -62.5
t-60.5 -21.5h-12q-82 0 -82 84zM301 55q7 0 7 10v194q0 10 -7 10q-8 0 -8 -10v-194q0 -10 8 -10z" />
    <glyph glyph-name="ampersand" unicode="&#x26;" horiz-adv-x="354" 
d="M355 90l-24 -97q-64 0 -100 23q-31 -22 -79 -22q-146 0 -146 152v77q0 63 18.5 102.5t63.5 86.5l-7 20q-32 94 -32 147v70q0 45 26 73.5t82 28.5h17q103 0 103 -97v-75q0 -51 -19.5 -83.5t-68.5 -81.5l49 -193q2 54 0 224h100q0 -243 -34 -347q16 -6 51 -8zM155 562
q0 -31 10 -70q13 33 13 67v98q0 16 -11 16q-12 0 -12 -16v-95zM119 163q1 -77 50 -77q6 0 16 2l-65 227q-1 -35 -1 -120v-32z" />
    <glyph glyph-name="quotesingle" unicode="'" horiz-adv-x="97" 
d="M89 744v-158h-81v158h81z" />
    <glyph glyph-name="parenleft" unicode="(" horiz-adv-x="153" 
d="M9 350q0 256 75 448h70q-17 -69 -30 -192t-13 -254q0 -253 45 -456h-71q-76 197 -76 454z" />
    <glyph glyph-name="parenright" unicode=")" horiz-adv-x="154" 
d="M-3 -104q45 203 45 456q0 131 -13 254t-30 192h70q76 -195 76 -448q0 -254 -77 -454h-71z" />
    <glyph glyph-name="asterisk" unicode="*" horiz-adv-x="180" 
d="M114 698l33 29l31 -51l-44 -16l44 -16l-31 -52l-33 31l7 -47h-63l9 47l-34 -30l-31 51l45 16l-45 16l29 51l35 -29l-8 46h63z" />
    <glyph glyph-name="plus" unicode="+" horiz-adv-x="230" 
d="M222 267h-68v-75h-78v75h-68v72h68v75h78v-75h68v-72z" />
    <glyph glyph-name="comma" unicode="," horiz-adv-x="123" 
d="M91 -80h-62q17 41 19 80h-40v129h107v-100q0 -53 -24 -109z" />
    <glyph glyph-name="hyphen" unicode="-" horiz-adv-x="142" 
d="M8 357h126v-114h-126v114z" />
    <glyph glyph-name="period" unicode="." horiz-adv-x="123" 
d="M115 128v-128h-107v128h107z" />
    <glyph glyph-name="slash" unicode="/" horiz-adv-x="166" 
d="M168 798l-93 -902h-83l93 902h83z" />
    <glyph glyph-name="zero" unicode="0" horiz-adv-x="304" 
d="M295 604v-467q0 -70 -35.5 -107t-97.5 -37h-19q-64 0 -99 38t-35 106v467q0 147 134 147h19q68 0 100.5 -39t32.5 -108zM165 125v495q0 20 -13 20q-12 0 -12 -20v-495q0 -19 12 -19q13 0 13 19z" />
    <glyph glyph-name="one" unicode="1" horiz-adv-x="193" 
d="M58 585h-53v105q67 0 70 54h108v-744h-125v585z" />
    <glyph glyph-name="two" unicode="2" horiz-adv-x="284" 
d="M136 653q-11 0 -11 -15v-145h-113v154q0 45 29 74.5t86 29.5h22q61 0 93 -29.5t32 -83.5v-95q0 -47 -7.5 -77.5t-33.5 -79.5l-46 -83q-44 -73 -55 -99.5t-11 -55.5v-44h47v150h109v-254h-270v132q0 56 10.5 92.5t55.5 118.5l42 84q20 45 26 63t6 39v109q0 15 -11 15z" />
    <glyph glyph-name="three" unicode="3" horiz-adv-x="284" 
d="M127 483h-114v164q0 46 29 74.5t88 28.5h17q61 0 92 -27t31 -75v-162q0 -44 -35 -65q17 -8 29 -25.5t12 -41.5v-245q0 -56 -33.5 -86t-94.5 -30h-18q-65 0 -94 30t-29 75v212h120v-193q0 -13 12 -13q11 0 11 13v212q0 12 -11 12h-58v111h54q13 0 13 13v171q0 14 -11 14
q-10 0 -10 -14v-153z" />
    <glyph glyph-name="four" unicode="4" horiz-adv-x="279" 
d="M6 236q2 8 44 218t60 293h121v-494h42v-116h-42v-137h-121v137h-104v99zM110 253v228q-2 -25 -13.5 -104.5t-15.5 -123.5h29z" />
    <glyph glyph-name="five" unicode="5" horiz-adv-x="285" 
d="M128 353h-116v391h254v-108h-140v-127q35 43 75 43h6q33 0 51.5 -23.5t18.5 -56.5v-369q0 -48 -33.5 -79t-91.5 -31h-25q-61 0 -89.5 28.5t-28.5 72.5v206h119v-187q0 -14 11 -14t11 14v328q0 14 -11 14t-11 -14v-88z" />
    <glyph glyph-name="six" unicode="6" horiz-adv-x="303" 
d="M218 473h6q33 0 52 -23t19 -58v-276q0 -55 -36 -89t-95 -34h-24q-63 0 -97 33t-34 90v514q0 51 33 85.5t98 34.5h19q66 0 97 -32.5t31 -86.5v-139h-126v138q0 15 -11 15t-11 -15v-202q39 45 79 45zM139 119q0 -17 13 -17t13 17v240q0 19 -12 19q-14 0 -14 -19v-240z" />
    <glyph glyph-name="seven" unicode="7" horiz-adv-x="265" 
d="M8 744h250v-89q-2 -47 -7 -93.5t-14 -112.5t-14 -114q-18 -155 -18 -273v-62h-149v54q0 130 34 255q44 159 53.5 208t9.5 127h-37v-151h-108v251z" />
    <glyph glyph-name="eight" unicode="8" horiz-adv-x="300" 
d="M287 639v-171q0 -49 -40 -74q45 -25 45 -75v-204q0 -61 -36 -91.5t-96 -30.5h-19q-133 0 -133 123v203q0 49 43 75q-38 23 -38 74v171q0 51 31.5 81t96.5 30h19q65 0 96 -30t31 -81zM162 448v184q0 17 -12 17q-13 0 -13 -17v-184q0 -16 14 -16q11 0 11 16zM162 118v210
q0 17 -12 17q-13 0 -13 -17v-210q0 -16 14 -16q11 0 11 16z" />
    <glyph glyph-name="nine" unicode="9" horiz-adv-x="302" 
d="M91 272h-6q-36 0 -56.5 24.5t-20.5 65.5v262q0 55 31 90.5t95 35.5h27q63 0 97.5 -33.5t34.5 -91.5v-510q0 -51 -33 -86.5t-97 -35.5h-21q-66 0 -96.5 31t-30.5 81v148h127v-139q0 -16 11 -16q10 0 10 16v203q-33 -45 -72 -45zM163 625q0 17 -12 17q-13 0 -13 -17v-239
q0 -19 12 -19q13 0 13 19v239z" />
    <glyph glyph-name="colon" unicode=":" horiz-adv-x="125" 
d="M116 440v-128h-107v128h107zM116 128v-128h-107v128h107z" />
    <glyph glyph-name="semicolon" unicode=";" horiz-adv-x="125" 
d="M116 440v-128h-107v128h107zM92 -80h-62q18 44 19 80h-40v128h107v-99q0 -50 -24 -109z" />
    <glyph glyph-name="less" unicode="&#x3c;" horiz-adv-x="199" 
d="M190 194l-182 72v73l182 72v-81l-94 -28l94 -27v-81z" />
    <glyph glyph-name="equal" unicode="=" horiz-adv-x="226" 
d="M9 376h208v-66h-208v66zM9 297h208v-67h-208v67z" />
    <glyph glyph-name="greater" unicode="&#x3e;" horiz-adv-x="199" 
d="M9 411l182 -72v-73l-182 -72v81l94 27l-94 28v81z" />
    <glyph glyph-name="question" unicode="?" horiz-adv-x="272" 
d="M170 145h-93v130q0 52 22 96l33 67q11 23 11 61v139q0 17 -12 17q-11 0 -11 -17v-180h-113v180q0 111 115 111h24q119 0 119 -109v-130q0 -39 -6 -62.5t-24 -53.5l-44 -72q-21 -35 -21 -75v-102zM177 129v-129h-107v129h107z" />
    <glyph glyph-name="at" unicode="@" horiz-adv-x="458" 
d="M356 24l40 -39q-21 -33 -64.5 -59t-105.5 -26h-1q-29 0 -56 5.5t-57 22.5t-52 44t-36.5 74t-14.5 108v274q0 118 60.5 187.5t163.5 69.5h1q98 0 156.5 -53t58.5 -165v-244q0 -108 -31.5 -148.5t-85.5 -40.5h-13q-57 0 -76 46q-31 -46 -69 -46h-2q-32 0 -51.5 25t-18.5 64
l8 342q1 36 18.5 56t43.5 20h3q41 0 71 -42l1 39h113l-14 -428q0 -16 9 -16q13 0 20 37.5t7 91.5v242q0 92 -40 127.5t-108 35.5h-1q-70 0 -112.5 -50t-42.5 -151v-273q0 -60 14.5 -102t38.5 -61t46.5 -26.5t47.5 -7.5h1q80 0 130 67zM235 122l8 329q2 16 -10 16
q-9 0 -9 -16l-8 -328q-2 -15 9 -15q8 0 10 14z" />
    <glyph glyph-name="A" unicode="A" horiz-adv-x="285" 
d="M164 0l-7 134h-43l-7 -134h-109l62 744h160l67 -744h-123zM121 243h30l-15 283z" />
    <glyph glyph-name="B" unicode="B" horiz-adv-x="302" 
d="M9 0v744h192q84 0 84 -94v-168q0 -33 -16 -53t-33 -25q59 -17 59 -87v-204q0 -113 -95 -113h-191zM145 650h-9v-212h9q15 0 15 19v175q0 10 -3 14t-12 4zM148 346h-12v-249h12q15 0 15 19v210q0 20 -15 20z" />
    <glyph glyph-name="C" unicode="C" horiz-adv-x="297" 
d="M152 102q13 0 13 21v217h124v-220q0 -55 -31.5 -91t-94.5 -36h-20q-134 0 -134 139v484q2 135 133 135h21q64 0 95 -32t31 -89v-197h-124v193q0 19 -13 19t-13 -19v-503q0 -21 13 -21z" />
    <glyph glyph-name="D" unicode="D" horiz-adv-x="297" 
d="M9 0v744h181q98 0 98 -107v-524q0 -56 -26.5 -84.5t-69.5 -28.5h-183zM133 642v-537h12q15 0 15 25v489q0 23 -15 23h-12z" />
    <glyph glyph-name="E" unicode="E" horiz-adv-x="233" 
d="M9 744h214v-114h-90v-181h76v-118h-76v-215h93v-116h-217v744z" />
    <glyph glyph-name="F" unicode="F" horiz-adv-x="228" 
d="M9 0v744h212v-114h-88v-182h73l1 -117h-74v-331h-124z" />
    <glyph glyph-name="G" unicode="G" horiz-adv-x="304" 
d="M111 -7h-3q-48 0 -73.5 35t-25.5 88v506q0 58 32 93.5t102 35.5h17q70 0 100 -33.5t30 -85.5v-167h-122v162q0 19 -15 19q-14 0 -14 -19v-508q0 -23 18 -23t18 23v222h-26v97h146v-438h-85q-5 30 -13 47q-35 -54 -86 -54z" />
    <glyph glyph-name="H" unicode="H" horiz-adv-x="298" 
d="M163 0v324h-27v-324h-127v744h127v-289h27v289h126v-744h-126z" />
    <glyph glyph-name="I" unicode="I" horiz-adv-x="145" 
d="M136 744v-744h-127v744h127z" />
    <glyph glyph-name="J" unicode="J" horiz-adv-x="282" 
d="M7 321h115v-207q0 -13 11 -13h1q10 0 10 13v630h129v-637q0 -52 -30 -83t-92 -31h-34q-57 0 -83.5 30t-26.5 80v218z" />
    <glyph glyph-name="K" unicode="K" horiz-adv-x="302" 
d="M173 0l-39 293l1 -293h-126v744h126l-1 -268l42 268h126l-61 -337l64 -407h-132z" />
    <glyph glyph-name="L" unicode="L" horiz-adv-x="222" 
d="M9 744h126l1 -626h80l-1 -118h-206v744z" />
    <glyph glyph-name="M" unicode="M" horiz-adv-x="348" 
d="M9 0v744h145l22 -361l22 361h141v-744h-106v416l-37 -416h-45l-38 416v-416h-104z" />
    <glyph glyph-name="N" unicode="N" horiz-adv-x="299" 
d="M9 744h128l49 -403l-1 403h105v-744h-117l-59 446l1 -446h-106v744z" />
    <glyph glyph-name="O" unicode="O" horiz-adv-x="308" 
d="M299 604v-467q0 -69 -36 -106.5t-98 -37.5h-21q-65 0 -100 37.5t-35 106.5v467q0 147 135 147h20q68 0 101.5 -39t33.5 -108zM169 126v492q0 22 -15 22q-14 0 -14 -22v-492q0 -20 14 -20q15 0 15 20z" />
    <glyph glyph-name="P" unicode="P" horiz-adv-x="291" 
d="M195 308h-60v-308h-126v744h184q42 0 66.5 -23.5t24.5 -73.5v-240q0 -48 -25 -73.5t-64 -25.5zM135 648v-239h9q15 0 15 19v201q0 19 -15 19h-9z" />
    <glyph glyph-name="Q" unicode="Q" horiz-adv-x="308" 
d="M299 137q0 -115 -92 -139l41 -123h-136v121q-50 8 -76.5 44.5t-26.5 96.5v467q0 147 135 147h20q135 0 135 -147v-467zM169 126v492q0 22 -15 22q-14 0 -14 -22v-492q0 -20 14 -20q15 0 15 20z" />
    <glyph glyph-name="R" unicode="R" horiz-adv-x="296" 
d="M136 327v-327h-127v744h197q35 0 57 -22.5t22 -66.5v-175q0 -61 -45 -80q47 -20 47 -69v-295q0 -22 6 -33v-3h-125q-8 10 -8 31v279q0 17 -14 17h-10zM136 650v-217h10q14 0 14 17v183q0 17 -13 17h-11z" />
    <glyph glyph-name="S" unicode="S" horiz-adv-x="298" 
d="M291 125q0 -62 -32.5 -97t-98.5 -35h-29q-124 0 -124 115v195h124v-186q0 -20 13 -20q14 0 14 21v145q0 19 -4 29t-18 22l-65 56q-61 51 -61 133v132q0 116 127 116h29q120 0 120 -106v-164h-122v158q0 16 -13 16t-13 -16v-127q0 -24 20 -42l64 -56q39 -32 54 -62.5
t15 -78.5v-148z" />
    <glyph glyph-name="T" unicode="T" horiz-adv-x="253" 
d="M246 630h-57v-630h-125v630h-57v114h239v-114z" />
    <glyph glyph-name="U" unicode="U" horiz-adv-x="304" 
d="M295 115q0 -52 -34.5 -87.5t-98.5 -35.5h-20q-68 0 -100.5 34.5t-32.5 88.5v629h130v-614q0 -19 13 -19q14 0 14 19v614h129v-629z" />
    <glyph glyph-name="V" unicode="V" horiz-adv-x="306" 
d="M308 744l-67 -744h-169l-74 744h136l25 -507l26 507h123z" />
    <glyph glyph-name="W" unicode="W" horiz-adv-x="440" 
d="M238 0l-16 424l-17 -424h-146l-61 744h131l15 -486l21 486h118l22 -489l15 489h122l-61 -744h-143z" />
    <glyph glyph-name="X" unicode="X" horiz-adv-x="292" 
d="M144 294l-22 -294h-124l51 391l-48 353h129l18 -270l17 270h121l-46 -353l54 -391h-127z" />
    <glyph glyph-name="Y" unicode="Y" horiz-adv-x="277" 
d="M205 293v-293h-126v293l-82 451h126l22 -257l22 257h113z" />
    <glyph glyph-name="Z" unicode="Z" horiz-adv-x="254" 
d="M10 744h233v-104l-101 -526h106v-114h-242v104l99 527h-95v113z" />
    <glyph glyph-name="bracketleft" unicode="[" horiz-adv-x="145" 
d="M9 -105v903h131v-83h-35v-737h35v-83h-131z" />
    <glyph glyph-name="backslash" unicode="\" horiz-adv-x="165" 
d="M91 -104l-93 902h82l93 -902h-82z" />
    <glyph glyph-name="bracketright" unicode="]" horiz-adv-x="145" 
d="M5 715v83h131v-903h-131v83h35v737h-35z" />
    <glyph glyph-name="asciicircum" unicode="^" horiz-adv-x="189" 
d="M1 419l36 325h115l36 -325h-81l-13 189l-12 -189h-81z" />
    <glyph glyph-name="underscore" unicode="_" horiz-adv-x="274" 
d="M2 -99v80h270v-80h-270z" />
    <glyph glyph-name="grave" unicode="`" horiz-adv-x="217" 
d="M141 668l34 -116h-96l-37 116h99z" />
    <glyph glyph-name="a" unicode="a" horiz-adv-x="280" 
d="M6 68v167q0 57 50 81q12 6 43 18.5t36 14.5q9 5 9 14v91q0 13 -11 13h-1q-11 0 -11 -13v-102h-111v103q0 91 116 91h13q124 0 124 -90v-352q0 -6 6 -6h9v-98h-103q-30 0 -30 44q-28 -49 -75 -49h-2q-29 0 -45.5 21.5t-16.5 51.5zM144 93v181q-21 -12 -21 -36v-145
q0 -14 11 -14q10 0 10 14z" />
    <glyph glyph-name="b" unicode="b" 
d="M8 744h123v-252q35 49 78 49h4q32 0 49 -23.5t17 -60.5v-373q0 -36 -21 -63t-53 -27h-2q-48 0 -83 55q-5 -20 -7 -49h-105v744zM131 97q0 -17 11 -17q12 0 12 16v343q0 16 -11 16q-12 0 -12 -16v-342z" />
    <glyph glyph-name="c" unicode="c" horiz-adv-x="269" 
d="M262 93q0 -46 -30 -73.5t-81 -27.5h-26q-54 0 -85.5 28t-31.5 84v328q0 51 28 82.5t89 31.5h28q109 0 109 -101v-133h-111v136q0 13 -10 13t-10 -13v-353q0 -14 10 -14t10 14v154h111v-156z" />
    <glyph glyph-name="d" unicode="d" horiz-adv-x="288" 
d="M157 744h123v-744h-122v42q-36 -49 -75 -49h-2q-32 0 -52.5 27t-20.5 65v371q0 37 19 61.5t48 24.5h4q41 0 78 -45v247zM133 98q0 -17 12 -17t12 17v338q0 18 -12 18t-12 -17v-339z" />
    <glyph glyph-name="e" unicode="e" horiz-adv-x="275" 
d="M268 104q0 -52 -31 -82t-85 -30h-24q-120 0 -120 116v320q0 56 30.5 87t89.5 31h24q53 0 84.5 -28t31.5 -88v-169h-140v-168q0 -16 12 -16t12 16v141h116v-130zM128 451v-120h24v120q0 19 -12 19t-12 -19z" />
    <glyph glyph-name="f" unicode="f" horiz-adv-x="208" 
d="M204 744v-97h-27q-11 0 -11 -12v-97h38v-101h-38v-437h-123v437h-39v101h39v140q0 32 19 49t46 17h96z" />
    <glyph glyph-name="g" unicode="g" horiz-adv-x="288" 
d="M280 -72q0 -47 -31 -73.5t-90 -26.5h-29q-116 0 -116 84v75h120v-60q0 -13 11 -13q12 0 12 14v113q-33 -47 -75 -47q-32 0 -53 23t-21 63v377q0 35 18 60t51 25h4q37 0 77 -47v43h122v-610zM133 95q0 -16 12 -16t12 16v343q0 16 -12 16t-12 -16v-343z" />
    <glyph glyph-name="h" unicode="h" horiz-adv-x="288" 
d="M8 0v744h123v-251q35 50 80 50h4q34 0 49.5 -22t15.5 -48v-473h-124v434q0 17 -13 17q-12 0 -12 -18v-433h-123z" />
    <glyph glyph-name="i" unicode="i" horiz-adv-x="139" 
d="M131 668v-116h-123v116h123zM131 538v-538h-123v538h123z" />
    <glyph glyph-name="j" unicode="j" horiz-adv-x="139" 
d="M131 668v-116h-123v116h123zM-27 -61h24q11 0 11 12v587h123v-647q0 -28 -15.5 -43t-38.5 -15h-104v106z" />
    <glyph glyph-name="k" unicode="k" horiz-adv-x="281" 
d="M131 0h-123v744h123v-381l30 175h116l-45 -227l51 -311h-120l-33 222z" />
    <glyph glyph-name="l" unicode="l" horiz-adv-x="139" 
d="M131 744v-744h-123v744h123z" />
    <glyph glyph-name="m" unicode="m" horiz-adv-x="432" 
d="M131 434v-434h-123v538h121v-47q33 52 78 52h5q47 0 62 -50q34 50 81 50h5q33 0 48.5 -23t15.5 -48v-472h-125v434q0 16 -10 16q-12 0 -12 -16v-434h-124v434q0 16 -11 16t-11 -16z" />
    <glyph glyph-name="n" unicode="n" horiz-adv-x="288" 
d="M8 0v538h121v-47q38 52 82 52h5q34 0 49 -22t15 -48v-473h-124v434q0 17 -13 17q-12 0 -12 -18v-433h-123z" />
    <glyph glyph-name="o" unicode="o" horiz-adv-x="289" 
d="M134 -8q-126 0 -126 131v293q0 130 127 130h20q126 0 126 -130v-293q0 -65 -33.5 -98t-93.5 -33h-20zM132 103q0 -18 12 -18q13 0 13 18v334q0 19 -13 19q-12 0 -12 -19v-334z" />
    <glyph glyph-name="p" unicode="p" 
d="M8 538h121v-48q38 53 81 53h2q67 0 67 -92v-369q0 -37 -21 -63t-51 -26h-2q-43 0 -74 46v-206h-123v705zM131 95q0 -16 12 -16q11 0 11 16v345q0 17 -11 17q-12 0 -12 -17v-345z" />
    <glyph glyph-name="q" unicode="q" 
d="M185 538h94v-705h-122v209q-33 -48 -75 -48h-3q-30 0 -50.5 25.5t-20.5 64.5v360q0 46 20.5 72.5t58.5 26.5h5q44 0 83 -53q8 25 10 48zM133 95q0 -16 12 -16t12 21v341q0 18 -13 18q-11 0 -11 -16v-348z" />
    <glyph glyph-name="r" unicode="r" horiz-adv-x="263" 
d="M131 440v-440h-123v538h121v-47q32 50 70 50h7q24 0 37.5 -15.5t13.5 -37.5v-194h-108v146q0 12 -9 12t-9 -12z" />
    <glyph glyph-name="s" unicode="s" horiz-adv-x="259" 
d="M253 94q0 -49 -29.5 -75.5t-82.5 -26.5h-30q-105 0 -105 91v130h109v-125q0 -13 11 -13t11 13v99q0 22 -18 36l-53 36q-34 23 -45.5 48t-11.5 61v84q0 94 109 94h27q103 0 103 -82v-109h-106v103q0 14 -10 14q-11 0 -11 -14v-82q0 -12 3 -17.5t13 -14.5l55 -37
q36 -26 48.5 -50.5t12.5 -63.5v-99z" />
    <glyph glyph-name="t" unicode="t" horiz-adv-x="206" 
d="M201 0h-116q-18 0 -30.5 12.5t-12.5 36.5v389h-38v100h38v172h123v-172h36v-100h-36v-324q0 -12 11 -12h25v-102z" />
    <glyph glyph-name="u" unicode="u" 
d="M279 538v-538h-121v47q-37 -51 -82 -51h-4q-32 0 -48 22.5t-16 47.5v472h124v-434q0 -16 13 -16q11 0 11 17v433h123z" />
    <glyph glyph-name="v" unicode="v" horiz-adv-x="271" 
d="M273 538l-58 -538h-159l-58 538h124l15 -363l15 363h121z" />
    <glyph glyph-name="w" unicode="w" horiz-adv-x="409" 
d="M220 0l-15 308l-14 -308h-136l-57 538h123l13 -351l16 351h111l18 -363l12 363h120l-57 -538h-134z" />
    <glyph glyph-name="x" unicode="x" horiz-adv-x="268" 
d="M149 0l-17 185l-17 -185h-117l49 287l-47 251h120l15 -168l13 168h119l-47 -248l50 -290h-121z" />
    <glyph glyph-name="y" unicode="y" horiz-adv-x="269" 
d="M187 -115q-10 -52 -57 -52h-103v100h38q10 0 10 11q0 1 0.5 10t0.5 13q0 15 -4 42l-74 529h122l18 -317l13 317h120z" />
    <glyph glyph-name="z" unicode="z" horiz-adv-x="223" 
d="M8 538h207v-88l-78 -348h81v-102h-213v88l81 354h-78v96z" />
    <glyph glyph-name="braceleft" unicode="{" horiz-adv-x="156" 
d="M13 309h-9v79h13q13 0 17 6t4 19q0 24 -10 156t-10 152q0 37 20.5 57t59.5 20h53v-80h-19q-22 0 -22 -22q0 -12 10 -139t10 -143q0 -51 -44 -65q44 -14 44 -57q0 -18 -10 -144t-10 -141q0 -32 28 -32h13v-79h-53q-80 0 -80 73q0 13 10 152t10 160q0 28 -25 28z" />
    <glyph glyph-name="bar" unicode="|" horiz-adv-x="141" 
d="M110 798v-902h-79v902h79z" />
    <glyph glyph-name="braceright" unicode="}" horiz-adv-x="155" 
d="M138 388h13v-79h-9q-24 0 -24 -28q0 -21 10 -160t10 -152q0 -73 -81 -73h-52v79h13q28 0 28 32q0 15 -10 141t-10 144q0 44 44 56q-44 14 -44 66q0 16 10 143t10 139q0 22 -23 22h-18v80h52q81 0 81 -77q0 -20 -10 -152t-10 -156q0 -25 20 -25z" />
    <glyph glyph-name="asciitilde" unicode="~" horiz-adv-x="218" 
d="M159 286q-28 0 -54 21q-12 11 -17 11t-5 -7v-28h-78v66q0 33 14.5 53t40.5 20t53 -22q13 -11 17 -11q6 0 6 9v27h77v-75q0 -29 -15 -46.5t-39 -17.5z" />
    <glyph glyph-name="exclamdown" unicode="&#xa1;" horiz-adv-x="141" 
d="M136 -206h-131q0 14 15.5 274.5t16.5 323.5h68q1 -60 16 -319.5t15 -278.5zM17 409v129h108v-129h-108z" />
    <glyph glyph-name="cent" unicode="&#xa2;" horiz-adv-x="271" 
d="M154 -8h-3v-44h-20v44h-9q-52 0 -83 27.5t-31 83.5v330q0 51 28 82t86 31h9v43h20v-43h5q108 0 108 -99v-135h-99v129q0 21 -14 24v-386q14 3 14 24v146h99v-157q0 -46 -30 -73t-80 -27zM118 103q0 -21 13 -24v386q-13 -3 -13 -24v-338z" />
    <glyph glyph-name="sterling" unicode="&#xa3;" horiz-adv-x="319" 
d="M310 285v-285h-303v98h11q19 2 29 16t10 49v4q0 26 -6 142h-44v95h39q-6 126 -6 191v33q0 123 132 123h10q121 0 121 -111v-213h-112v207q0 17 -13 17t-13 -17v-3q0 -45 2 -227h84v-95h-84q1 -43 1 -108q0 -70 -29 -101h60v185h111z" />
    <glyph glyph-name="yen" unicode="&#xa5;" horiz-adv-x="275" 
d="M265 244h-61v-244h-126v244h-60v66h60v12h-60v65h53l-74 357h125l21 -221l1 -49l2 49l21 221h111l-68 -357h55v-65h-61v-12h61v-66z" />
    <glyph glyph-name="brokenbar" unicode="&#xa6;" horiz-adv-x="141" 
d="M110 798v-431h-79v431h79zM110 347v-451h-79v451h79z" />
    <glyph glyph-name="section" unicode="&#xa7;" horiz-adv-x="319" 
d="M288 -59q0 -55 -31.5 -84t-90.5 -29h-27q-58 0 -85 25.5t-27 81.5v143h115v-145q0 -15 12 -15t12 15v98q0 23 -3 34t-16 27l-99 120q-26 32 -36 57t-10 60v10q0 70 71 93l-7 12q-34 50 -34 111v90q0 49 29 77.5t88 28.5h31q110 0 110 -99v-128h-114v121q0 16 -11 16
t-11 -16v-80q0 -20 3 -30t15 -29l102 -138q43 -58 43 -103v-10q0 -74 -71 -98l6 -9q21 -28 28.5 -48.5t7.5 -56.5v-102zM124 324l79 -105q5 7 5 17q0 13 -17 35l-78 104q-5 -7 -5 -17q0 -12 16 -34z" />
    <glyph glyph-name="dieresis" unicode="&#xa8;" horiz-adv-x="217" 
d="M101 647v-95h-89v95h89zM205 647v-95h-89v95h89z" />
    <glyph glyph-name="copyright" unicode="&#xa9;" horiz-adv-x="385" 
d="M197 -7h-7q-85 0 -133 43.5t-48 134.5v404q0 86 49.5 131t132.5 45h7q82 0 130 -44t48 -132v-404q0 -88 -50.5 -133t-128.5 -45zM67 184q0 -143 125 -143h5q122 0 122 143v376q0 143 -121 143h-6q-125 0 -125 -143v-376zM187 163q0 -16 9 -16t9 16v195h90v-199
q0 -38 -24 -63.5t-69 -25.5h-10q-101 0 -101 98v410q0 45 25.5 71t73.5 26h12q45 0 69 -22.5t24 -62.5v-162h-90v159q0 13 -9 13t-9 -13v-424z" />
    <glyph glyph-name="ordfeminine" unicode="&#xaa;" horiz-adv-x="175" 
d="M91 461q-18 -29 -45 -29h-2q-18 0 -28 12.5t-10 31.5v89q0 34 32 49q7 3 47 18q6 2 6 9v51q0 8 -8 8q-7 0 -7 -8v-57h-67v60q0 53 70 53h8q76 0 76 -53v-198q0 -5 4 -5h5v-57h-63q-18 0 -18 26zM77 567v-77q0 -8 7 -8t7 9v97q-14 -7 -14 -21z" />
    <glyph glyph-name="guillemotleft" unicode="&#xab;" horiz-adv-x="234" 
d="M92 279l36 -150h-87l-35 127v47l35 123h88zM197 279l30 -150h-86l-36 150l37 147h87z" />
    <glyph glyph-name="registered" unicode="&#xae;" horiz-adv-x="215" 
d="M112 418h-8q-45 0 -71 24.5t-26 72.5v137q0 47 25.5 71.5t71.5 24.5h10q45 0 69.5 -24t24.5 -70v-139q0 -46 -27 -71.5t-69 -25.5zM40 515q0 -70 64 -70h8q64 0 64 70v139q0 68 -62 68h-10q-34 0 -49 -16t-15 -54v-137zM103 570v-103h-44v235h66q34 0 34 -30v-55
q0 -19 -15 -25q15 -6 15 -21v-91q0 -7 3 -10v-3h-44q-4 8 -4 11v84q0 8 -6 8h-5zM103 670v-66h5q6 0 6 7v52q0 7 -6 7h-5z" />
    <glyph glyph-name="macron" unicode="&#xaf;" horiz-adv-x="217" 
d="M26 557v78h165v-78h-165z" />
    <glyph glyph-name="degree" unicode="&#xb0;" horiz-adv-x="164" 
d="M5 674q0 32 21.5 52.5t56.5 20.5q34 0 55 -20.5t21 -52.5q0 -31 -21.5 -52t-54.5 -21q-35 0 -56.5 21t-21.5 52zM55 674q0 -27 27 -27t27 27q0 28 -27 28t-27 -28z" />
    <glyph glyph-name="two.sup" unicode="&#xb2;" horiz-adv-x="184" 
d="M179 401h-174v52q0 37 10 57.5t49 73.5q23 35 27.5 45.5t4.5 28.5v24q0 10 -7 10t-7 -10v-56h-74v53q0 69 75 69h12q82 0 82 -66v-23q0 -32 -10.5 -50.5t-45.5 -57.5q-30 -34 -36.5 -46t-6.5 -30v-15h32v62h69v-121z" />
    <glyph glyph-name="three.sup" unicode="&#xb3;" horiz-adv-x="182" 
d="M79 624h-73v64q0 60 75 60h10q81 0 81 -59v-57q0 -30 -27 -40q32 -11 32 -47v-77q0 -72 -84 -72h-11q-77 0 -77 65v79h76v-75q0 -9 7 -9q6 0 6 9v81q0 7 -7 7h-35v59h34q7 0 7 7v67q0 8 -7 8t-7 -8v-62z" />
    <glyph glyph-name="acute" unicode="&#xb4;" horiz-adv-x="217" 
d="M42 552l35 116h99l-38 -116h-96z" />
    <glyph glyph-name="paragraph" unicode="&#xb6;" horiz-adv-x="302" 
d="M7 644q0 49 24 74.5t66 25.5h201v-82h-26v-662h-75v662h-20v-662h-76v357h-4q-37 0 -63.5 24t-26.5 73v190z" />
    <glyph glyph-name="periodcentered" unicode="&#xb7;" horiz-adv-x="123" 
d="M115 380v-129h-107v129h107z" />
    <glyph glyph-name="cedilla" unicode="&#xb8;" horiz-adv-x="217" 
d="M174 -80q0 -28 -18.5 -44.5t-52.5 -16.5h-59v53h42q14 0 14 10q0 9 -14 9h-33v69h52v-23h4q32 0 48.5 -15t16.5 -40v-2z" />
    <glyph glyph-name="one.sup" unicode="&#xb9;" horiz-adv-x="120" 
d="M32 656h-28v62q34 0 36 26h72v-343h-79z" />
    <glyph glyph-name="ordmasculine" unicode="&#xba;" horiz-adv-x="177" 
d="M95 430h-12q-36 0 -56 18t-20 53v175q0 72 76 72h12q75 0 75 -72v-175q0 -71 -75 -71zM82 495q0 -11 7 -11t7 11v187q0 12 -7 12t-7 -12v-187z" />
    <glyph glyph-name="guillemotright" unicode="&#xbb;" horiz-adv-x="234" 
d="M105 129l36 149l-36 148h87l36 -124v-47l-36 -126h-87zM6 129l31 149l-32 148h87l36 -148l-35 -149h-87z" />
    <glyph glyph-name="onequarter" unicode="&#xbc;" horiz-adv-x="307" 
d="M218 744h71l-209 -744h-70zM145 53v57l54 234h86v-225h21v-66h-21v-53h-76v53h-64zM32 656h-28v62q34 0 36 26h72v-343h-79zM193 119h16v122z" />
    <glyph glyph-name="onehalf" unicode="&#xbd;" horiz-adv-x="347" 
d="M218 744h71l-209 -744h-70zM32 656h-28v62q34 0 36 26h72v-343h-79zM343 0h-174v52q0 37 10 57.5t49 73.5q23 35 27.5 45.5t4.5 28.5v24q0 10 -7 10t-7 -10v-56h-74v53q0 69 75 69h12q82 0 82 -66v-23q0 -32 -10.5 -50.5t-45.5 -57.5q-30 -34 -36.5 -46t-6.5 -30v-15h32
v62h69v-121z" />
    <glyph glyph-name="threequarters" unicode="&#xbe;" horiz-adv-x="358" 
d="M268 744h71l-209 -744h-70zM79 624h-73v64q0 60 75 60h10q81 0 81 -59v-57q0 -30 -27 -40q32 -11 32 -47v-77q0 -72 -84 -72h-11q-77 0 -77 65v79h76v-75q0 -9 7 -9q6 0 6 9v81q0 7 -7 7h-35v59h34q7 0 7 7v67q0 8 -7 8t-7 -8v-62zM196 53v57l54 234h86v-225h21v-66h-21
v-53h-76v53h-64zM244 119h16v122z" />
    <glyph glyph-name="questiondown" unicode="&#xbf;" horiz-adv-x="272" 
d="M102 393h93v-130q0 -52 -22 -96l-33 -67q-11 -23 -11 -61v-139q0 -17 12 -17q11 0 11 17v180h113v-180q0 -111 -115 -111h-24q-119 0 -119 109v130q0 39 6 62.5t24 53.5l44 72q21 35 21 75v102zM95 409v129h107v-129h-107z" />
    <glyph glyph-name="Agrave" unicode="&#xc0;" horiz-adv-x="285" 
d="M164 0l-7 134h-43l-7 -134h-109l62 744h160l67 -744h-123zM121 243h30l-15 283zM158 853l35 -95h-99l-38 95h102z" />
    <glyph glyph-name="Aacute" unicode="&#xc1;" horiz-adv-x="285" 
d="M164 0l-7 134h-43l-7 -134h-109l62 744h160l67 -744h-123zM121 243h30l-15 283zM90 758l37 95h102l-40 -95h-99z" />
    <glyph glyph-name="Acircumflex" unicode="&#xc2;" horiz-adv-x="285" 
d="M164 0l-7 134h-43l-7 -134h-109l62 744h160l67 -744h-123zM121 243h30l-15 283zM191 853l50 -95h-85l-17 37l-16 -37h-85l50 95h103z" />
    <glyph glyph-name="Atilde" unicode="&#xc3;" horiz-adv-x="285" 
d="M164 0l-7 134h-43l-7 -134h-109l62 744h160l67 -744h-123zM121 243h30l-15 283zM140 839q21 -8 24 -8q5 0 5 8v16h65v-44q0 -52 -43 -52h-2q-17 0 -49 13q-22 8 -24 8q-6 0 -6 -8v-15h-64v46q0 50 44 50h1q14 0 49 -14z" />
    <glyph glyph-name="Adieresis" unicode="&#xc4;" horiz-adv-x="285" 
d="M164 0l-7 134h-43l-7 -134h-109l62 744h160l67 -744h-123zM121 243h30l-15 283zM237 851v-93h-90v93h90zM132 851v-93h-89v93h89z" />
    <glyph glyph-name="Aring" unicode="&#xc5;" horiz-adv-x="285" 
d="M164 0l-7 134h-43l-7 -134h-109l62 744h160l67 -744h-123zM121 243h30l-15 283zM74 818q0 27 19 44.5t47 17.5t46.5 -17.5t18.5 -44.5q0 -28 -18.5 -45.5t-46.5 -17.5t-47 17.5t-19 45.5zM140 843q-11 0 -18.5 -7.5t-7.5 -18.5t7.5 -18.5t18.5 -7.5t18 7.5t7 18.5
t-7 18.5t-18 7.5z" />
    <glyph glyph-name="AE" unicode="&#xc6;" horiz-adv-x="376" 
d="M166 0v118h-39l-10 -118h-121l88 744h283v-114h-77v-181h63v-118h-63v-215h80v-116h-204zM137 227h29v334z" />
    <glyph glyph-name="Ccedilla" unicode="&#xc7;" horiz-adv-x="295" 
d="M228 -80q0 -28 -18.5 -44.5t-52.5 -16.5h-59v53h42q14 0 14 10q0 9 -14 9h-33v65q-98 17 -98 136v484q2 135 133 135h21q64 0 95 -32t31 -89v-197h-124v193q0 19 -13 19t-13 -19v-503q0 -21 13 -21t13 21v217h124v-220q0 -55 -31.5 -91t-94.5 -36h-4v-16h4q32 0 48.5 -15
t16.5 -40v-2z" />
    <glyph glyph-name="Egrave" unicode="&#xc8;" horiz-adv-x="233" 
d="M136 853l35 -95h-99l-38 95h102zM9 744h214v-114h-90v-181h76v-118h-76v-215h93v-116h-217v744z" />
    <glyph glyph-name="Eacute" unicode="&#xc9;" horiz-adv-x="233" 
d="M69 758l37 95h102l-40 -95h-99zM9 744h214v-114h-90v-181h76v-118h-76v-215h93v-116h-217v744z" />
    <glyph glyph-name="Ecircumflex" unicode="&#xca;" horiz-adv-x="233" 
d="M169 853l50 -95h-85l-17 37l-16 -37h-85l50 95h103zM9 744h214v-114h-90v-181h76v-118h-76v-215h93v-116h-217v744z" />
    <glyph glyph-name="Edieresis" unicode="&#xcb;" horiz-adv-x="233" 
d="M215 851v-93h-90v93h90zM110 851v-93h-89v93h89zM9 744h214v-114h-90v-181h76v-118h-76v-215h93v-116h-217v744z" />
    <glyph glyph-name="Igrave" unicode="&#xcc;" horiz-adv-x="145" 
d="M136 744v-744h-127v744h127zM87 853l35 -95h-99l-38 95h102z" />
    <glyph glyph-name="Iacute" unicode="&#xcd;" horiz-adv-x="145" 
d="M136 744v-744h-127v744h127zM22 758l37 95h102l-40 -95h-99z" />
    <glyph glyph-name="Icircumflex" unicode="&#xce;" horiz-adv-x="145" 
d="M136 744v-744h-127v744h127zM123 853l50 -95h-85l-17 37l-16 -37h-85l50 95h103z" />
    <glyph glyph-name="Idieresis" unicode="&#xcf;" horiz-adv-x="145" 
d="M136 744v-744h-127v744h127zM169 851v-93h-90v93h90zM64 851v-93h-89v93h89z" />
    <glyph glyph-name="Eth" unicode="&#xd0;" horiz-adv-x="302" 
d="M14 0v328h-14v109h14v307h181q98 0 98 -107v-524q0 -56 -26.5 -84.5t-69.5 -28.5h-183zM138 642v-205h20v-109h-20v-223h12q15 0 15 25v489q0 23 -15 23h-12z" />
    <glyph glyph-name="Ntilde" unicode="&#xd1;" horiz-adv-x="299" 
d="M156 839q21 -8 24 -8q5 0 5 8v16h65v-44q0 -52 -43 -52h-2q-17 0 -49 13q-22 8 -24 8q-6 0 -6 -8v-15h-64v46q0 50 44 50h1q14 0 49 -14zM9 744h128l49 -403l-1 403h105v-744h-117l-59 446l1 -446h-106v744z" />
    <glyph glyph-name="Ograve" unicode="&#xd2;" horiz-adv-x="306" 
d="M170 853l34 -92h-99l-37 92h102zM299 604v-467q0 -69 -36 -106.5t-98 -37.5h-21q-65 0 -100 37.5t-35 106.5v467q0 147 135 147h20q68 0 101.5 -39t33.5 -108zM169 126v492q0 22 -15 22q-14 0 -14 -22v-492q0 -20 14 -20q15 0 15 20z" />
    <glyph glyph-name="Oacute" unicode="&#xd3;" horiz-adv-x="306" 
d="M105 761l36 92h102l-39 -92h-99zM299 604v-467q0 -69 -36 -106.5t-98 -37.5h-21q-65 0 -100 37.5t-35 106.5v467q0 147 135 147h20q68 0 101.5 -39t33.5 -108zM169 126v492q0 22 -15 22q-14 0 -14 -22v-492q0 -20 14 -20q15 0 15 20z" />
    <glyph glyph-name="Ocircumflex" unicode="&#xd4;" horiz-adv-x="306" 
d="M208 853l48 -92h-86l-17 35l-16 -35h-85l47 92h109zM299 604v-467q0 -69 -36 -106.5t-98 -37.5h-21q-65 0 -100 37.5t-35 106.5v467q0 147 135 147h20q68 0 101.5 -39t33.5 -108zM169 126v492q0 22 -15 22q-14 0 -14 -22v-492q0 -20 14 -20q15 0 15 20z" />
    <glyph glyph-name="Otilde" unicode="&#xd5;" horiz-adv-x="306" 
d="M155 843q21 -8 24 -8q5 0 5 8v16h65v-44q0 -52 -43 -52h-2q-16 0 -49 13q-22 8 -24 8q-6 0 -6 -8v-15h-64v46q0 50 44 50h1q14 0 49 -14zM299 604v-467q0 -69 -36 -106.5t-98 -37.5h-21q-65 0 -100 37.5t-35 106.5v467q0 147 135 147h20q68 0 101.5 -39t33.5 -108z
M169 126v492q0 22 -15 22q-14 0 -14 -22v-492q0 -20 14 -20q15 0 15 20z" />
    <glyph glyph-name="Odieresis" unicode="&#xd6;" horiz-adv-x="306" 
d="M147 851v-90h-90v90h90zM252 851v-90h-90v90h90zM299 604v-467q0 -69 -36 -106.5t-98 -37.5h-21q-65 0 -100 37.5t-35 106.5v467q0 147 135 147h20q68 0 101.5 -39t33.5 -108zM169 126v492q0 22 -15 22q-14 0 -14 -22v-492q0 -20 14 -20q15 0 15 20z" />
    <glyph glyph-name="multiply" unicode="&#xd7;" horiz-adv-x="214" 
d="M209 251l-50 -50l-52 52l-52 -52l-50 50l52 53l-52 52l50 51l52 -53l52 53l50 -51l-52 -52z" />
    <glyph glyph-name="Oslash" unicode="&#xd8;" horiz-adv-x="306" 
d="M297 135q0 -67 -36.5 -104.5t-98.5 -37.5h-16q-45 0 -74 22l-9 -20h-57l24 59q-21 37 -21 83v469q0 68 33.5 106.5t101.5 38.5h16q43 0 72 -19l7 17h58l-23 -53q23 -36 23 -89v-472zM137 535l-3 -164l36 182v65q0 23 -17 23q-16 0 -16 -23v-83zM137 127q0 -22 16 -22
q17 0 17 22v83l2 176l-35 -177v-82z" />
    <glyph glyph-name="Ugrave" unicode="&#xd9;" horiz-adv-x="304" 
d="M169 853l35 -95h-99l-38 95h102zM295 115q0 -52 -34.5 -87.5t-98.5 -35.5h-20q-68 0 -100.5 34.5t-32.5 88.5v629h130v-614q0 -19 13 -19q14 0 14 19v614h129v-629z" />
    <glyph glyph-name="Uacute" unicode="&#xda;" horiz-adv-x="304" 
d="M102 758l37 95h102l-40 -95h-99zM295 115q0 -52 -34.5 -87.5t-98.5 -35.5h-20q-68 0 -100.5 34.5t-32.5 88.5v629h130v-614q0 -19 13 -19q14 0 14 19v614h129v-629z" />
    <glyph glyph-name="Ucircumflex" unicode="&#xdb;" horiz-adv-x="304" 
d="M203 853l50 -95h-85l-17 37l-16 -37h-85l50 95h103zM295 115q0 -52 -34.5 -87.5t-98.5 -35.5h-20q-68 0 -100.5 34.5t-32.5 88.5v629h130v-614q0 -19 13 -19q14 0 14 19v614h129v-629z" />
    <glyph glyph-name="Udieresis" unicode="&#xdc;" horiz-adv-x="304" 
d="M295 115q0 -52 -34.5 -87.5t-98.5 -35.5h-20q-68 0 -100.5 34.5t-32.5 88.5v629h130v-614q0 -19 13 -19q14 0 14 19v614h129v-629zM249 851v-93h-90v93h90zM144 851v-93h-89v93h89z" />
    <glyph glyph-name="Yacute" unicode="&#xdd;" horiz-adv-x="275" 
d="M205 293v-293h-126v293l-82 451h126l22 -257l22 257h113zM95 758l37 95h102l-40 -95h-99z" />
    <glyph glyph-name="Thorn" unicode="&#xde;" horiz-adv-x="291" 
d="M193 167h-58v-167h-126v744h126v-134h58q43 0 67 -24t24 -73v-249q0 -47 -25 -72t-66 -25zM135 516v-251h10q15 0 15 19v214q0 18 -15 18h-10z" />
    <glyph glyph-name="germandbls" unicode="&#xdf;" horiz-adv-x="290" 
d="M230 456q22 -6 38 -25.5t16 -48.5v-295q0 -39 -22 -63t-58 -24h-63v94h7q7 0 7 10v268q0 11 -8 11h-6v94h6q8 0 8 9v154q0 17 -11 17h-2q-11 0 -11 -17v-640h-123v639q0 50 29 80.5t90 30.5h32q59 0 88 -26t29 -66v-127q0 -28 -14 -47.5t-32 -27.5z" />
    <glyph glyph-name="agrave" unicode="&#xe0;" horiz-adv-x="280" 
d="M149 668l33 -113h-96l-37 113h100zM6 68v167q0 57 50 81q12 6 43 18.5t36 14.5q9 5 9 14v91q0 13 -11 13h-1q-11 0 -11 -13v-102h-111v103q0 91 116 91h13q124 0 124 -90v-352q0 -6 6 -6h9v-98h-103q-30 0 -30 44q-28 -49 -75 -49h-2q-29 0 -45.5 21.5t-16.5 51.5z
M144 93v181q-21 -12 -21 -36v-145q0 -14 11 -14q10 0 10 14z" />
    <glyph glyph-name="aacute" unicode="&#xe1;" horiz-adv-x="280" 
d="M86 555l34 113h99l-37 -113h-96zM6 68v167q0 57 50 81q12 6 43 18.5t36 14.5q9 5 9 14v91q0 13 -11 13h-1q-11 0 -11 -13v-102h-111v103q0 91 116 91h13q124 0 124 -90v-352q0 -6 6 -6h9v-98h-103q-30 0 -30 44q-28 -49 -75 -49h-2q-29 0 -45.5 21.5t-16.5 51.5zM144 93
v181q-21 -12 -21 -36v-145q0 -14 11 -14q10 0 10 14z" />
    <glyph glyph-name="acircumflex" unicode="&#xe2;" horiz-adv-x="280" 
d="M184 668l48 -113h-83l-16 51l-15 -51h-82l48 113h100zM6 68v167q0 57 50 81q12 6 43 18.5t36 14.5q9 5 9 14v91q0 13 -11 13h-1q-11 0 -11 -13v-102h-111v103q0 91 116 91h13q124 0 124 -90v-352q0 -6 6 -6h9v-98h-103q-30 0 -30 44q-28 -49 -75 -49h-2q-29 0 -45.5 21.5
t-16.5 51.5zM144 93v181q-21 -12 -21 -36v-145q0 -14 11 -14q10 0 10 14z" />
    <glyph glyph-name="atilde" unicode="&#xe3;" horiz-adv-x="280" 
d="M6 68v167q0 57 50 81q12 6 43 18.5t36 14.5q9 5 9 14v91q0 13 -11 13h-1q-11 0 -11 -13v-102h-111v103q0 91 116 91h13q124 0 124 -90v-352q0 -6 6 -6h9v-98h-103q-30 0 -30 44q-28 -49 -75 -49h-2q-29 0 -45.5 21.5t-16.5 51.5zM144 93v181q-21 -12 -21 -36v-145
q0 -14 11 -14q10 0 10 14zM162 660h65v-53q0 -50 -45 -50h-2q-19 0 -46 15q-18 10 -21 10q-5 0 -5 -8v-19h-66v53q0 23 12 36.5t34 13.5h2q20 0 45 -14q18 -11 22 -11q5 0 5 8v19z" />
    <glyph glyph-name="adieresis" unicode="&#xe4;" horiz-adv-x="280" 
d="M126 650v-95h-89v95h89zM230 650v-95h-89v95h89zM6 68v167q0 57 50 81q12 6 43 18.5t36 14.5q9 5 9 14v91q0 13 -11 13h-1q-11 0 -11 -13v-102h-111v103q0 91 116 91h13q124 0 124 -90v-352q0 -6 6 -6h9v-98h-103q-30 0 -30 44q-28 -49 -75 -49h-2q-29 0 -45.5 21.5
t-16.5 51.5zM144 93v181q-21 -12 -21 -36v-145q0 -14 11 -14q10 0 10 14z" />
    <glyph glyph-name="aring" unicode="&#xe5;" horiz-adv-x="280" 
d="M6 68v167q0 57 50 81q12 6 43 18.5t36 14.5q9 5 9 14v91q0 13 -11 13h-1q-11 0 -11 -13v-102h-111v103q0 91 116 91h13q124 0 124 -90v-352q0 -6 6 -6h9v-98h-103q-30 0 -30 44q-28 -49 -75 -49h-2q-29 0 -45.5 21.5t-16.5 51.5zM144 93v181q-21 -12 -21 -36v-145
q0 -14 11 -14q10 0 10 14zM199 617q0 -28 -18.5 -45.5t-46.5 -17.5t-47 18t-19 45t19 44.5t47 17.5t46.5 -17.5t18.5 -44.5zM108 617q0 -12 7.5 -19t18.5 -7t18 7t7 19q0 11 -7 18t-18 7t-18.5 -7t-7.5 -18z" />
    <glyph glyph-name="ae" unicode="&#xe6;" horiz-adv-x="411" 
d="M404 104q0 -52 -31 -82t-85 -30h-24q-82 0 -106 54q-36 -51 -85 -51h-2q-31 0 -48 21.5t-17 51.5v155q0 55 50 81q12 6 44 19t35 14q9 5 9 14v103q0 13 -11 13h-1q-11 0 -11 -13v-114h-111v115q0 91 114 91h10q51 0 75 -21q21 21 66 21h11q118 0 118 -117v-166h-139v-170
q0 -16 11 -16q12 0 12 16v143h116v-132zM265 451v-118h23v118q0 11 -2 15t-10 4q-11 0 -11 -19zM144 93v170q-13 -8 -17 -15t-4 -21v-134q0 -14 11 -14q10 0 10 14z" />
    <glyph glyph-name="ccedilla" unicode="&#xe7;" horiz-adv-x="267" 
d="M209 -80q0 -28 -18.5 -44.5t-52.5 -16.5h-59v53h42q14 0 14 10q0 9 -14 9h-33v65q-80 17 -80 108v328q0 51 28 82.5t89 31.5h28q109 0 109 -101v-133h-111v136q0 13 -10 13t-10 -13v-353q0 -14 10 -14t10 14v154h111v-156q0 -46 -30 -73.5t-81 -27.5h-11v-15h4
q32 0 48.5 -15t16.5 -40v-2z" />
    <glyph glyph-name="egrave" unicode="&#xe8;" horiz-adv-x="275" 
d="M154 668l33 -112h-95l-37 112h99zM268 104q0 -52 -31 -82t-85 -30h-24q-120 0 -120 116v320q0 56 30.5 87t89.5 31h24q53 0 84.5 -28t31.5 -88v-169h-140v-168q0 -16 12 -16t12 16v141h116v-130zM128 451v-120h24v120q0 19 -12 19t-12 -19z" />
    <glyph glyph-name="eacute" unicode="&#xe9;" horiz-adv-x="275" 
d="M91 556l34 112h99l-37 -112h-96zM268 104q0 -52 -31 -82t-85 -30h-24q-120 0 -120 116v320q0 56 30.5 87t89.5 31h24q53 0 84.5 -28t31.5 -88v-169h-140v-168q0 -16 12 -16t12 16v141h116v-130zM128 451v-120h24v120q0 19 -12 19t-12 -19z" />
    <glyph glyph-name="ecircumflex" unicode="&#xea;" horiz-adv-x="275" 
d="M189 668l47 -112h-82l-16 50l-15 -50h-82l48 112h100zM268 104q0 -52 -31 -82t-85 -30h-24q-120 0 -120 116v320q0 56 30.5 87t89.5 31h24q53 0 84.5 -28t31.5 -88v-169h-140v-168q0 -16 12 -16t12 16v141h116v-130zM128 451v-120h24v120q0 19 -12 19t-12 -19z" />
    <glyph glyph-name="edieresis" unicode="&#xeb;" horiz-adv-x="275" 
d="M152 546q53 0 84.5 -28t31.5 -88v-169h-140v-168q0 -16 12 -16t12 16v141h116v-130q0 -52 -31 -82t-85 -30h-24q-120 0 -120 116v320q0 56 30.5 87t89.5 31h24zM235 650v-94h-89v94h89zM131 650v-94h-89v94h89zM128 451v-120h24v120q0 19 -12 19t-12 -19z" />
    <glyph glyph-name="igrave" unicode="&#xec;" horiz-adv-x="139" 
d="M131 538v-538h-123v538h123zM85 668l34 -116h-96l-37 116h99z" />
    <glyph glyph-name="iacute" unicode="&#xed;" horiz-adv-x="139" 
d="M22 552l35 116h99l-38 -116h-96zM131 538v-538h-123v538h123z" />
    <glyph glyph-name="icircumflex" unicode="&#xee;" horiz-adv-x="139" 
d="M120 668l32 -116h-71l-12 57l-12 -57h-71l33 116h101zM131 538v-538h-123v538h123z" />
    <glyph glyph-name="idieresis" unicode="&#xef;" horiz-adv-x="139" 
d="M64 648v-96h-77v96h77zM151 648v-96h-76v96h76zM131 538v-538h-123v538h123z" />
    <glyph glyph-name="eth" unicode="&#xf0;" horiz-adv-x="286" 
d="M278 115q0 -55 -34.5 -89t-96.5 -34h-11q-128 0 -128 118v326q0 47 18 75.5t52 28.5h4q38 0 72 -34l-37 86l-71 -38v70l47 25l-40 95h123l17 -41l54 29v-71l-30 -16l30 -72q31 -62 31 -135v-323zM130 104q0 -19 13 -19q12 0 12 19v332q0 19 -12 19q-13 0 -13 -19v-332z
" />
    <glyph glyph-name="ntilde" unicode="&#xf1;" horiz-adv-x="288" 
d="M8 0v538h121v-47q38 52 82 52h5q34 0 49 -22t15 -48v-473h-124v434q0 17 -13 17q-12 0 -12 -18v-433h-123zM171 656h65v-53q0 -50 -45 -50h-2q-19 0 -46 15q-18 10 -21 10q-5 0 -5 -8v-19h-66v53q0 23 12 36.5t34 13.5h2q20 0 45 -14q18 -11 22 -11q5 0 5 8v19z" />
    <glyph glyph-name="ograve" unicode="&#xf2;" horiz-adv-x="289" 
d="M160 668l33 -112h-95l-37 112h99zM134 -8q-126 0 -126 131v293q0 130 127 130h20q126 0 126 -130v-293q0 -65 -33.5 -98t-93.5 -33h-20zM132 103q0 -18 12 -18q13 0 13 18v334q0 19 -13 19q-12 0 -12 -19v-334z" />
    <glyph glyph-name="oacute" unicode="&#xf3;" horiz-adv-x="289" 
d="M97 556l34 112h99l-37 -112h-96zM134 -8q-126 0 -126 131v293q0 130 127 130h20q126 0 126 -130v-293q0 -65 -33.5 -98t-93.5 -33h-20zM132 103q0 -18 12 -18q13 0 13 18v334q0 19 -13 19q-12 0 -12 -19v-334z" />
    <glyph glyph-name="ocircumflex" unicode="&#xf4;" horiz-adv-x="289" 
d="M195 666l48 -110h-83l-15 49l-15 -49h-82l47 110h100zM134 -8q-126 0 -126 131v293q0 130 127 130h20q126 0 126 -130v-293q0 -65 -33.5 -98t-93.5 -33h-20zM132 103q0 -18 12 -18q13 0 13 18v334q0 19 -13 19q-12 0 -12 -19v-334z" />
    <glyph glyph-name="otilde" unicode="&#xf5;" horiz-adv-x="289" 
d="M134 -8q-126 0 -126 131v293q0 130 127 130h20q126 0 126 -130v-293q0 -65 -33.5 -98t-93.5 -33h-20zM132 103q0 -18 12 -18q13 0 13 18v334q0 19 -13 19q-12 0 -12 -19v-334zM171 660h65v-53q0 -50 -45 -50h-2q-19 0 -46 15q-18 10 -21 10q-5 0 -5 -8v-19h-66v53
q0 23 12 36.5t34 13.5h2q20 0 45 -14q18 -11 22 -11q5 0 5 8v19z" />
    <glyph glyph-name="odieresis" unicode="&#xf6;" horiz-adv-x="289" 
d="M137 650v-94h-89v94h89zM241 650v-94h-89v94h89zM134 -8q-126 0 -126 131v293q0 130 127 130h20q126 0 126 -130v-293q0 -65 -33.5 -98t-93.5 -33h-20zM132 103q0 -18 12 -18q13 0 13 18v334q0 19 -13 19q-12 0 -12 -19v-334z" />
    <glyph glyph-name="divide" unicode="&#xf7;" horiz-adv-x="230" 
d="M154 429v-78h-78v78h78zM8 339h214v-72h-214v72zM154 255v-78h-78v78h78z" />
    <glyph glyph-name="oslash" unicode="&#xf8;" horiz-adv-x="283" 
d="M275 124q0 -132 -132 -132h-3q-44 0 -72 18l-8 -14h-52l23 42q-23 32 -23 86v290q0 132 130 132h6q41 0 69 -18l8 14h54l-26 -41q26 -34 26 -87v-290zM128 104q0 -20 13 -20q14 0 14 20v50l3 119l-30 -112v-57zM128 380l-3 -110l30 113v53q0 21 -14 21q-13 0 -13 -21v-56
z" />
    <glyph glyph-name="ugrave" unicode="&#xf9;" 
d="M279 538v-538h-121v47q-37 -51 -82 -51h-4q-32 0 -48 22.5t-16 47.5v472h124v-434q0 -16 13 -16q11 0 11 17v433h123zM159 668l34 -116h-96l-37 116h99z" />
    <glyph glyph-name="uacute" unicode="&#xfa;" 
d="M96 552l35 116h99l-38 -116h-96zM279 538v-538h-121v47q-37 -51 -82 -51h-4q-32 0 -48 22.5t-16 47.5v472h124v-434q0 -16 13 -16q11 0 11 17v433h123z" />
    <glyph glyph-name="ucircumflex" unicode="&#xfb;" 
d="M194 668l48 -116h-83l-16 54l-15 -54h-82l47 116h101zM279 538v-538h-121v47q-37 -51 -82 -51h-4q-32 0 -48 22.5t-16 47.5v472h124v-434q0 -16 13 -16q11 0 11 17v433h123z" />
    <glyph glyph-name="udieresis" unicode="&#xfc;" 
d="M137 647v-95h-89v95h89zM241 647v-95h-89v95h89zM279 538v-538h-121v47q-37 -51 -82 -51h-4q-32 0 -48 22.5t-16 47.5v472h124v-434q0 -16 13 -16q11 0 11 17v433h123z" />
    <glyph glyph-name="yacute" unicode="&#xfd;" horiz-adv-x="269" 
d="M187 -115q-10 -52 -57 -52h-103v100h38q10 0 10 11q0 1 0.5 10t0.5 13q0 15 -4 42l-74 529h122l18 -317l13 317h120zM87 552l35 116h99l-38 -116h-96z" />
    <glyph glyph-name="thorn" unicode="&#xfe;" 
d="M8 744h123v-253q36 52 79 52h3q66 0 66 -91v-370q0 -37 -21 -63t-51 -26h-2q-43 0 -74 46v-206h-123v911zM131 95q0 -16 12 -16q11 0 11 16v345q0 17 -11 17q-12 0 -12 -17v-345z" />
    <glyph glyph-name="ydieresis" unicode="&#xff;" horiz-adv-x="269" 
d="M187 -115q-10 -52 -57 -52h-103v100h38q10 0 10 11q0 1 0.5 10t0.5 13q0 15 -4 42l-74 529h122l18 -317l13 317h120zM127 647v-95h-89v95h89zM231 647v-95h-89v95h89z" />
    <glyph glyph-name="Amacron" unicode="&#x100;" horiz-adv-x="285" 
d="M164 0l-7 134h-43l-7 -134h-109l62 744h160l67 -744h-123zM121 243h30l-15 283zM58 762v77h165v-77h-165z" />
    <glyph glyph-name="amacron" unicode="&#x101;" horiz-adv-x="280" 
d="M6 68v167q0 57 50 81q12 6 43 18.5t36 14.5q9 5 9 14v91q0 13 -11 13h-1q-11 0 -11 -13v-102h-111v103q0 91 116 91h13q124 0 124 -90v-352q0 -6 6 -6h9v-98h-103q-30 0 -30 44q-28 -49 -75 -49h-2q-29 0 -45.5 21.5t-16.5 51.5zM144 93v181q-21 -12 -21 -36v-145
q0 -14 11 -14q10 0 10 14zM51 560v78h165v-78h-165z" />
    <glyph glyph-name="Abreve" unicode="&#x102;" horiz-adv-x="285" 
d="M164 0l-7 134h-43l-7 -134h-109l62 744h160l67 -744h-123zM121 243h30l-15 283zM232 840q0 -37 -24 -61t-67 -24h-3q-44 0 -67.5 24t-23.5 61v9h77v-8q0 -19 15 -19h1q16 0 16 19v8h76v-9z" />
    <glyph glyph-name="abreve" unicode="&#x103;" horiz-adv-x="280" 
d="M6 68v167q0 57 50 81q12 6 43 18.5t36 14.5q9 5 9 14v91q0 13 -11 13h-1q-11 0 -11 -13v-102h-111v103q0 91 116 91h13q124 0 124 -90v-352q0 -6 6 -6h9v-98h-103q-30 0 -30 44q-28 -49 -75 -49h-2q-29 0 -45.5 21.5t-16.5 51.5zM144 93v181q-21 -12 -21 -36v-145
q0 -14 11 -14q10 0 10 14zM225 642q0 -41 -24 -64.5t-67 -23.5h-2q-92 0 -92 88v12h77v-8q0 -25 15 -25h1q16 0 16 25v8h76v-12z" />
    <glyph glyph-name="Aogonek" unicode="&#x104;" horiz-adv-x="282" 
d="M164 0l-7 134h-43l-7 -134h-109l62 744h160l67 -744h-1q-27 -36 -27 -74v-2q0 -23 20 -23h7v-68h-42q-31 0 -51.5 14.5t-20.5 42.5v6q0 50 63 104h-71zM121 243h30l-15 283z" />
    <glyph glyph-name="aogonek" unicode="&#x105;" horiz-adv-x="279" 
d="M164 -110v6q0 50 63 104h-52q-30 0 -30 44q-28 -49 -75 -49h-2q-29 0 -45.5 21.5t-16.5 51.5v167q0 57 50 81q12 6 43 18.5t36 14.5q9 5 9 14v91q0 13 -11 13h-1q-11 0 -11 -13v-102h-111v103q0 91 116 91h13q124 0 124 -90v-352q0 -6 6 -6h9v-98q-27 -36 -27 -74v-2
q0 -23 20 -23h7v-68h-42q-31 0 -51.5 14.5t-20.5 42.5zM144 93v181q-21 -12 -21 -36v-145q0 -14 11 -14q10 0 10 14z" />
    <glyph glyph-name="Cacute" unicode="&#x106;" horiz-adv-x="297" 
d="M105 761l35 92h102l-38 -92h-99zM152 102q13 0 13 21v217h124v-220q0 -55 -31.5 -91t-94.5 -36h-20q-134 0 -134 139v484q2 135 133 135h21q64 0 95 -32t31 -89v-197h-124v193q0 19 -13 19t-13 -19v-503q0 -21 13 -21z" />
    <glyph glyph-name="cacute" unicode="&#x107;" horiz-adv-x="267" 
d="M91 556l34 112h99l-37 -112h-96zM262 93q0 -46 -30 -73.5t-81 -27.5h-26q-54 0 -85.5 28t-31.5 84v328q0 51 28 82.5t89 31.5h28q109 0 109 -101v-133h-111v136q0 13 -10 13t-10 -13v-353q0 -14 10 -14t10 14v154h111v-156z" />
    <glyph glyph-name="Ccircumflex" unicode="&#x108;" horiz-adv-x="297" 
d="M208 853l48 -92h-86l-17 35l-16 -35h-86l48 92h109zM152 102q13 0 13 21v217h124v-220q0 -55 -31.5 -91t-94.5 -36h-20q-134 0 -134 139v484q2 135 133 135h21q64 0 95 -32t31 -89v-197h-124v193q0 19 -13 19t-13 -19v-503q0 -21 13 -21z" />
    <glyph glyph-name="ccircumflex" unicode="&#x109;" horiz-adv-x="267" 
d="M189 668l48 -112h-83l-15 50l-15 -50h-82l47 112h100zM262 93q0 -46 -30 -73.5t-81 -27.5h-26q-54 0 -85.5 28t-31.5 84v328q0 51 28 82.5t89 31.5h28q109 0 109 -101v-133h-111v136q0 13 -10 13t-10 -13v-353q0 -14 10 -14t10 14v154h111v-156z" />
    <glyph glyph-name="Cdotaccent" unicode="&#x10a;" horiz-adv-x="297" 
d="M214 866v-105h-123v105h123zM152 102q13 0 13 21v217h124v-220q0 -55 -31.5 -91t-94.5 -36h-20q-134 0 -134 139v484q2 135 133 135h21q64 0 95 -32t31 -89v-197h-124v193q0 19 -13 19t-13 -19v-503q0 -21 13 -21z" />
    <glyph glyph-name="cdotaccent" unicode="&#x10b;" horiz-adv-x="267" 
d="M201 668v-112h-124v112h124zM262 93q0 -46 -30 -73.5t-81 -27.5h-26q-54 0 -85.5 28t-31.5 84v328q0 51 28 82.5t89 31.5h28q109 0 109 -101v-133h-111v136q0 13 -10 13t-10 -13v-353q0 -14 10 -14t10 14v154h111v-156z" />
    <glyph glyph-name="Ccaron" unicode="&#x10c;" horiz-adv-x="297" 
d="M99 761l-48 92h87l16 -38l17 38h86l-48 -92h-110zM152 102q13 0 13 21v217h124v-220q0 -55 -31.5 -91t-94.5 -36h-20q-134 0 -134 139v484q2 135 133 135h21q64 0 95 -32t31 -89v-197h-124v193q0 19 -13 19t-13 -19v-503q0 -21 13 -21z" />
    <glyph glyph-name="ccaron" unicode="&#x10d;" horiz-adv-x="267" 
d="M88 556l-46 112h82l15 -54l16 54h82l-46 -112h-103zM262 93q0 -46 -30 -73.5t-81 -27.5h-26q-54 0 -85.5 28t-31.5 84v328q0 51 28 82.5t89 31.5h28q109 0 109 -101v-133h-111v136q0 13 -10 13t-10 -13v-353q0 -14 10 -14t10 14v154h111v-156z" />
    <glyph glyph-name="Dcaron" unicode="&#x10e;" horiz-adv-x="297" 
d="M81 758l-50 95h85l16 -38l17 38h85l-50 -95h-103zM9 0v744h181q98 0 98 -107v-524q0 -56 -26.5 -84.5t-69.5 -28.5h-183zM133 642v-537h12q15 0 15 25v489q0 23 -15 23h-12z" />
    <glyph glyph-name="dcaron" unicode="&#x10f;" 
d="M290 624l4 120h82l-8 -120h-78zM157 744h123v-744h-122v42q-36 -49 -75 -49h-2q-32 0 -52.5 27t-20.5 65v371q0 37 19 61.5t48 24.5h4q41 0 78 -45v247zM133 98q0 -17 12 -17t12 17v338q0 18 -12 18t-12 -17v-339z" />
    <glyph glyph-name="Dcroat" unicode="&#x110;" horiz-adv-x="302" 
d="M14 0v328h-14v109h14v307h181q98 0 98 -107v-524q0 -56 -26.5 -84.5t-69.5 -28.5h-183zM138 642v-205h20v-109h-20v-223h12q15 0 15 25v489q0 23 -15 23h-12z" />
    <glyph glyph-name="dcroat" unicode="&#x111;" 
d="M157 744h123v-65h19v-89h-19v-590h-122v42q-36 -49 -75 -49h-2q-32 0 -52.5 27t-20.5 65v371q0 37 19 61.5t48 24.5h4q41 0 78 -45v93h-57v89h57v65zM133 98q0 -17 12 -17t12 17v338q0 18 -12 18t-12 -17v-339z" />
    <glyph glyph-name="Emacron" unicode="&#x112;" horiz-adv-x="233" 
d="M9 744h214v-114h-90v-181h76v-118h-76v-215h93v-116h-217v744zM35 762v77h165v-77h-165z" />
    <glyph glyph-name="emacron" unicode="&#x113;" horiz-adv-x="275" 
d="M268 104q0 -52 -31 -82t-85 -30h-24q-120 0 -120 116v320q0 56 30.5 87t89.5 31h24q53 0 84.5 -28t31.5 -88v-169h-140v-168q0 -16 12 -16t12 16v141h116v-130zM128 451v-120h24v120q0 19 -12 19t-12 -19zM57 561v78h165v-78h-165z" />
    <glyph glyph-name="Ebreve" unicode="&#x114;" horiz-adv-x="233" 
d="M9 744h214v-114h-90v-181h76v-118h-76v-215h93v-116h-217v744zM211 840q0 -37 -24 -61t-67 -24h-3q-44 0 -67.5 24t-23.5 61v9h77v-8q0 -19 15 -19h1q16 0 16 19v8h76v-9z" />
    <glyph glyph-name="ebreve" unicode="&#x115;" horiz-adv-x="275" 
d="M268 104q0 -52 -31 -82t-85 -30h-24q-120 0 -120 116v320q0 56 30.5 87t89.5 31h24q53 0 84.5 -28t31.5 -88v-169h-140v-168q0 -16 12 -16t12 16v141h116v-130zM128 451v-120h24v120q0 19 -12 19t-12 -19zM231 642q0 -41 -24 -64.5t-67 -23.5h-2q-92 0 -92 88v12h77v-8
q0 -25 15 -25h1q16 0 16 25v8h76v-12z" />
    <glyph glyph-name="Edotaccent" unicode="&#x116;" horiz-adv-x="233" 
d="M180 866v-108h-123v108h123zM9 744h214v-114h-90v-181h76v-118h-76v-215h93v-116h-217v744z" />
    <glyph glyph-name="edotaccent" unicode="&#x117;" horiz-adv-x="275" 
d="M201 668v-112h-124v112h124zM268 104q0 -52 -31 -82t-85 -30h-24q-120 0 -120 116v320q0 56 30.5 87t89.5 31h24q53 0 84.5 -28t31.5 -88v-169h-140v-168q0 -16 12 -16t12 16v141h116v-130zM128 451v-120h24v120q0 19 -12 19t-12 -19z" />
    <glyph glyph-name="Eogonek" unicode="&#x118;" horiz-adv-x="232" 
d="M9 744h214v-114h-90v-181h76v-118h-76v-215h93v-116h-32q-26 -35 -26 -74v-2q0 -23 21 -23h6v-68h-42q-31 0 -51.5 14.5t-20.5 42.5v6q0 51 62 104h-134v744z" />
    <glyph glyph-name="eogonek" unicode="&#x119;" horiz-adv-x="275" 
d="M228 -99v-68h-43q-31 0 -51.5 14.5t-20.5 42.5v6q0 49 55 97q-6 -1 -16 -1h-24q-120 0 -120 116v320q0 56 30.5 87t89.5 31h24q53 0 84.5 -28t31.5 -88v-169h-140v-168q0 -16 12 -16t12 16v141h116v-130q0 -24 -8 -46.5t-14 -32.5t-20 -31q-26 -41 -26 -68v-2
q0 -23 21 -23h7zM128 451v-120h24v120q0 19 -12 19t-12 -19z" />
    <glyph glyph-name="Ecaron" unicode="&#x11a;" horiz-adv-x="233" 
d="M67 758l-50 95h85l16 -38l17 38h85l-50 -95h-103zM9 744h214v-114h-90v-181h76v-118h-76v-215h93v-116h-217v744z" />
    <glyph glyph-name="ecaron" unicode="&#x11b;" horiz-adv-x="275" 
d="M87 556l-46 110h82l15 -52l16 52h82l-46 -110h-103zM268 104q0 -52 -31 -82t-85 -30h-24q-120 0 -120 116v320q0 56 30.5 87t89.5 31h24q53 0 84.5 -28t31.5 -88v-169h-140v-168q0 -16 12 -16t12 16v141h116v-130zM128 451v-120h24v120q0 19 -12 19t-12 -19z" />
    <glyph glyph-name="Gcircumflex" unicode="&#x11c;" horiz-adv-x="304" 
d="M206 853l48 -92h-86l-17 35l-16 -35h-85l47 92h109zM111 -7h-3q-48 0 -73.5 35t-25.5 88v506q0 58 32 93.5t102 35.5h17q70 0 100 -33.5t30 -85.5v-167h-122v162q0 19 -15 19q-14 0 -14 -19v-508q0 -23 18 -23t18 23v222h-26v97h146v-438h-85q-5 30 -13 47
q-35 -54 -86 -54z" />
    <glyph glyph-name="gcircumflex" unicode="&#x11d;" 
d="M192 668l48 -116h-83l-16 54l-15 -54h-82l47 116h101zM280 -72q0 -47 -31 -73.5t-90 -26.5h-29q-116 0 -116 84v75h120v-60q0 -13 11 -13q12 0 12 14v113q-33 -47 -75 -47q-32 0 -53 23t-21 63v377q0 35 18 60t51 25h4q37 0 77 -47v43h122v-610zM133 95q0 -16 12 -16
t12 16v343q0 16 -12 16t-12 -16v-343z" />
    <glyph glyph-name="Gbreve" unicode="&#x11e;" horiz-adv-x="304" 
d="M246 844q0 -37 -24 -61t-67 -24h-3q-44 0 -67.5 24t-23.5 61v9h77v-8q0 -19 15 -19h1q16 0 16 19v8h76v-9zM111 -7h-3q-48 0 -73.5 35t-25.5 88v506q0 58 32 93.5t102 35.5h17q70 0 100 -33.5t30 -85.5v-167h-122v162q0 19 -15 19q-14 0 -14 -19v-508q0 -23 18 -23t18 23
v222h-26v97h146v-438h-85q-5 30 -13 47q-35 -54 -86 -54z" />
    <glyph glyph-name="gbreve" unicode="&#x11f;" 
d="M280 -72q0 -47 -31 -73.5t-90 -26.5h-29q-116 0 -116 84v75h120v-60q0 -13 11 -13q12 0 12 14v113q-33 -47 -75 -47q-32 0 -53 23t-21 63v377q0 35 18 60t51 25h4q37 0 77 -47v43h122v-610zM133 95q0 -16 12 -16t12 16v343q0 16 -12 16t-12 -16v-343zM234 638
q0 -41 -24 -64.5t-67 -23.5h-2q-92 0 -92 88v12h77v-8q0 -25 15 -25h1q16 0 16 25v8h76v-12z" />
    <glyph glyph-name="Gdotaccent" unicode="&#x120;" horiz-adv-x="304" 
d="M214 866v-105h-123v105h123zM111 -7h-3q-48 0 -73.5 35t-25.5 88v506q0 58 32 93.5t102 35.5h17q70 0 100 -33.5t30 -85.5v-167h-122v162q0 19 -15 19q-14 0 -14 -19v-508q0 -23 18 -23t18 23v222h-26v97h146v-438h-85q-5 30 -13 47q-35 -54 -86 -54z" />
    <glyph glyph-name="gdotaccent" unicode="&#x121;" 
d="M280 -72q0 -47 -31 -73.5t-90 -26.5h-29q-116 0 -116 84v75h120v-60q0 -13 11 -13q12 0 12 14v113q-33 -47 -75 -47q-32 0 -53 23t-21 63v377q0 35 18 60t51 25h4q37 0 77 -47v43h122v-610zM133 95q0 -16 12 -16t12 16v343q0 16 -12 16t-12 -16v-343zM204 668v-116h-123
v116h123z" />
    <glyph glyph-name="uni0122" unicode="&#x122;" horiz-adv-x="304" 
d="M190 -164h-53q10 28 12 57h-40v91h98v-66q0 -40 -17 -82zM111 -7h-3q-48 0 -73.5 35t-25.5 88v506q0 58 32 93.5t102 35.5h17q70 0 100 -33.5t30 -85.5v-167h-122v162q0 19 -15 19q-14 0 -14 -19v-508q0 -23 18 -23t18 23v222h-26v97h146v-438h-85q-5 30 -13 47
q-35 -54 -86 -54z" />
    <glyph glyph-name="uni0123" unicode="&#x123;" 
d="M107 700h53q-10 -28 -12 -57h40v-91h-98v66q0 40 17 82zM280 -72q0 -47 -31 -73.5t-90 -26.5h-29q-116 0 -116 84v75h120v-60q0 -13 11 -13q12 0 12 14v113q-33 -47 -75 -47q-32 0 -53 23t-21 63v377q0 35 18 60t51 25h4q37 0 77 -47v43h122v-610zM133 95q0 -16 12 -16
t12 16v343q0 16 -12 16t-12 -16v-343z" />
    <glyph glyph-name="Hcircumflex" unicode="&#x124;" horiz-adv-x="298" 
d="M163 0v324h-27v-324h-127v744h127v-289h27v289h126v-744h-126zM200 853l50 -95h-85l-17 37l-16 -37h-85l50 95h103z" />
    <glyph glyph-name="hcircumflex" unicode="&#x125;" horiz-adv-x="288" 
d="M8 0v744h123v-251q35 50 80 50h4q34 0 49.5 -22t15.5 -48v-473h-124v434q0 17 -13 17q-12 0 -12 -18v-433h-123zM191 852l50 -95h-85l-17 37l-16 -37h-85l50 95h103z" />
    <glyph glyph-name="Hbar" unicode="&#x126;" horiz-adv-x="304" 
d="M1 553v85h11v106h127v-106h27v106h126v-106h12v-85h-12v-553h-126v324h-27v-324h-127v553h-11zM139 455h27v98h-27v-98z" />
    <glyph glyph-name="hbar" unicode="&#x127;" horiz-adv-x="288" 
d="M131 433v-433h-123v590h-19v89h19v65h123v-65h57v-89h-57v-97q35 50 80 50h4q34 0 49.5 -22t15.5 -48v-473h-124v434q0 17 -13 17q-12 0 -12 -18z" />
    <glyph glyph-name="Itilde" unicode="&#x128;" horiz-adv-x="145" 
d="M136 744v-744h-127v744h127zM72 839q21 -8 24 -8q5 0 5 8v16h65v-44q0 -52 -43 -52h-2q-17 0 -49 13q-22 8 -24 8q-6 0 -6 -8v-15h-64v46q0 50 44 50h1q14 0 49 -14z" />
    <glyph glyph-name="itilde" unicode="&#x129;" horiz-adv-x="139" 
d="M92 656h60v-56q0 -47 -39 -47h-2q-18 0 -40 15q-17 10 -19 10q-5 0 -5 -8v-19h-60v56q0 47 40 47h1q17 0 39 -14q18 -11 20 -11q5 0 5 8v19zM131 538v-538h-123v538h123z" />
    <glyph glyph-name="Imacron" unicode="&#x12a;" horiz-adv-x="145" 
d="M136 744v-744h-127v744h127zM-10 762v77h165v-77h-165z" />
    <glyph glyph-name="imacron" unicode="&#x12b;" horiz-adv-x="139" 
d="M-3 557v77h145v-77h-145zM131 538v-538h-123v538h123z" />
    <glyph glyph-name="Ibreve" unicode="&#x12c;" horiz-adv-x="145" 
d="M136 744v-744h-127v744h127zM165 840q0 -37 -24 -61t-67 -24h-3q-44 0 -67.5 24t-23.5 61v9h77v-8q0 -19 15 -19h1q16 0 16 19v8h76v-9z" />
    <glyph glyph-name="ibreve" unicode="&#x12d;" horiz-adv-x="139" 
d="M150 627q0 -34 -20 -55.5t-59 -21.5h-2q-42 0 -61 21.5t-19 55.5v24h68v-15q0 -20 13 -20t13 20v15h67v-24zM131 538v-538h-123v538h123z" />
    <glyph glyph-name="Iogonek" unicode="&#x12e;" horiz-adv-x="145" 
d="M22 -110v6q0 50 63 104h-76v744h127v-744q-27 -36 -27 -74v-2q0 -23 20 -23h7v-68h-42q-31 0 -51.5 14.5t-20.5 42.5z" />
    <glyph glyph-name="iogonek" unicode="&#x12f;" horiz-adv-x="139" 
d="M17 -110v6q0 50 63 104h-72v538h123v-538q-27 -36 -27 -74v-2q0 -23 20 -23h7v-68h-42q-31 0 -51.5 14.5t-20.5 42.5zM131 668v-116h-123v116h123z" />
    <glyph glyph-name="Idotaccent" unicode="&#x130;" horiz-adv-x="145" 
d="M136 744v-744h-127v744h127zM134 866v-108h-123v108h123z" />
    <glyph glyph-name="dotlessi" unicode="&#x131;" horiz-adv-x="139" 
d="M131 538v-538h-123v538h123z" />
    <glyph glyph-name="IJ" unicode="&#x132;" horiz-adv-x="427" 
d="M136 744v-744h-127v744h127zM152 321h115v-207q0 -13 11 -13h1q10 0 10 13v630h129v-637q0 -52 -30 -83t-92 -31h-34q-57 0 -83.5 30t-26.5 80v218z" />
    <glyph glyph-name="ij" unicode="&#x133;" horiz-adv-x="278" 
d="M131 668v-116h-123v116h123zM131 538v-538h-123v538h123zM270 668v-116h-123v116h123zM112 -61h24q11 0 11 12v587h123v-647q0 -28 -15.5 -43t-38.5 -15h-104v106z" />
    <glyph glyph-name="Jcircumflex" unicode="&#x134;" horiz-adv-x="282" 
d="M258 853l50 -95h-85l-17 37l-16 -37h-85l50 95h103zM7 321h115v-207q0 -13 11 -13h1q10 0 10 13v630h129v-637q0 -52 -30 -83t-92 -31h-34q-57 0 -83.5 30t-26.5 80v218z" />
    <glyph glyph-name="jcircumflex" unicode="&#x135;" horiz-adv-x="139" 
d="M119 668l32 -116h-71l-13 57l-12 -57h-70l33 116h101zM-27 -61h24q11 0 11 12v587h123v-647q0 -28 -15.5 -43t-38.5 -15h-104v106z" />
    <glyph glyph-name="uni0136" unicode="&#x136;" horiz-adv-x="302" 
d="M187 -162h-53q10 28 12 57h-40v91h98v-66q0 -39 -17 -82zM173 0l-39 293l1 -293h-126v744h126l-1 -268l42 268h126l-61 -337l64 -407h-132z" />
    <glyph glyph-name="uni0137" unicode="&#x137;" horiz-adv-x="281" 
d="M179 -162h-53q10 28 12 57h-40v91h98v-66q0 -39 -17 -82zM131 0h-123v744h123v-381l30 175h116l-45 -227l51 -311h-120l-33 222z" />
    <glyph glyph-name="Lacute" unicode="&#x139;" horiz-adv-x="222" 
d="M23 758l37 95h102l-40 -95h-99zM9 744h126l1 -626h80l-1 -118h-206v744z" />
    <glyph glyph-name="lacute" unicode="&#x13a;" horiz-adv-x="139" 
d="M20 757l37 95h102l-40 -95h-99zM131 744v-744h-123v744h123z" />
    <glyph glyph-name="uni013B" unicode="&#x13b;" horiz-adv-x="222" 
d="M146 -162h-53q10 28 12 57h-40v91h98v-66q0 -39 -17 -82zM9 744h126l1 -626h80l-1 -118h-206v744z" />
    <glyph glyph-name="uni013C" unicode="&#x13c;" horiz-adv-x="139" 
d="M102 -162h-53q10 28 12 57h-40v91h98v-66q0 -39 -17 -82zM131 744v-744h-123v744h123z" />
    <glyph glyph-name="Lcaron" unicode="&#x13d;" horiz-adv-x="222" 
d="M145 624l4 120h82l-8 -120h-78zM9 744h126l1 -626h80l-1 -118h-206v744z" />
    <glyph glyph-name="lcaron" unicode="&#x13e;" horiz-adv-x="139" 
d="M141 624l4 120h82l-8 -120h-78zM131 744v-744h-123v744h123z" />
    <glyph glyph-name="Ldot" unicode="&#x13f;" horiz-adv-x="259" 
d="M255 446v-128h-107v128h107zM9 744h126l1 -626h80l-1 -118h-206v744z" />
    <glyph glyph-name="ldot" unicode="&#x140;" horiz-adv-x="254" 
d="M250 453v-128h-107v128h107zM131 744v-744h-123v744h123z" />
    <glyph glyph-name="Lslash" unicode="&#x141;" horiz-adv-x="232" 
d="M19 744h126v-280l50 45v-105l-50 -44l1 -242h80l-1 -118h-206v248l-17 -15v101l17 15v395z" />
    <glyph glyph-name="lslash" unicode="&#x142;" horiz-adv-x="164" 
d="M144 744v-217l18 15v-97l-18 -15v-430h-123v327l-19 -16v96l19 16v321h123z" />
    <glyph glyph-name="Nacute" unicode="&#x143;" horiz-adv-x="299" 
d="M102 758l37 95h102l-40 -95h-99zM9 744h128l49 -403l-1 403h105v-744h-117l-59 446l1 -446h-106v744z" />
    <glyph glyph-name="nacute" unicode="&#x144;" horiz-adv-x="288" 
d="M97 552l35 116h99l-38 -116h-96zM8 0v538h121v-47q38 52 82 52h5q34 0 49 -22t15 -48v-473h-124v434q0 17 -13 17q-12 0 -12 -18v-433h-123z" />
    <glyph glyph-name="uni0145" unicode="&#x145;" horiz-adv-x="299" 
d="M184 -162h-53q10 28 12 57h-40v91h98v-66q0 -39 -17 -82zM9 744h128l49 -403l-1 403h105v-744h-117l-59 446l1 -446h-106v744z" />
    <glyph glyph-name="uni0146" unicode="&#x146;" horiz-adv-x="288" 
d="M177 -162h-53q10 28 12 57h-40v91h98v-66q0 -39 -17 -82zM8 0v538h121v-47q38 52 82 52h5q34 0 49 -22t15 -48v-473h-124v434q0 17 -13 17q-12 0 -12 -18v-433h-123z" />
    <glyph glyph-name="Ncaron" unicode="&#x147;" horiz-adv-x="299" 
d="M100 758l-50 95h85l16 -38l17 38h85l-50 -95h-103zM9 744h128l49 -403l-1 403h105v-744h-117l-59 446l1 -446h-106v744z" />
    <glyph glyph-name="ncaron" unicode="&#x148;" horiz-adv-x="288" 
d="M95 552l-48 116h82l15 -54l16 54h82l-47 -116h-100zM8 0v538h121v-47q38 52 82 52h5q34 0 49 -22t15 -48v-473h-124v434q0 17 -13 17q-12 0 -12 -18v-433h-123z" />
    <glyph glyph-name="napostrophe" unicode="&#x149;" horiz-adv-x="375" 
d="M76 561h-57q17 46 17 74h-36v109h98v-85q0 -52 -22 -98zM95 0v538h121v-47q38 52 82 52h5q34 0 49 -22t15 -48v-473h-124v434q0 17 -13 17q-12 0 -12 -18v-433h-123z" />
    <glyph glyph-name="Eng" unicode="&#x14a;" horiz-adv-x="297" 
d="M288 -95q0 -32 -17.5 -52t-46.5 -20h-86v99h27q13 0 13 14v54l-65 446v-446h-104v744h127l49 -409l-1 409h104v-839z" />
    <glyph glyph-name="eng" unicode="&#x14b;" horiz-adv-x="288" 
d="M156 -50v484q0 17 -13 17q-12 0 -12 -18v-433h-123v538h121v-47q39 52 83 52h6q32 0 47 -22.5t15 -47.5v-582q0 -28 -15.5 -43t-37.5 -15h-93v106h11q11 0 11 11z" />
    <glyph glyph-name="Omacron" unicode="&#x14c;" horiz-adv-x="306" 
d="M72 766v77h165v-77h-165zM299 604v-467q0 -69 -36 -106.5t-98 -37.5h-21q-65 0 -100 37.5t-35 106.5v467q0 147 135 147h20q68 0 101.5 -39t33.5 -108zM169 126v492q0 22 -15 22q-14 0 -14 -22v-492q0 -20 14 -20q15 0 15 20z" />
    <glyph glyph-name="omacron" unicode="&#x14d;" horiz-adv-x="289" 
d="M63 561v78h165v-78h-165zM134 -8q-126 0 -126 131v293q0 130 127 130h20q126 0 126 -130v-293q0 -65 -33.5 -98t-93.5 -33h-20zM132 103q0 -18 12 -18q13 0 13 18v334q0 19 -13 19q-12 0 -12 -19v-334z" />
    <glyph glyph-name="Obreve" unicode="&#x14e;" horiz-adv-x="306" 
d="M247 844q0 -37 -24 -61t-67 -24h-3q-44 0 -67.5 24t-23.5 61v9h77v-8q0 -19 15 -19h1q16 0 16 19v8h76v-9zM299 604v-467q0 -69 -36 -106.5t-98 -37.5h-21q-65 0 -100 37.5t-35 106.5v467q0 147 135 147h20q68 0 101.5 -39t33.5 -108zM169 126v492q0 22 -15 22
q-14 0 -14 -22v-492q0 -20 14 -20q15 0 15 20z" />
    <glyph glyph-name="obreve" unicode="&#x14f;" horiz-adv-x="289" 
d="M134 -8q-126 0 -126 131v293q0 130 127 130h20q126 0 126 -130v-293q0 -65 -33.5 -98t-93.5 -33h-20zM132 103q0 -18 12 -18q13 0 13 18v334q0 19 -13 19q-12 0 -12 -19v-334zM237 642q0 -41 -24 -64.5t-67 -23.5h-2q-92 0 -92 88v12h77v-8q0 -25 15 -25h1q16 0 16 25v8
h76v-12z" />
    <glyph glyph-name="Ohungarumlaut" unicode="&#x150;" horiz-adv-x="306" 
d="M67 761l25 92h84l-26 -92h-83zM165 761l26 92h85l-28 -92h-83zM299 604v-467q0 -69 -36 -106.5t-98 -37.5h-21q-65 0 -100 37.5t-35 106.5v467q0 147 135 147h20q68 0 101.5 -39t33.5 -108zM169 126v492q0 22 -15 22q-14 0 -14 -22v-492q0 -20 14 -20q15 0 15 20z" />
    <glyph glyph-name="ohungarumlaut" unicode="&#x151;" horiz-adv-x="289" 
d="M60 556l24 112h82l-24 -112h-82zM156 556l25 112h82l-25 -112h-82zM134 -8q-126 0 -126 131v293q0 130 127 130h20q126 0 126 -130v-293q0 -65 -33.5 -98t-93.5 -33h-20zM132 103q0 -18 12 -18q13 0 13 18v334q0 19 -13 19q-12 0 -12 -19v-334z" />
    <glyph glyph-name="OE" unicode="&#x152;" horiz-adv-x="382" 
d="M173 31q-23 -38 -66 -38h-4q-45 0 -69.5 35t-24.5 100v490q0 58 23.5 95t70.5 37h4q42 0 66 -36v30h199v-114h-76v-181h62v-118h-62v-215h79v-116h-202v31zM167 619q0 22 -13 22q-14 0 -14 -22v-492q0 -22 14 -22q13 0 13 22v492z" />
    <glyph glyph-name="oe" unicode="&#x153;" horiz-adv-x="426" 
d="M217 13q-30 -22 -71 -22h-14q-124 0 -124 131v293q0 131 124 131h16q46 0 72 -21q22 20 63 20h21q53 0 84 -28t31 -88v-168h-140v-168q0 -17 12 -17t12 17v141h116v-130q0 -52 -30.5 -82t-83.5 -30h-22q-37 0 -66 21zM279 450v-120h24v124q-1 15 -12 15q-12 0 -12 -19z
M131 102q0 -18 13 -18q12 0 12 18v334q0 20 -12 20q-13 0 -13 -20v-334z" />
    <glyph glyph-name="Racute" unicode="&#x154;" horiz-adv-x="296" 
d="M91 758l37 95h102l-40 -95h-99zM136 327v-327h-127v744h197q35 0 57 -22.5t22 -66.5v-175q0 -61 -45 -80q47 -20 47 -69v-295q0 -22 6 -33v-3h-125q-8 10 -8 31v279q0 17 -14 17h-10zM136 650v-217h10q14 0 14 17v183q0 17 -13 17h-11z" />
    <glyph glyph-name="racute" unicode="&#x155;" horiz-adv-x="263" 
d="M93 552l35 116h99l-38 -116h-96zM131 440v-440h-123v538h121v-47q32 50 70 50h7q24 0 37.5 -15.5t13.5 -37.5v-194h-108v146q0 12 -9 12t-9 -12z" />
    <glyph glyph-name="uni0156" unicode="&#x156;" horiz-adv-x="296" 
d="M184 -162h-53q10 28 12 57h-40v91h98v-66q0 -39 -17 -82zM136 327v-327h-127v744h197q35 0 57 -22.5t22 -66.5v-175q0 -61 -45 -80q47 -20 47 -69v-295q0 -22 6 -33v-3h-125q-8 10 -8 31v279q0 17 -14 17h-10zM136 650v-217h10q14 0 14 17v183q0 17 -13 17h-11z" />
    <glyph glyph-name="uni0157" unicode="&#x157;" horiz-adv-x="263" 
d="M101 -162h-53q10 28 12 57h-40v91h98v-66q0 -39 -17 -82zM131 440v-440h-123v538h121v-47q32 50 70 50h7q24 0 37.5 -15.5t13.5 -37.5v-194h-108v146q0 12 -9 12t-9 -12z" />
    <glyph glyph-name="Rcaron" unicode="&#x158;" horiz-adv-x="296" 
d="M88 758l-50 95h85l16 -38l17 38h85l-50 -95h-103zM136 327v-327h-127v744h197q35 0 57 -22.5t22 -66.5v-175q0 -61 -45 -80q47 -20 47 -69v-295q0 -22 6 -33v-3h-125q-8 10 -8 31v279q0 17 -14 17h-10zM136 650v-217h10q14 0 14 17v183q0 17 -13 17h-11z" />
    <glyph glyph-name="rcaron" unicode="&#x159;" horiz-adv-x="263" 
d="M90 552l-48 116h82l15 -54l16 54h82l-47 -116h-100zM131 440v-440h-123v538h121v-47q32 50 70 50h7q24 0 37.5 -15.5t13.5 -37.5v-194h-108v146q0 12 -9 12t-9 -12z" />
    <glyph glyph-name="Sacute" unicode="&#x15a;" horiz-adv-x="298" 
d="M102 761l36 92h102l-39 -92h-99zM291 125q0 -62 -32.5 -97t-98.5 -35h-29q-124 0 -124 115v195h124v-186q0 -20 13 -20q14 0 14 21v145q0 19 -4 29t-18 22l-65 56q-61 51 -61 133v132q0 116 127 116h29q120 0 120 -106v-164h-122v158q0 16 -13 16t-13 -16v-127
q0 -24 20 -42l64 -56q39 -32 54 -62.5t15 -78.5v-148z" />
    <glyph glyph-name="sacute" unicode="&#x15b;" horiz-adv-x="259" 
d="M83 556l33 112h99l-36 -112h-96zM253 94q0 -49 -29.5 -75.5t-82.5 -26.5h-30q-105 0 -105 91v130h109v-125q0 -13 11 -13t11 13v99q0 22 -18 36l-53 36q-34 23 -45.5 48t-11.5 61v84q0 94 109 94h27q103 0 103 -82v-109h-106v103q0 14 -10 14q-11 0 -11 -14v-82
q0 -12 3 -17.5t13 -14.5l55 -37q36 -26 48.5 -50.5t12.5 -63.5v-99z" />
    <glyph glyph-name="Scircumflex" unicode="&#x15c;" horiz-adv-x="298" 
d="M205 853l48 -92h-86l-17 35l-16 -35h-85l47 92h109zM291 125q0 -62 -32.5 -97t-98.5 -35h-29q-124 0 -124 115v195h124v-186q0 -20 13 -20q14 0 14 21v145q0 19 -4 29t-18 22l-65 56q-61 51 -61 133v132q0 116 127 116h29q120 0 120 -106v-164h-122v158q0 16 -13 16
t-13 -16v-127q0 -24 20 -42l64 -56q39 -32 54 -62.5t15 -78.5v-148z" />
    <glyph glyph-name="scircumflex" unicode="&#x15d;" horiz-adv-x="259" 
d="M182 668l48 -112h-83l-15 50l-15 -50h-82l47 112h100zM253 94q0 -49 -29.5 -75.5t-82.5 -26.5h-30q-105 0 -105 91v130h109v-125q0 -13 11 -13t11 13v99q0 22 -18 36l-53 36q-34 23 -45.5 48t-11.5 61v84q0 94 109 94h27q103 0 103 -82v-109h-106v103q0 14 -10 14
q-11 0 -11 -14v-82q0 -12 3 -17.5t13 -14.5l55 -37q36 -26 48.5 -50.5t12.5 -63.5v-99z" />
    <glyph glyph-name="uni015E" unicode="&#x15e;" horiz-adv-x="295" 
d="M222 -80q0 -28 -18.5 -44.5t-52.5 -16.5h-59v53h42q14 0 14 10q0 9 -14 9h-33v64q-94 13 -94 113v195h124v-186q0 -20 13 -20q14 0 14 21v145q0 19 -4 29t-18 22l-65 56q-61 51 -61 133v132q0 116 127 116h29q120 0 120 -106v-164h-122v158q0 16 -13 16t-13 -16v-127
q0 -24 20 -42l64 -56q39 -32 54 -62.5t15 -78.5v-148q0 -62 -32.5 -97t-98.5 -35h-7v-16h4q32 0 48.5 -15t16.5 -40v-2z" />
    <glyph glyph-name="uni015F" unicode="&#x15f;" horiz-adv-x="255" 
d="M201 -80q0 -28 -18.5 -44.5t-52.5 -16.5h-59v53h42q14 0 14 10q0 9 -14 9h-33v64q-74 11 -74 88v130h109v-125q0 -13 11 -13t11 13v99q0 22 -18 36l-53 36q-34 23 -45.5 48t-11.5 61v84q0 94 109 94h27q103 0 103 -82v-109h-106v103q0 14 -10 14q-11 0 -11 -14v-82
q0 -12 3 -17.5t13 -14.5l55 -37q36 -26 48.5 -50.5t12.5 -63.5v-99q0 -49 -29.5 -75.5t-82.5 -26.5h-9v-15h4q32 0 48.5 -15t16.5 -40v-2z" />
    <glyph glyph-name="Scaron" unicode="&#x160;" horiz-adv-x="298" 
d="M97 761l-48 92h86l16 -38l17 38h87l-48 -92h-110zM291 125q0 -62 -32.5 -97t-98.5 -35h-29q-124 0 -124 115v195h124v-186q0 -20 13 -20q14 0 14 21v145q0 19 -4 29t-18 22l-65 56q-61 51 -61 133v132q0 116 127 116h29q120 0 120 -106v-164h-122v158q0 16 -13 16
t-13 -16v-127q0 -24 20 -42l64 -56q39 -32 54 -62.5t15 -78.5v-148z" />
    <glyph glyph-name="scaron" unicode="&#x161;" horiz-adv-x="259" 
d="M79 556l-46 112h82l15 -54l16 54h82l-46 -112h-103zM253 94q0 -49 -29.5 -75.5t-82.5 -26.5h-30q-105 0 -105 91v130h109v-125q0 -13 11 -13t11 13v99q0 22 -18 36l-53 36q-34 23 -45.5 48t-11.5 61v84q0 94 109 94h27q103 0 103 -82v-109h-106v103q0 14 -10 14
q-11 0 -11 -14v-82q0 -12 3 -17.5t13 -14.5l55 -37q36 -26 48.5 -50.5t12.5 -63.5v-99z" />
    <glyph glyph-name="Tcommaaccent" unicode="&#x162;" horiz-adv-x="253" 
d="M159 -162h-53q10 28 12 57h-40v91h98v-66q0 -39 -17 -82zM246 630h-57v-630h-125v630h-57v114h239v-114z" />
    <glyph glyph-name="tcommaaccent" unicode="&#x163;" horiz-adv-x="206" 
d="M162 -162h-53q10 28 12 57h-40v91h98v-66q0 -39 -17 -82zM201 0h-116q-18 0 -30.5 12.5t-12.5 36.5v389h-38v100h38v172h123v-172h36v-100h-36v-324q0 -12 11 -12h25v-102z" />
    <glyph glyph-name="Tcaron" unicode="&#x164;" horiz-adv-x="253" 
d="M76 758l-50 95h85l16 -38l17 38h85l-50 -95h-103zM246 630h-57v-630h-125v630h-57v114h239v-114z" />
    <glyph glyph-name="tcaron" unicode="&#x165;" horiz-adv-x="206" 
d="M175 624l4 120h82l-8 -120h-78zM201 0h-116q-18 0 -30.5 12.5t-12.5 36.5v389h-38v100h38v172h123v-172h36v-100h-36v-324q0 -12 11 -12h25v-102z" />
    <glyph glyph-name="Tbar" unicode="&#x166;" horiz-adv-x="253" 
d="M246 630h-57v-166h39v-98h-39v-366h-125v366h-39v98h39v166h-57v114h239v-114z" />
    <glyph glyph-name="tbar" unicode="&#x167;" horiz-adv-x="206" 
d="M201 102v-102h-116q-18 0 -30.5 12.5t-12.5 36.5v233h-38v86h38v70h-38v100h38v172h123v-172h36v-100h-36v-70h36v-86h-36v-168q0 -12 11 -12h25z" />
    <glyph glyph-name="Utilde" unicode="&#x168;" horiz-adv-x="304" 
d="M155 839q21 -8 24 -8q5 0 5 8v16h65v-44q0 -52 -43 -52h-2q-16 0 -49 13q-22 8 -24 8q-6 0 -6 -8v-15h-64v46q0 50 44 50h1q14 0 49 -14zM295 115q0 -52 -34.5 -87.5t-98.5 -35.5h-20q-68 0 -100.5 34.5t-32.5 88.5v629h130v-614q0 -19 13 -19q14 0 14 19v614h129v-629z
" />
    <glyph glyph-name="utilde" unicode="&#x169;" 
d="M279 538v-538h-121v47q-37 -51 -82 -51h-4q-32 0 -48 22.5t-16 47.5v472h124v-434q0 -16 13 -16q11 0 11 17v433h123zM172 656h65v-53q0 -50 -45 -50h-2q-19 0 -46 15q-18 10 -21 10q-5 0 -5 -8v-19h-66v53q0 23 12 36.5t34 13.5h2q20 0 45 -14q18 -11 22 -11q5 0 5 8v19
z" />
    <glyph glyph-name="Umacron" unicode="&#x16a;" horiz-adv-x="304" 
d="M295 115q0 -52 -34.5 -87.5t-98.5 -35.5h-20q-68 0 -100.5 34.5t-32.5 88.5v629h130v-614q0 -19 13 -19q14 0 14 19v614h129v-629zM70 762v77h165v-77h-165z" />
    <glyph glyph-name="umacron" unicode="&#x16b;" 
d="M279 538v-538h-121v47q-37 -51 -82 -51h-4q-32 0 -48 22.5t-16 47.5v472h124v-434q0 -16 13 -16q11 0 11 17v433h123zM62 557v78h165v-78h-165z" />
    <glyph glyph-name="Ubreve" unicode="&#x16c;" horiz-adv-x="304" 
d="M295 115q0 -52 -34.5 -87.5t-98.5 -35.5h-20q-68 0 -100.5 34.5t-32.5 88.5v629h130v-614q0 -19 13 -19q14 0 14 19v614h129v-629zM245 840q0 -37 -24 -61t-67 -24h-3q-44 0 -67.5 24t-23.5 61v9h77v-8q0 -19 15 -19h1q16 0 16 19v8h76v-9z" />
    <glyph glyph-name="ubreve" unicode="&#x16d;" 
d="M279 0v538h-123v-433q0 -17 -11 -17q-13 0 -13 16v434h-124v-472q0 -25 16 -47.5t48 -22.5h4q45 0 82 51v-47h121zM236 638q0 -41 -24 -64.5t-67 -23.5h-2q-92 0 -92 88v12h77v-8q0 -25 15 -25h1q16 0 16 25v8h76v-12z" />
    <glyph glyph-name="Uring" unicode="&#x16e;" horiz-adv-x="304" 
d="M295 115q0 -52 -34.5 -87.5t-98.5 -35.5h-20q-68 0 -100.5 34.5t-32.5 88.5v629h130v-614q0 -19 13 -19q14 0 14 19v614h129v-629zM86 818q0 27 19 44.5t47 17.5t46.5 -17.5t18.5 -44.5q0 -28 -18.5 -45.5t-46.5 -17.5t-47 17.5t-19 45.5zM152 843q-11 0 -18.5 -7.5
t-7.5 -18.5t7.5 -18.5t18.5 -7.5t18 7.5t7 18.5t-7 18.5t-18 7.5z" />
    <glyph glyph-name="uring" unicode="&#x16f;" 
d="M209 613q0 -28 -18.5 -45.5t-46.5 -17.5t-47 18t-19 45t19 44.5t47 17.5t46.5 -17.5t18.5 -44.5zM118 613q0 -12 7.5 -19t18.5 -7t18 7t7 19q0 11 -7 18t-18 7t-18.5 -7t-7.5 -18zM279 538v-538h-121v47q-37 -51 -82 -51h-4q-32 0 -48 22.5t-16 47.5v472h124v-434
q0 -16 13 -16q11 0 11 17v433h123z" />
    <glyph glyph-name="Uhungarumlaut" unicode="&#x170;" horiz-adv-x="304" 
d="M63 758l25 95h84l-26 -95h-83zM161 758l26 95h85l-28 -95h-83zM295 115q0 -52 -34.5 -87.5t-98.5 -35.5h-20q-68 0 -100.5 34.5t-32.5 88.5v629h130v-614q0 -19 13 -19q14 0 14 19v614h129v-629z" />
    <glyph glyph-name="uhungarumlaut" unicode="&#x171;" 
d="M279 538v-538h-121v47q-37 -51 -82 -51h-4q-32 0 -48 22.5t-16 47.5v472h124v-434q0 -16 13 -16q11 0 11 17v433h123zM56 552l25 116h82l-26 -116h-81zM152 552l25 116h82l-26 -116h-81z" />
    <glyph glyph-name="Uogonek" unicode="&#x172;" horiz-adv-x="304" 
d="M241 -99v-68h-43q-31 0 -51.5 14.5t-20.5 42.5v6q0 48 58 98q-14 -2 -22 -2h-20q-68 0 -100.5 34.5t-32.5 88.5v629h130v-614q0 -19 13 -19q14 0 14 19v614h129v-629q0 -25 -9 -48t-17 -34t-28 -36q-28 -40 -28 -71v-2q0 -23 21 -23h7z" />
    <glyph glyph-name="uogonek" unicode="&#x173;" horiz-adv-x="288" 
d="M279 538v-538q-27 -36 -27 -74v-2q0 -23 20 -23h7v-68h-42q-31 0 -51.5 14.5t-20.5 42.5v6q0 50 63 104h-70v47q-37 -51 -82 -51h-4q-32 0 -48 22.5t-16 47.5v472h124v-434q0 -16 13 -16q11 0 11 17v433h123z" />
    <glyph glyph-name="Wcircumflex" unicode="&#x174;" horiz-adv-x="442" 
d="M273 853l50 -95h-85l-17 37l-16 -37h-85l50 95h103zM238 0l-16 424l-17 -424h-146l-61 744h131l15 -486l21 486h118l22 -489l15 489h122l-61 -744h-143z" />
    <glyph glyph-name="wcircumflex" unicode="&#x175;" horiz-adv-x="409" 
d="M255 668l48 -116h-83l-16 54l-15 -54h-82l47 116h101zM220 0l-15 308l-14 -308h-136l-57 538h123l13 -351l16 351h111l18 -363l12 363h120l-57 -538h-134z" />
    <glyph glyph-name="Ycircumflex" unicode="&#x176;" horiz-adv-x="275" 
d="M205 293v-293h-126v293l-82 451h126l22 -257l22 257h113zM196 853l50 -95h-85l-17 37l-16 -37h-85l50 95h103z" />
    <glyph glyph-name="ycircumflex" unicode="&#x177;" horiz-adv-x="269" 
d="M187 -115q-10 -52 -57 -52h-103v100h38q10 0 10 11q0 1 0.5 10t0.5 13q0 15 -4 42l-74 529h122l18 -317l13 317h120zM185 668l48 -116h-83l-16 54l-15 -54h-82l47 116h101z" />
    <glyph glyph-name="Ydieresis" unicode="&#x178;" horiz-adv-x="275" 
d="M205 293v-293h-126v293l-82 451h126l22 -257l22 257h113zM242 851v-93h-90v93h90zM137 851v-93h-89v93h89z" />
    <glyph glyph-name="Zacute" unicode="&#x179;" horiz-adv-x="252" 
d="M77 758l37 95h102l-40 -95h-99zM10 744h233v-104l-101 -526h106v-114h-242v104l99 527h-95v113z" />
    <glyph glyph-name="zacute" unicode="&#x17a;" horiz-adv-x="223" 
d="M63 552l35 116h99l-38 -116h-96zM8 538h207v-88l-78 -348h81v-102h-213v88l81 354h-78v96z" />
    <glyph glyph-name="Zdotaccent" unicode="&#x17b;" horiz-adv-x="252" 
d="M10 744h233v-104l-101 -526h106v-114h-242v104l99 527h-95v113zM189 866v-108h-123v108h123z" />
    <glyph glyph-name="zdotaccent" unicode="&#x17c;" horiz-adv-x="223" 
d="M8 538h207v-88l-78 -348h81v-102h-213v88l81 354h-78v96zM175 668v-116h-123v116h123z" />
    <glyph glyph-name="Zcaron" unicode="&#x17d;" horiz-adv-x="252" 
d="M77 758l-50 95h85l16 -38l17 38h85l-50 -95h-103zM10 744h233v-104l-101 -526h106v-114h-242v104l99 527h-95v113z" />
    <glyph glyph-name="zcaron" unicode="&#x17e;" horiz-adv-x="223" 
d="M63 552l-48 116h82l15 -54l16 54h82l-47 -116h-100zM8 538h207v-88l-78 -348h81v-102h-213v88l81 354h-78v96z" />
    <glyph glyph-name="uni0192" unicode="&#x192;" horiz-adv-x="207" 
d="M202 368h-43l-17 -535h-121l15 535h-32v97h35l6 209q3 70 75 70h82v-97h-23q-7 0 -9.5 -2.5t-2.5 -10.5l-5 -169h40v-97z" />
    <glyph glyph-name="Aringacute" unicode="&#x1fa;" horiz-adv-x="285" 
d="M164 0l-7 134h-43l-7 -134h-109l62 744h160l67 -744h-123zM121 243h30l-15 283zM92 888l37 95h102l-40 -95h-99zM74 818q0 27 19 44.5t47 17.5t46.5 -17.5t18.5 -44.5q0 -28 -18.5 -45.5t-46.5 -17.5t-47 17.5t-19 45.5zM140 843q-11 0 -18.5 -7.5t-7.5 -18.5t7.5 -18.5
t18.5 -7.5t18 7.5t7 18.5t-7 18.5t-18 7.5z" />
    <glyph glyph-name="aringacute" unicode="&#x1fb;" horiz-adv-x="280" 
d="M6 68v167q0 57 50 81q12 6 43 18.5t36 14.5q9 5 9 14v91q0 13 -11 13h-1q-11 0 -11 -13v-102h-111v103q0 91 116 91h13q124 0 124 -90v-352q0 -6 6 -6h9v-98h-103q-30 0 -30 44q-28 -49 -75 -49h-2q-29 0 -45.5 21.5t-16.5 51.5zM144 93v181q-21 -12 -21 -36v-145
q0 -14 11 -14q10 0 10 14zM86 687l35 116h99l-38 -116h-96zM198 617q0 -28 -18.5 -45.5t-46.5 -17.5t-47 18t-19 45t19 44.5t47 17.5t46.5 -17.5t18.5 -44.5zM107 617q0 -12 7.5 -19t18.5 -7t18 7t7 19q0 11 -7 18t-18 7t-18.5 -7t-7.5 -18z" />
    <glyph glyph-name="AEacute" unicode="&#x1fc;" horiz-adv-x="376" 
d="M171 758l37 95h102l-40 -95h-99zM166 0v118h-39l-10 -118h-121l88 744h283v-114h-77v-181h63v-118h-63v-215h80v-116h-204zM137 227h29v334z" />
    <glyph glyph-name="aeacute" unicode="&#x1fd;" horiz-adv-x="411" 
d="M161 552l35 116h99l-38 -116h-96zM404 104q0 -52 -31 -82t-85 -30h-24q-82 0 -106 54q-36 -51 -85 -51h-2q-31 0 -48 21.5t-17 51.5v155q0 55 50 81q12 6 44 19t35 14q9 5 9 14v103q0 13 -11 13h-1q-11 0 -11 -13v-114h-111v115q0 91 114 91h10q51 0 75 -21q21 21 66 21
h11q118 0 118 -117v-166h-139v-170q0 -16 11 -16q12 0 12 16v143h116v-132zM265 451v-118h23v118q0 11 -2 15t-10 4q-11 0 -11 -19zM144 93v170q-13 -8 -17 -15t-4 -21v-134q0 -14 11 -14q10 0 10 14z" />
    <glyph glyph-name="Oslashacute" unicode="&#x1fe;" horiz-adv-x="306" 
d="M103 761l36 92h102l-39 -92h-99zM297 135q0 -67 -36.5 -104.5t-98.5 -37.5h-16q-45 0 -74 22l-9 -20h-57l24 59q-21 37 -21 83v469q0 68 33.5 106.5t101.5 38.5h16q43 0 72 -19l7 17h58l-23 -53q23 -36 23 -89v-472zM137 535l-3 -164l36 182v65q0 23 -17 23
q-16 0 -16 -23v-83zM137 127q0 -22 16 -22q17 0 17 22v83l2 176l-35 -177v-82z" />
    <glyph glyph-name="oslashacute" unicode="&#x1ff;" horiz-adv-x="283" 
d="M275 124q0 -132 -132 -132h-3q-44 0 -72 18l-8 -14h-52l23 42q-23 32 -23 86v290q0 132 130 132h6q41 0 69 -18l8 14h54l-26 -41q26 -34 26 -87v-290zM91 556l34 112h99l-37 -112h-96zM128 104q0 -20 13 -20q14 0 14 20v50l3 119l-30 -112v-57zM128 380l-3 -110l30 113
v53q0 21 -14 21q-13 0 -13 -21v-56z" />
    <glyph glyph-name="uni0218" unicode="&#x218;" horiz-adv-x="298" 
d="M183 -166h-53q10 28 12 57h-40v91h98v-66q0 -40 -17 -82zM291 125q0 -62 -32.5 -97t-98.5 -35h-29q-124 0 -124 115v195h124v-186q0 -20 13 -20q14 0 14 21v145q0 19 -4 29t-18 22l-65 56q-61 51 -61 133v132q0 116 127 116h29q120 0 120 -106v-164h-122v158q0 16 -13 16
t-13 -16v-127q0 -24 20 -42l64 -56q39 -32 54 -62.5t15 -78.5v-148z" />
    <glyph glyph-name="uni0219" unicode="&#x219;" horiz-adv-x="259" 
d="M160 -166h-53q10 28 12 57h-40v91h98v-66q0 -40 -17 -82zM253 94q0 -49 -29.5 -75.5t-82.5 -26.5h-30q-105 0 -105 91v130h109v-125q0 -13 11 -13t11 13v99q0 22 -18 36l-53 36q-34 23 -45.5 48t-11.5 61v84q0 94 109 94h27q103 0 103 -82v-109h-106v103q0 14 -10 14
q-11 0 -11 -14v-82q0 -12 3 -17.5t13 -14.5l55 -37q36 -26 48.5 -50.5t12.5 -63.5v-99z" />
    <glyph glyph-name="uni021A" unicode="&#x21a;" horiz-adv-x="253" 
d="M159 -162h-53q10 28 12 57h-40v91h98v-66q0 -39 -17 -82zM246 630h-57v-630h-125v630h-57v114h239v-114z" />
    <glyph glyph-name="uni021B" unicode="&#x21b;" horiz-adv-x="206" 
d="M162 -162h-53q10 28 12 57h-40v91h98v-66q0 -39 -17 -82zM201 0h-116q-18 0 -30.5 12.5t-12.5 36.5v389h-38v100h38v172h123v-172h36v-100h-36v-324q0 -12 11 -12h25v-102z" />
    <glyph glyph-name="uni0237" unicode="&#x237;" horiz-adv-x="139" 
d="M-27 -61h24q11 0 11 12v587h123v-647q0 -28 -15.5 -43t-38.5 -15h-104v106z" />
    <glyph glyph-name="uni02BC" unicode="&#x2bc;" horiz-adv-x="113" 
d="M84 561h-57q17 46 17 74h-36v109h98v-85q0 -52 -22 -98z" />
    <glyph glyph-name="circumflex" unicode="&#x2c6;" horiz-adv-x="217" 
d="M159 668l48 -116h-83l-16 54l-15 -54h-82l47 116h101z" />
    <glyph glyph-name="caron" unicode="&#x2c7;" horiz-adv-x="217" 
d="M59 552l-48 116h82l15 -54l16 54h82l-47 -116h-100z" />
    <glyph glyph-name="breve" unicode="&#x2d8;" horiz-adv-x="217" 
d="M201 638q0 -41 -24 -64.5t-67 -23.5h-2q-92 0 -92 88v12h77v-8q0 -25 15 -25h1q16 0 16 25v8h76v-12z" />
    <glyph glyph-name="dotaccent" unicode="&#x2d9;" horiz-adv-x="217" 
d="M170 668v-116h-123v116h123z" />
    <glyph glyph-name="ring" unicode="&#x2da;" horiz-adv-x="217" 
d="M174 613q0 -28 -18.5 -45.5t-46.5 -17.5t-47 18t-19 45t19 44.5t47 17.5t46.5 -17.5t18.5 -44.5zM83 613q0 -12 7.5 -19t18.5 -7t18 7t7 19q0 11 -7 18t-18 7t-18.5 -7t-7.5 -18z" />
    <glyph glyph-name="ogonek" unicode="&#x2db;" horiz-adv-x="217" 
d="M52 -110v6q0 50 63 104h51q-27 -36 -27 -74v-2q0 -23 20 -23h7v-68h-42q-31 0 -51.5 14.5t-20.5 42.5z" />
    <glyph glyph-name="tilde" unicode="&#x2dc;" horiz-adv-x="217" 
d="M136 656h65v-53q0 -50 -45 -50h-2q-19 0 -46 15q-18 10 -21 10q-5 0 -5 -8v-19h-66v53q0 23 12 36.5t34 13.5h2q20 0 45 -14q18 -11 22 -11q5 0 5 8v19z" />
    <glyph glyph-name="hungarumlaut" unicode="&#x2dd;" horiz-adv-x="217" 
d="M8 552l25 116h82l-26 -116h-81zM104 552l25 116h82l-26 -116h-81z" />
    <glyph glyph-name="uni0401" unicode="&#x401;" horiz-adv-x="232" 
d="M215 851v-93h-90v93h90zM110 851v-93h-89v93h89zM9 744h214v-114h-90v-181h76v-118h-76v-215h93v-116h-217v744z" />
    <glyph glyph-name="uni0402" unicode="&#x402;" horiz-adv-x="330" 
d="M238 629h-67v-190q15 5 42 5h7q104 0 104 -105v-386q0 -32 -17.5 -55.5t-54.5 -23.5h-78v112h12q12 0 12 14v311q0 19 -14 19h-3q-8 0 -10 -2v-328h-126v629h-41v115h234v-115z" />
    <glyph glyph-name="uni0403" unicode="&#x403;" horiz-adv-x="227" 
d="M9 0v744h213v-115h-88v-629h-125zM64 758l37 95h102l-40 -95h-99z" />
    <glyph glyph-name="uni0404" unicode="&#x404;" horiz-adv-x="295" 
d="M288 119q0 -54 -31.5 -90t-94.5 -36h-21q-133 0 -133 139v483q0 63 32 99.5t101 36.5h21q64 0 95 -32t31 -89v-156h-124v152q0 19 -13 19t-13 -19v-176h72v-113h-72v-214q0 -21 13 -21t13 21v190h124v-194z" />
    <glyph glyph-name="uni0405" unicode="&#x405;" horiz-adv-x="295" 
d="M291 125q0 -62 -32.5 -97t-98.5 -35h-29q-124 0 -124 115v195h124v-186q0 -20 13 -20q14 0 14 21v145q0 19 -4 29t-18 22l-65 56q-61 51 -61 133v132q0 116 127 116h29q120 0 120 -106v-164h-122v158q0 16 -13 16t-13 -16v-127q0 -24 20 -42l64 -56q39 -32 54 -62.5
t15 -78.5v-148z" />
    <glyph glyph-name="uni0406" unicode="&#x406;" horiz-adv-x="145" 
d="M136 744v-744h-127v744h127z" />
    <glyph glyph-name="uni0407" unicode="&#x407;" horiz-adv-x="144" 
d="M136 744v-744h-127v744h127zM169 851v-93h-90v93h90zM64 851v-93h-89v93h89z" />
    <glyph glyph-name="uni0408" unicode="&#x408;" horiz-adv-x="282" 
d="M7 321h115v-207q0 -13 11 -13h1q10 0 10 13v630h129v-637q0 -52 -30 -83t-92 -31h-34q-57 0 -83.5 30t-26.5 80v218z" />
    <glyph glyph-name="uni0409" unicode="&#x409;" horiz-adv-x="452" 
d="M22 0h-20v117h4q16 0 19 19q6 30 6 608h266v-274h60q39 0 64 -25.5t25 -73.5v-273q0 -50 -24.5 -74t-65.5 -24h-185v629h-26q0 -340 -3.5 -435t-15.5 -123q-11 -42 -34 -56.5t-70 -14.5zM297 99h9q15 0 15 19v227q0 20 -15 20h-9v-266z" />
    <glyph glyph-name="uni040A" unicode="&#x40a;" horiz-adv-x="443" 
d="M162 0v342h-26v-342h-128v744h128v-277h26v277h127v-277h60q39 0 63.5 -25.5t24.5 -72.5v-271q0 -50 -24.5 -74t-65.5 -24h-185zM289 99h9q15 0 15 19v224q0 20 -15 20h-9v-263z" />
    <glyph glyph-name="uni040B" unicode="&#x40b;" horiz-adv-x="330" 
d="M238 629h-67v-190q15 5 42 5h7q104 0 104 -105v-339h-126v311q0 19 -14 19h-3q-8 0 -10 -2v-328h-126v629h-41v115h234v-115z" />
    <glyph glyph-name="uni040C" unicode="&#x40c;" horiz-adv-x="302" 
d="M173 0l-39 293l1 -293h-126v744h126l-1 -268l42 268h126l-61 -337l64 -407h-132zM104 758l37 95h102l-40 -95h-99z" />
    <glyph glyph-name="uni040E" unicode="&#x40e;" horiz-adv-x="282" 
d="M203 105q-8 -64 -28 -84.5t-70 -20.5h-73v109h18q16 0 21 3.5t5 13.5v2q0 2 -5 52l-73 564h130l18 -380l16 380h122zM239 840q0 -37 -24 -61t-67 -24h-3q-44 0 -67.5 24t-23.5 61v9h77v-8q0 -19 15 -19h1q16 0 16 19v8h76v-9z" />
    <glyph glyph-name="uni040F" unicode="&#x40f;" horiz-adv-x="297" 
d="M204 -87h-110v87h-85v744h126v-629h27v629h127v-744h-85v-87z" />
    <glyph glyph-name="uni0410" unicode="&#x410;" horiz-adv-x="282" 
d="M164 0l-7 134h-43l-7 -134h-109l62 744h160l67 -744h-123zM121 243h30l-15 283z" />
    <glyph glyph-name="uni0411" unicode="&#x411;" horiz-adv-x="289" 
d="M8 0v744h256v-115h-129v-162h60q39 0 63.5 -25.5t24.5 -73.5v-270q0 -50 -24.5 -74t-65.5 -24h-185zM135 96h9q15 0 15 19v231q0 20 -15 20h-9v-270z" />
    <glyph glyph-name="uni0412" unicode="&#x412;" horiz-adv-x="300" 
d="M9 0v744h192q84 0 84 -94v-168q0 -33 -16 -53t-33 -25q59 -17 59 -87v-204q0 -113 -95 -113h-191zM145 650h-9v-212h9q15 0 15 19v175q0 10 -3 14t-12 4zM148 346h-12v-249h12q15 0 15 19v210q0 20 -15 20z" />
    <glyph glyph-name="uni0413" unicode="&#x413;" horiz-adv-x="227" 
d="M9 0v744h213v-115h-88v-629h-125z" />
    <glyph glyph-name="uni0414" unicode="&#x414;" horiz-adv-x="334" 
d="M220 -87v87h-111v-87h-110v203h18q8 32 13 125q5 116 6 503h268v-628h26v-203h-110zM143 235q-5 -78 -13 -122h50v516h-31q-1 -293 -6 -394z" />
    <glyph glyph-name="uni0415" unicode="&#x415;" horiz-adv-x="232" 
d="M9 744h214v-114h-90v-181h76v-118h-76v-215h93v-116h-217v744z" />
    <glyph glyph-name="uni0416" unicode="&#x416;" horiz-adv-x="451" 
d="M164 0l2 317l-36 -317h-130l55 393l-53 351h126l38 -296l-2 296h123l-1 -289l37 289h125l-52 -344l57 -400h-132l-35 317l1 -317h-123z" />
    <glyph glyph-name="uni0417" unicode="&#x417;" horiz-adv-x="290" 
d="M129 631v-165h-122v173q0 55 34 83t91 28h21q57 0 90.5 -27t33.5 -84v-156q0 -51 -43 -73q50 -18 50 -80v-207q0 -130 -130 -130h-21q-60 0 -93.5 31t-33.5 88v206h123v-199q0 -16 13 -16q12 0 12 16v197q0 13 -3.5 16.5t-13.5 3.5h-41v113h40q9 0 12.5 3.5t3.5 15.5v163
q0 16 -11 16q-12 0 -12 -16z" />
    <glyph glyph-name="uni0418" unicode="&#x418;" horiz-adv-x="300" 
d="M178 0l2 448l-46 -448h-125v744h113l-2 -441l45 441h126v-744h-113z" />
    <glyph glyph-name="uni0419" unicode="&#x419;" horiz-adv-x="300" 
d="M178 0l2 448l-46 -448h-125v744h113l-2 -441l45 441h126v-744h-113zM244 840q0 -37 -24 -61t-67 -24h-3q-44 0 -67.5 24t-23.5 61v9h77v-8q0 -19 15 -19h1q16 0 16 19v8h76v-9z" />
    <glyph glyph-name="uni041A" unicode="&#x41a;" horiz-adv-x="302" 
d="M173 0l-39 293l1 -293h-126v744h126l-1 -268l42 268h126l-61 -337l64 -407h-132z" />
    <glyph glyph-name="uni041B" unicode="&#x41b;" horiz-adv-x="306" 
d="M171 0v629h-26q0 -358 -2 -439t-14 -114q-10 -45 -34.5 -60.5t-72.5 -15.5h-20v117h4q16 0 19 19q6 31 6 608h266v-744h-126z" />
    <glyph glyph-name="uni041C" unicode="&#x41c;" horiz-adv-x="349" 
d="M9 0v744h145l22 -361l22 361h141v-744h-106v416l-37 -416h-45l-38 416v-416h-104z" />
    <glyph glyph-name="uni041D" unicode="&#x41d;" horiz-adv-x="298" 
d="M163 0v324h-27v-324h-127v744h127v-289h27v289h126v-744h-126z" />
    <glyph glyph-name="uni041E" unicode="&#x41e;" horiz-adv-x="306" 
d="M299 604v-467q0 -69 -36 -106.5t-98 -37.5h-21q-65 0 -100 37.5t-35 106.5v467q0 147 135 147h20q68 0 101.5 -39t33.5 -108zM169 126v492q0 22 -15 22q-14 0 -14 -22v-492q0 -20 14 -20q15 0 15 20z" />
    <glyph glyph-name="uni041F" unicode="&#x41f;" horiz-adv-x="297" 
d="M9 0v744h280v-744h-127v629h-27v-629h-126z" />
    <glyph glyph-name="uni0420" unicode="&#x420;" horiz-adv-x="290" 
d="M195 308h-60v-308h-126v744h184q42 0 66.5 -23.5t24.5 -73.5v-240q0 -48 -25 -73.5t-64 -25.5zM135 648v-239h9q15 0 15 19v201q0 19 -15 19h-9z" />
    <glyph glyph-name="uni0421" unicode="&#x421;" horiz-adv-x="295" 
d="M152 102q13 0 13 21v217h124v-220q0 -55 -31.5 -91t-94.5 -36h-20q-134 0 -134 139v484q2 135 133 135h21q64 0 95 -32t31 -89v-197h-124v193q0 19 -13 19t-13 -19v-503q0 -21 13 -21z" />
    <glyph glyph-name="uni0422" unicode="&#x422;" horiz-adv-x="251" 
d="M246 630h-57v-630h-125v630h-57v114h239v-114z" />
    <glyph glyph-name="uni0423" unicode="&#x423;" horiz-adv-x="282" 
d="M203 105q-8 -64 -28 -84.5t-70 -20.5h-73v109h18q16 0 21 3.5t5 13.5v2q0 2 -5 52l-73 564h130l18 -380l16 380h122z" />
    <glyph glyph-name="uni0424" unicode="&#x424;" horiz-adv-x="443" 
d="M158 754h127v-68h61q38 0 63.5 -23t25.5 -75v-412q0 -45 -24 -71.5t-65 -26.5h-61v-88h-127v88h-61q-41 0 -65 26.5t-24 71.5v412q0 52 25.5 75t63.5 23h61v68zM158 583h-9q-15 0 -15 -19v-361q0 -20 15 -20h9v400zM285 583v-400h9q15 0 15 20v361q0 19 -15 19h-9z" />
    <glyph glyph-name="uni0425" unicode="&#x425;" horiz-adv-x="292" 
d="M144 294l-22 -294h-124l51 391l-48 353h129l18 -270l17 270h121l-46 -353l54 -391h-127z" />
    <glyph glyph-name="uni0426" unicode="&#x426;" horiz-adv-x="319" 
d="M205 -87v87h-196v744h126v-629h27v629h127v-628h26v-203h-110z" />
    <glyph glyph-name="uni0427" unicode="&#x427;" horiz-adv-x="293" 
d="M159 0v316q-12 -6 -47 -6h-2q-47 0 -75.5 25.5t-28.5 79.5v329h126v-301q0 -18 15 -18h1q3 0 6.5 0.5t4.5 0.5v318h126v-744h-126z" />
    <glyph glyph-name="uni0428" unicode="&#x428;" horiz-adv-x="442" 
d="M9 0v744h126v-628h23v628h126v-628h23v628h127v-744h-425z" />
    <glyph glyph-name="uni0429" unicode="&#x429;" horiz-adv-x="464" 
d="M9 0v744h126v-628h23v628h126v-628h23v628h127v-628h26v-203h-110v87h-341z" />
    <glyph glyph-name="uni042A" unicode="&#x42a;" horiz-adv-x="332" 
d="M4 629v115h173v-274h60q39 0 63.5 -25.5t24.5 -73.5v-273q0 -50 -24.5 -74t-65.5 -24h-185v629h-46zM177 99h9q15 0 15 19v227q0 20 -15 20h-9v-266z" />
    <glyph glyph-name="uni042B" unicode="&#x42b;" horiz-adv-x="434" 
d="M195 470q39 0 63.5 -25.5t24.5 -73.5v-273q0 -50 -24.5 -74t-65.5 -24h-185v744h127v-274h60zM135 99h9q15 0 15 19v227q0 20 -15 20h-9v-266zM426 744v-744h-127v744h127z" />
    <glyph glyph-name="uni042C" unicode="&#x42c;" horiz-adv-x="290" 
d="M195 470q39 0 63.5 -25.5t24.5 -73.5v-273q0 -50 -24.5 -74t-65.5 -24h-185v744h127v-274h60zM135 99h9q15 0 15 19v227q0 20 -15 20h-9v-266z" />
    <glyph glyph-name="uni042D" unicode="&#x42d;" horiz-adv-x="295" 
d="M287 132q0 -139 -133 -139h-21q-63 0 -94.5 36t-31.5 90v194h124v-190q0 -21 13 -21t13 21v214h-75v113h75v176q0 19 -13 19t-13 -19v-152h-124v156q0 57 31 89t95 32h21q69 0 101 -36.5t32 -99.5v-483z" />
    <glyph glyph-name="uni042E" unicode="&#x42e;" horiz-adv-x="454" 
d="M446 137q0 -69 -35.5 -106.5t-97.5 -37.5h-19q-66 0 -101 37.5t-35 106.5v191h-22v-328h-127v744h127v-293h22v153q0 147 136 147h19q68 0 100.5 -39t32.5 -108v-467zM317 126v492q0 22 -14 22t-14 -22v-492q0 -20 14 -20t14 20z" />
    <glyph glyph-name="uni042F" unicode="&#x42f;" horiz-adv-x="300" 
d="M163 319h-3l-31 -319h-127l40 355q-29 24 -29 81v215q0 48 24 70.5t60 22.5h192v-744h-126v319zM163 423v225h-8q-10 0 -13 -3.5t-3 -13.5v-189q0 -19 17 -19h7z" />
    <glyph glyph-name="uni0430" unicode="&#x430;" horiz-adv-x="278" 
d="M6 68v167q0 57 50 81q12 6 43 18.5t36 14.5q9 5 9 14v91q0 13 -11 13h-1q-11 0 -11 -13v-102h-111v103q0 91 116 91h13q124 0 124 -90v-352q0 -6 6 -6h9v-98h-103q-30 0 -30 44q-28 -49 -75 -49h-2q-29 0 -45.5 21.5t-16.5 51.5zM144 93v181q-21 -12 -21 -36v-145
q0 -14 11 -14q10 0 10 14z" />
    <glyph glyph-name="uni0431" unicode="&#x431;" horiz-adv-x="288" 
d="M280 118q0 -61 -33.5 -93.5t-93.5 -32.5h-17q-129 0 -129 126v456q0 72 30 104.5t88 41.5l26 5q12 3 15.5 6t3.5 13h108q0 -55 -14 -79t-64 -33l-23 -5q-32 -8 -42.5 -23.5t-10.5 -57.5v-51q28 50 78 50h5q73 0 73 -91v-336zM143 85q14 0 14 21v327q0 22 -13 22t-13 -22
v-327q0 -21 12 -21z" />
    <glyph glyph-name="uni0432" unicode="&#x432;" 
d="M173 0h-166v538h167q102 0 102 -85v-90q0 -36 -10 -53.5t-30 -27.5q22 -10 33 -27t11 -54v-95q0 -56 -25 -81t-82 -25zM131 318h10q14 0 14 17v103q0 17 -14 17h-10v-137zM131 83h10q16 0 16 19v118q0 21 -16 21h-10v-158z" />
    <glyph glyph-name="uni0433" unicode="&#x433;" horiz-adv-x="211" 
d="M7 0v538h200v-100h-76v-438h-124z" />
    <glyph glyph-name="uni0434" unicode="&#x434;" horiz-adv-x="317" 
d="M112 -86h-110v186h18q7 76 9 126q2 59 2 312h258v-438h24v-186h-110v86h-91v-86zM136 216q-3 -79 -9 -116h39v339h-26q0 -113 -4 -223z" />
    <glyph glyph-name="uni0435" unicode="&#x435;" horiz-adv-x="273" 
d="M268 104q0 -52 -31 -82t-85 -30h-24q-120 0 -120 116v320q0 56 30.5 87t89.5 31h24q53 0 84.5 -28t31.5 -88v-169h-140v-168q0 -16 12 -16t12 16v141h116v-130zM128 451v-120h24v120q0 19 -12 19t-12 -19z" />
    <glyph glyph-name="uni0436" unicode="&#x436;" horiz-adv-x="420" 
d="M149 0l1 234l-34 -234h-118l51 293l-46 245h116l31 -206l-1 206h121v-202l31 202h114l-45 -239l52 -299h-119l-33 228v-228h-121z" />
    <glyph glyph-name="uni0437" unicode="&#x437;" horiz-adv-x="272" 
d="M264 99q0 -51 -32 -79t-88 -28h-24q-53 0 -83.5 27.5t-30.5 73.5v124h111v-122q0 -14 12 -14t12 14v123q0 19 -15 19h-51v90h51q13 0 13 17v102q0 15 -11 15t-11 -14v-100h-111v98q0 101 110 101h27q60 0 88.5 -28t28.5 -74v-88q0 -57 -40 -74q22 -10 33 -26.5t11 -52.5
v-104z" />
    <glyph glyph-name="uni0438" unicode="&#x438;" horiz-adv-x="291" 
d="M283 0h-116v286l-37 -286h-123v538h117v-287l37 287h122v-538z" />
    <glyph glyph-name="uni0439" unicode="&#x439;" horiz-adv-x="291" 
d="M283 0h-116v286l-37 -286h-123v538h117v-287l37 287h122v-538zM239 638q0 -41 -24 -64.5t-67 -23.5h-2q-92 0 -92 88v12h77v-8q0 -25 15 -25h1q16 0 16 25v8h76v-12z" />
    <glyph glyph-name="uni043A" unicode="&#x43a;" horiz-adv-x="280" 
d="M163 0l-33 216l1 -216h-124v538h124v-50l-1 -131l30 181h116l-45 -234l52 -304h-120z" />
    <glyph glyph-name="uni043B" unicode="&#x43b;" horiz-adv-x="294" 
d="M26 137q5 53 5 401h256v-538h-124v438h-21q0 -321 -14 -379q-7 -34 -30 -46.5t-69 -12.5h-28v98h3q11 0 16 7.5t6 31.5z" />
    <glyph glyph-name="uni043C" unicode="&#x43c;" horiz-adv-x="361" 
d="M152 0l-40 342l2 -342h-107v538h152l23 -239l23 239h148v-538h-112l2 346l-40 -346h-51z" />
    <glyph glyph-name="uni043D" unicode="&#x43d;" horiz-adv-x="288" 
d="M131 0h-124v538h124v-225h26v225h123v-538h-123v213h-26v-213z" />
    <glyph glyph-name="uni043E" unicode="&#x43e;" 
d="M134 -8q-126 0 -126 131v293q0 130 127 130h20q126 0 126 -130v-293q0 -65 -33.5 -98t-93.5 -33h-20zM132 103q0 -18 12 -18q13 0 13 18v334q0 19 -13 19q-12 0 -12 -19v-334z" />
    <glyph glyph-name="uni043F" unicode="&#x43f;" 
d="M131 0h-124v538h273v-538h-124v438h-25v-438z" />
    <glyph glyph-name="uni0440" unicode="&#x440;" horiz-adv-x="286" 
d="M8 538h121v-48q38 53 81 53h2q67 0 67 -92v-369q0 -37 -21 -63t-51 -26h-2q-43 0 -74 46v-206h-123v705zM131 95q0 -16 12 -16q11 0 11 16v345q0 17 -11 17q-12 0 -12 -17v-345z" />
    <glyph glyph-name="uni0441" unicode="&#x441;" horiz-adv-x="267" 
d="M262 93q0 -46 -30 -73.5t-81 -27.5h-26q-54 0 -85.5 28t-31.5 84v328q0 51 28 82.5t89 31.5h28q109 0 109 -101v-133h-111v136q0 13 -10 13t-10 -13v-353q0 -14 10 -14t10 14v154h111v-156z" />
    <glyph glyph-name="uni0442" unicode="&#x442;" horiz-adv-x="242" 
d="M59 0v438h-55v100h235v-100h-56v-438h-124z" />
    <glyph glyph-name="uni0443" unicode="&#x443;" horiz-adv-x="268" 
d="M187 -115q-10 -52 -57 -52h-103v100h38q10 0 10 11q0 1 0.5 10t0.5 13q0 15 -4 42l-74 529h122l18 -317l13 317h120z" />
    <glyph glyph-name="uni0444" unicode="&#x444;" horiz-adv-x="436" 
d="M301 -8h-21v-159h-124v159h-23q-126 0 -126 130v295q0 62 32.5 95.5t93.5 33.5h23v198h124v-198h23q126 0 126 -129v-294q0 -65 -33.5 -98t-94.5 -33zM144 85h12v371h-10q-15 0 -15 -20v-334q0 -17 13 -17zM290 456h-10v-371h12q13 0 13 17v336q0 18 -15 18z" />
    <glyph glyph-name="uni0445" unicode="&#x445;" horiz-adv-x="268" 
d="M149 0l-17 185l-17 -185h-117l49 287l-47 251h120l15 -168l13 168h119l-47 -248l50 -290h-121z" />
    <glyph glyph-name="uni0446" unicode="&#x446;" horiz-adv-x="307" 
d="M304 100v-186h-110v86h-187v538h124v-438h25v438h124v-438h24z" />
    <glyph glyph-name="uni0447" unicode="&#x447;" horiz-adv-x="285" 
d="M129 326q0 -17 15 -17q7 0 10 2v227h123v-538h-123v212q-23 -4 -48 -4q-101 0 -101 102v228h124v-212z" />
    <glyph glyph-name="uni0448" unicode="&#x448;" horiz-adv-x="431" 
d="M7 0v538h124v-438h23v438h123v-438h23v438h124v-538h-417z" />
    <glyph glyph-name="uni0449" unicode="&#x449;" horiz-adv-x="453" 
d="M7 0v538h124v-438h23v438h123v-438h23v438h124v-438h24v-186h-110v86h-331z" />
    <glyph glyph-name="uni044A" unicode="&#x44a;" horiz-adv-x="324" 
d="M2 438v100h171v-182h41q105 0 105 -100v-156q0 -100 -105 -100h-165v438h-47zM173 88h7q17 0 17 23v135q0 13 -3.5 17t-13.5 4h-7v-179z" />
    <glyph glyph-name="uni044B" unicode="&#x44b;" horiz-adv-x="422" 
d="M415 538v-538h-123v538h123zM7 0v538h124v-182h41q105 0 105 -100v-156q0 -100 -105 -100h-165zM131 88h7q17 0 17 23v135q0 13 -3.5 17t-13.5 4h-7v-179z" />
    <glyph glyph-name="uni044C" unicode="&#x44c;" horiz-adv-x="282" 
d="M7 0v538h124v-182h41q105 0 105 -100v-156q0 -100 -105 -100h-165zM131 88h7q17 0 17 23v135q0 13 -3.5 17t-13.5 4h-7v-179z" />
    <glyph glyph-name="uni044D" unicode="&#x44d;" horiz-adv-x="269" 
d="M262 104q0 -56 -32 -84t-86 -28h-26q-52 0 -82 27.5t-30 73.5v124h111v-122q0 -7 4 -10.5t7 -3.5t7 3.5t4 10.5v142h-64v90h64v120q0 14 -11 14q-3 0 -7 -3.5t-4 -10.5v-100h-111v98q0 101 110 101h28q61 0 89.5 -31.5t28.5 -82.5v-328z" />
    <glyph glyph-name="uni044E" unicode="&#x44e;" horiz-adv-x="430" 
d="M423 123q0 -65 -33.5 -98t-94.5 -33h-19q-64 0 -95 32t-31 99v90h-19v-213h-124v538h124v-225h19v102q0 131 126 131h20q127 0 127 -131v-292zM274 103q0 -18 12 -18q13 0 13 18v334q0 19 -13 19q-12 0 -12 -19v-334z" />
    <glyph glyph-name="uni044F" unicode="&#x44f;" horiz-adv-x="289" 
d="M158 200h-1l-33 -200h-122l43 230q-35 25 -35 86v116q0 106 110 106h162v-538h-124v200zM158 447h-7q-17 0 -17 -22v-110q0 -18 17 -18h7v150z" />
    <glyph glyph-name="uni0451" unicode="&#x451;" horiz-adv-x="273" 
d="M152 546q53 0 84.5 -28t31.5 -88v-169h-140v-168q0 -16 12 -16t12 16v141h116v-130q0 -52 -31 -82t-85 -30h-24q-120 0 -120 116v320q0 56 30.5 87t89.5 31h24zM235 650v-94h-89v94h89zM131 650v-94h-89v94h89zM128 451v-120h24v120q0 19 -12 19t-12 -19z" />
    <glyph glyph-name="uni0452" unicode="&#x452;" horiz-adv-x="288" 
d="M280 -109q0 -28 -16 -43t-39 -15h-104v106h25q10 0 10 11v484q0 16 -13 16q-12 0 -12 -17v-433h-124v590h-18v89h18v65h124v-65h56v-89h-56v-97q32 50 79 50h5q34 0 49.5 -22t15.5 -48v-582z" />
    <glyph glyph-name="uni0453" unicode="&#x453;" horiz-adv-x="211" 
d="M7 0v538h200v-100h-76v-438h-124zM55 552l35 116h99l-38 -116h-96z" />
    <glyph glyph-name="uni0454" unicode="&#x454;" horiz-adv-x="267" 
d="M261 93q0 -46 -30 -73.5t-82 -27.5h-25q-54 0 -85.5 28t-31.5 84v328q0 51 27.5 82.5t88.5 31.5h29q109 0 109 -101v-98h-112v100q0 14 -10 14t-10 -14v-120h63v-90h-63v-142q0 -14 10 -14t10 14v122h112v-124z" />
    <glyph glyph-name="uni0455" unicode="&#x455;" horiz-adv-x="255" 
d="M253 94q0 -49 -29.5 -75.5t-82.5 -26.5h-30q-105 0 -105 91v130h109v-125q0 -13 11 -13t11 13v99q0 22 -18 36l-53 36q-34 23 -45.5 48t-11.5 61v84q0 94 109 94h27q103 0 103 -82v-109h-106v103q0 14 -10 14q-11 0 -11 -14v-82q0 -12 3 -17.5t13 -14.5l55 -37
q36 -26 48.5 -50.5t12.5 -63.5v-99z" />
    <glyph glyph-name="uni0456" unicode="&#x456;" horiz-adv-x="138" 
d="M131 668v-116h-123v116h123zM131 538v-538h-123v538h123z" />
    <glyph glyph-name="uni0457" unicode="&#x457;" horiz-adv-x="138" 
d="M66 668v-116h-67v116h67zM140 668v-116h-68v116h68zM131 538v-538h-123v538h123z" />
    <glyph glyph-name="uni0458" unicode="&#x458;" horiz-adv-x="138" 
d="M131 668v-116h-123v116h123zM-27 -61h24q11 0 11 12v587h123v-647q0 -28 -15.5 -43t-38.5 -15h-104v106z" />
    <glyph glyph-name="uni0459" unicode="&#x459;" horiz-adv-x="440" 
d="M31 538h256v-182h42q105 0 105 -100v-156q0 -100 -105 -100h-165v438h-21q0 -321 -14 -379q-7 -34 -30.5 -46.5t-69.5 -12.5h-28v98h3q11 0 16 7.5t6 31.5q5 53 5 401zM287 267v-179h7q18 0 18 23v135q0 13 -4 17t-13 4h-8z" />
    <glyph glyph-name="uni045A" unicode="&#x45a;" horiz-adv-x="432" 
d="M131 0h-124v538h124v-204h26v204h123v-204h42q56 0 80.5 -25t24.5 -74v-137q0 -98 -105 -98h-165v234h-26v-234zM280 246v-158h7q17 0 17 23v113q0 22 -16 22h-8z" />
    <glyph glyph-name="uni045B" unicode="&#x45b;" 
d="M131 433v-433h-123v590h-19v89h19v65h123v-65h57v-89h-57v-97q35 50 80 50h4q34 0 49.5 -22t15.5 -48v-473h-124v434q0 17 -13 17q-12 0 -12 -18z" />
    <glyph glyph-name="uni045C" unicode="&#x45c;" horiz-adv-x="280" 
d="M96 552l35 116h99l-38 -116h-96zM163 0l-33 216l1 -216h-124v538h124v-50l-1 -131l30 181h116l-45 -234l52 -304h-120z" />
    <glyph glyph-name="uni045E" unicode="&#x45e;" horiz-adv-x="268" 
d="M187 -115q-10 -52 -57 -52h-103v100h38q10 0 10 11q0 1 0.5 10t0.5 13q0 15 -4 42l-74 529h122l18 -317l13 317h120zM231 638q0 -41 -24 -64.5t-67 -23.5h-2q-92 0 -92 88v12h77v-8q0 -25 15 -25h1q16 0 16 25v8h76v-12z" />
    <glyph glyph-name="uni045F" unicode="&#x45f;" 
d="M280 0h-82v-86h-109v86h-82v538h124v-438h25v438h124v-538z" />
    <glyph glyph-name="uni0490" unicode="&#x490;" horiz-adv-x="228" 
d="M10 0v744h102v95h110v-95h1v-115h-88v-629h-125z" />
    <glyph glyph-name="uni0491" unicode="&#x491;" horiz-adv-x="211" 
d="M7 0v538h90v86h110v-186h-76v-438h-124z" />
    <glyph glyph-name="uni0492" unicode="&#x492;" horiz-adv-x="233" 
d="M15 0v328h-15v108h15v308h213v-115h-88v-193h43v-108h-43v-328h-125z" />
    <glyph glyph-name="uni0493" unicode="&#x493;" horiz-adv-x="220" 
d="M16 0v214h-14v87h14v237h200v-100h-76v-137h40v-87h-40v-214h-124z" />
    <glyph glyph-name="uni0496" unicode="&#x496;" horiz-adv-x="464" 
d="M164 0l2 317l-36 -317h-130l55 393l-53 351h126l38 -296l-2 296h123l-1 -289l37 289h125l-52 -344l40 -284h28v-203h-110v87h-33l-35 317l1 -317h-123z" />
    <glyph glyph-name="uni0497" unicode="&#x497;" horiz-adv-x="431" 
d="M149 0l1 234l-34 -234h-118l51 293l-46 245h116l31 -206l-1 206h121v-202l31 202h114l-45 -239l34 -199h27v-186h-110v86h-18l-33 228v-228h-121z" />
    <glyph glyph-name="uni049A" unicode="&#x49a;" horiz-adv-x="312" 
d="M173 0l-39 293l1 -293h-126v744h126l-1 -268l42 268h126l-61 -337l46 -291h24v-203h-110v87h-28z" />
    <glyph glyph-name="uni049B" unicode="&#x49b;" horiz-adv-x="292" 
d="M163 0l-33 216l1 -216h-124v538h124v-50l-1 -131l30 181h116l-45 -234l35 -204h26v-186h-110v86h-19z" />
    <glyph glyph-name="uni04A2" unicode="&#x4a2;" horiz-adv-x="319" 
d="M163 0v324h-27v-324h-127v744h127v-289h27v289h126v-628h26v-203h-110v87h-42z" />
    <glyph glyph-name="uni04A3" unicode="&#x4a3;" horiz-adv-x="308" 
d="M131 0h-124v538h124v-225h26v225h123v-438h25v-186h-110v86h-38v213h-26v-213z" />
    <glyph glyph-name="uni04AE" unicode="&#x4ae;" horiz-adv-x="276" 
d="M205 293v-293h-126v293l-82 451h126l22 -257l22 257h113z" />
    <glyph glyph-name="uni04AF" unicode="&#x4af;" horiz-adv-x="278" 
d="M201 0v-167h-123v167l-80 538h121l22 -338l21 338h117z" />
    <glyph glyph-name="uni04B0" unicode="&#x4b0;" horiz-adv-x="276" 
d="M245 214h-40v-214h-126v214h-43v109h37l-76 421h126l22 -257l22 257h113l-70 -421h35v-109z" />
    <glyph glyph-name="uni04B1" unicode="&#x4b1;" horiz-adv-x="278" 
d="M201 0h37v-88h-37v-79h-123v79h-38v88h38l-80 538h121l22 -338l21 338h117z" />
    <glyph glyph-name="uni04B2" unicode="&#x4b2;" horiz-adv-x="304" 
d="M144 294l-22 -294h-124l51 391l-48 353h129l18 -270l17 270h121l-46 -353l38 -275h25v-203h-110v87h-26z" />
    <glyph glyph-name="uni04B3" unicode="&#x4b3;" horiz-adv-x="279" 
d="M149 0l-17 185l-17 -185h-117l49 287l-47 251h120l15 -168l13 168h119l-47 -248l33 -190h25v-186h-109v86h-20z" />
    <glyph glyph-name="uni04BA" unicode="&#x4ba;" horiz-adv-x="294" 
d="M134 744v-316q12 6 47 6h2q47 0 75.5 -25.5t28.5 -79.5v-329h-126v301q0 18 -15 18h-1q-3 0 -6.5 -0.5t-4.5 -0.5v-318h-126v744h126z" />
    <glyph glyph-name="uni04BB" unicode="&#x4bb;" 
d="M8 0v744h123v-251q35 50 80 50h4q34 0 49.5 -22t15.5 -48v-473h-124v434q0 17 -13 17q-12 0 -12 -18v-433h-123z" />
    <glyph glyph-name="uni04C0" unicode="&#x4c0;" horiz-adv-x="145" 
d="M136 744v-744h-127v744h127z" />
    <glyph glyph-name="uni04CF" unicode="&#x4cf;" horiz-adv-x="138" 
d="M131 744v-744h-123v744h123z" />
    <glyph glyph-name="uni04D8" unicode="&#x4d8;" horiz-adv-x="295" 
d="M7 119v331h150v176q0 19 -13 19t-13 -19v-152h-124v156q0 57 31 89t95 32h21q69 0 101 -36.5t32 -99.5v-483q0 -139 -133 -139h-21q-63 0 -94.5 36t-31.5 90zM131 123q0 -21 13 -21t13 21v217h-26v-217z" />
    <glyph glyph-name="uni04D9" unicode="&#x4d9;" horiz-adv-x="273" 
d="M267 110q0 -56 -30.5 -87.5t-89.5 -31.5h-24q-53 0 -84.5 28.5t-31.5 88.5v171h140v165q0 17 -12 17t-12 -17v-137h-116v126q0 53 31 82.5t85 29.5h24q120 0 120 -116v-319zM135 68q12 0 12 19v123h-24v-123q0 -11 2 -15t10 -4z" />
    <glyph glyph-name="uni04E8" unicode="&#x4e8;" horiz-adv-x="307" 
d="M299 604v-467q0 -69 -36 -106.5t-99 -37.5h-21q-65 0 -100 37.5t-35 106.5v467q0 147 135 147h21q68 0 101.5 -39t33.5 -108zM137 623v-181h34v181q0 22 -17 22t-17 -22zM137 121q0 -21 17 -21t17 21v214h-34v-214z" />
    <glyph glyph-name="uni04E9" unicode="&#x4e9;" horiz-adv-x="288" 
d="M133 -8q-126 0 -126 131v292q0 131 126 131h22q126 0 126 -131v-292q0 -65 -33.5 -98t-93.5 -33h-21zM128 440v-126h32v126q0 19 -16 19t-16 -19zM128 100q0 -19 16 -19t16 19v123h-32v-123z" />
    <glyph glyph-name="Wgrave" unicode="&#x1e80;" horiz-adv-x="442" 
d="M238 853l35 -95h-99l-38 95h102zM238 0l-16 424l-17 -424h-146l-61 744h131l15 -486l21 486h118l22 -489l15 489h122l-61 -744h-143z" />
    <glyph glyph-name="wgrave" unicode="&#x1e81;" horiz-adv-x="409" 
d="M220 0l-15 308l-14 -308h-136l-57 538h123l13 -351l16 351h111l18 -363l12 363h120l-57 -538h-134zM220 668l34 -116h-96l-37 116h99z" />
    <glyph glyph-name="Wacute" unicode="&#x1e82;" horiz-adv-x="442" 
d="M174 758l37 95h102l-40 -95h-99zM238 0l-16 424l-17 -424h-146l-61 744h131l15 -486l21 486h118l22 -489l15 489h122l-61 -744h-143z" />
    <glyph glyph-name="wacute" unicode="&#x1e83;" horiz-adv-x="409" 
d="M157 552l35 116h99l-38 -116h-96zM220 0l-15 308l-14 -308h-136l-57 538h123l13 -351l16 351h111l18 -363l12 363h120l-57 -538h-134z" />
    <glyph glyph-name="Wdieresis" unicode="&#x1e84;" horiz-adv-x="442" 
d="M319 851v-93h-90v93h90zM214 851v-93h-89v93h89zM238 0l-16 424l-17 -424h-146l-61 744h131l15 -486l21 486h118l22 -489l15 489h122l-61 -744h-143z" />
    <glyph glyph-name="wdieresis" unicode="&#x1e85;" horiz-adv-x="409" 
d="M197 647v-95h-89v95h89zM301 647v-95h-89v95h89zM220 0l-15 308l-14 -308h-136l-57 538h123l13 -351l16 351h111l18 -363l12 363h120l-57 -538h-134z" />
    <glyph glyph-name="Ygrave" unicode="&#x1ef2;" horiz-adv-x="275" 
d="M205 293v-293h-126v293l-82 451h126l22 -257l22 257h113zM161 853l35 -95h-99l-38 95h102z" />
    <glyph glyph-name="ygrave" unicode="&#x1ef3;" horiz-adv-x="269" 
d="M187 -115q-10 -52 -57 -52h-103v100h38q10 0 10 11q0 1 0.5 10t0.5 13q0 15 -4 42l-74 529h122l18 -317l13 317h120zM152 668l34 -116h-96l-37 116h99z" />
    <glyph glyph-name="uni2009" unicode="&#x2009;" horiz-adv-x="3" 
 />
    <glyph glyph-name="endash" unicode="&#x2013;" horiz-adv-x="279" 
d="M8 340h263v-78h-263v78z" />
    <glyph glyph-name="emdash" unicode="&#x2014;" horiz-adv-x="422" 
d="M8 340h406v-78h-406v78z" />
    <glyph glyph-name="quoteleft" unicode="&#x2018;" horiz-adv-x="114" 
d="M29 744h58q-17 -46 -18 -74h37v-109h-98v85q0 51 21 98z" />
    <glyph glyph-name="quoteright" unicode="&#x2019;" horiz-adv-x="114" 
d="M84 561h-57q17 46 17 74h-36v109h98v-85q0 -52 -22 -98z" />
    <glyph glyph-name="quotesinglbase" unicode="&#x201a;" horiz-adv-x="114" 
d="M106 24q0 -54 -22 -98h-57q17 46 17 74h-36v109h98v-85z" />
    <glyph glyph-name="quotedblleft" unicode="&#x201c;" horiz-adv-x="222" 
d="M29 744h58q-17 -46 -18 -74h37v-109h-98v85q0 51 21 98zM138 744h57q-17 -46 -17 -74h36v-109h-98v85q0 54 22 98z" />
    <glyph glyph-name="quotedblright" unicode="&#x201d;" horiz-adv-x="222" 
d="M84 561h-57q17 46 17 74h-36v109h98v-85q0 -52 -22 -98zM193 561h-58q17 45 18 74h-37v109h98v-85q0 -48 -21 -98z" />
    <glyph glyph-name="quotedblbase" unicode="&#x201e;" horiz-adv-x="222" 
d="M106 24q0 -54 -22 -98h-57q17 46 17 74h-36v109h98v-85zM214 24q0 -51 -21 -98h-58q17 46 18 74h-37v109h98v-85z" />
    <glyph glyph-name="dagger" unicode="&#x2020;" horiz-adv-x="219" 
d="M49 0v540h-43l1 101h43l-1 103h121v-104h43v-100h-43v-540h-121z" />
    <glyph glyph-name="daggerdbl" unicode="&#x2021;" horiz-adv-x="219" 
d="M49 106h-43v101h43v333h-43v100h43v104h121v-104h43v-100h-43v-333h43v-101h-43v-106h-121v106z" />
    <glyph glyph-name="bullet" unicode="&#x2022;" horiz-adv-x="196" 
d="M98 238q-40 0 -66.5 26t-26.5 66t26 65.5t67 25.5t67 -25.5t26 -65.5t-26 -66t-67 -26z" />
    <glyph glyph-name="ellipsis" unicode="&#x2026;" horiz-adv-x="372" 
d="M256 128h108v-128h-108v128zM132 0v128h107v-128h-107zM115 0h-107v128h107v-128z" />
    <glyph glyph-name="perthousand" unicode="&#x2030;" horiz-adv-x="584" 
d="M8 500v166q0 41 21.5 62.5t59.5 21.5h13q82 0 82 -84v-166q0 -40 -22.5 -61.5t-60.5 -21.5h-12q-81 0 -81 83zM270 744h71l-214 -744h-72zM104 487v193q0 11 -8 11t-8 -11v-193q0 -10 8 -10t8 10zM493 -5h-12q-81 0 -81 84v166q0 83 81 83h13q82 0 82 -83v-166
q0 -41 -22 -62.5t-61 -21.5zM306 -5h-12q-82 0 -82 84v166q0 83 81 83h14q82 0 82 -83v-166q0 -41 -22.5 -62.5t-60.5 -21.5zM488 55q8 0 8 10v194q0 10 -8 10t-8 -10v-194q0 -10 8 -10zM301 55q7 0 7 10v194q0 10 -7 10q-8 0 -8 -10v-194q0 -10 8 -10z" />
    <glyph glyph-name="uni2032" unicode="&#x2032;" horiz-adv-x="99" 
d="M98 744l-15 -158h-82l15 158h82z" />
    <glyph glyph-name="uni2033" unicode="&#x2033;" horiz-adv-x="188" 
d="M96 744l-15 -158h-80l14 158h81zM187 744l-15 -158h-80l15 158h80z" />
    <glyph glyph-name="guilsinglleft" unicode="&#x2039;" horiz-adv-x="136" 
d="M99 279l31 -150h-92l-32 127v47l32 123h93z" />
    <glyph glyph-name="guilsinglright" unicode="&#x203a;" horiz-adv-x="136" 
d="M37 279l-32 147h92l33 -123v-47l-33 -127h-91z" />
    <glyph glyph-name="fraction" unicode="&#x2044;" horiz-adv-x="279" 
d="M208 744h71l-209 -744h-70z" />
    <glyph glyph-name="zero.sup" unicode="&#x2070;" horiz-adv-x="200" 
d="M94 748h13q46 0 66 -24t20 -61v-180q0 -35 -21 -60.5t-65 -25.5h-13q-47 0 -67 25t-20 61v180q0 36 20.5 60.5t66.5 24.5zM108 669q0 11 -8 11t-8 -11v-190q0 -11 8 -11t8 11v190z" />
    <glyph glyph-name="four.sup" unicode="&#x2074;" horiz-adv-x="169" 
d="M4 454v57l54 234h86v-225h21v-66h-21v-53h-76v53h-64zM52 520h16v122z" />
    <glyph glyph-name="five.sup" unicode="&#x2075;" horiz-adv-x="184" 
d="M82 555h-73v189h160v-61h-89v-63q20 27 46 27h4q47 0 47 -55v-123q0 -72 -83 -72h-11q-78 0 -78 65v69h77v-68q0 -9 6 -9q7 0 7 9v119q0 9 -7 9q-6 0 -6 -9v-27z" />
    <glyph glyph-name="six.sup" unicode="&#x2076;" horiz-adv-x="195" 
d="M90 596q20 25 49 25h2q48 0 48 -53v-92q0 -39 -22 -59t-62 -20h-14q-84 0 -84 79v195q0 34 20 55.5t64 21.5h11q83 0 83 -72v-44h-82v47q0 10 -6 10q-7 0 -7 -10v-83zM90 468q0 -12 8 -12q7 0 7 12v89q0 12 -7 12q-8 0 -8 -12v-89z" />
    <glyph glyph-name="seven.sup" unicode="&#x2077;" horiz-adv-x="168" 
d="M5 744h158v-37q0 -21 -22 -160q-8 -58 -8 -128v-18h-92v16q0 61 22 129t27.5 93t5.5 53h-23v-71h-68v123z" />
    <glyph glyph-name="eight.sup" unicode="&#x2078;" horiz-adv-x="183" 
d="M176 684v-57q0 -29 -27 -43q29 -11 29 -46v-73q0 -68 -80 -68h-12q-81 0 -81 68v73q0 33 28 46q-25 14 -25 43v57q0 64 78 64h12q38 0 58 -17t20 -47zM99 620v61q0 12 -8 12q-7 0 -7 -12v-61q0 -12 7 -12q8 0 8 12zM99 468v78q0 12 -8 12q-7 0 -7 -12v-78q0 -12 7 -12
q8 0 8 12z" />
    <glyph glyph-name="nine.sup" unicode="&#x2079;" horiz-adv-x="195" 
d="M6 671q0 77 84 77h14q84 0 84 -78v-195q0 -78 -84 -78h-12q-81 0 -81 70v46h80v-47q0 -10 7 -10t7 10v83q-21 -24 -46 -24h-3q-25 0 -37.5 15.5t-12.5 39.5v91zM97 689q-7 0 -7 -12v-89q0 -12 7 -12q8 0 8 12v89q0 12 -8 12z" />
    <glyph glyph-name="zero.sub" unicode="&#x2080;" horiz-adv-x="200" 
d="M94 220h13q46 0 66 -24t20 -61v-180q0 -35 -21 -60.5t-65 -25.5h-13q-47 0 -67 25t-20 61v180q0 36 20.5 60.5t66.5 24.5zM108 141q0 11 -8 11t-8 -11v-190q0 -11 8 -11t8 11v190z" />
    <glyph glyph-name="one.sub" unicode="&#x2081;" horiz-adv-x="120" 
d="M32 129h-28v62q34 0 36 26h72v-344h-79z" />
    <glyph glyph-name="two.sub" unicode="&#x2082;" horiz-adv-x="184" 
d="M179 -127h-174v52q0 37 10 57.5t49 73.5q23 35 27.5 45.5t4.5 28.5v24q0 10 -7 10t-7 -10v-56h-74v53q0 69 75 69h12q82 0 82 -66v-23q0 -32 -10.5 -50.5t-45.5 -57.5q-30 -34 -36.5 -46t-6.5 -30v-15h32v62h69v-121z" />
    <glyph glyph-name="three.sub" unicode="&#x2083;" horiz-adv-x="182" 
d="M79 96h-73v64q0 60 75 60h10q81 0 81 -59v-57q0 -30 -27 -40q32 -11 32 -47v-77q0 -72 -84 -72h-11q-77 0 -77 65v79h76v-75q0 -9 7 -9q6 0 6 9v81q0 7 -7 7h-35v59h34q7 0 7 7v67q0 8 -7 8t-7 -8v-62z" />
    <glyph glyph-name="four.sub" unicode="&#x2084;" horiz-adv-x="169" 
d="M4 -74v57l54 234h86v-225h21v-66h-21v-53h-76v53h-64zM52 -8h16v122z" />
    <glyph glyph-name="five.sub" unicode="&#x2085;" horiz-adv-x="184" 
d="M82 27h-73v189h160v-61h-89v-63q20 27 46 27h4q47 0 47 -55v-123q0 -72 -83 -72h-11q-78 0 -78 65v69h77v-68q0 -9 6 -9q7 0 7 9v119q0 9 -7 9q-6 0 -6 -9v-27z" />
    <glyph glyph-name="six.sub" unicode="&#x2086;" horiz-adv-x="195" 
d="M90 68q20 25 49 25h2q48 0 48 -53v-92q0 -39 -22 -59t-62 -20h-14q-84 0 -84 79v195q0 34 20 55.5t64 21.5h11q83 0 83 -72v-44h-82v47q0 10 -6 10q-7 0 -7 -10v-83zM90 -60q0 -12 8 -12q7 0 7 12v89q0 12 -7 12q-8 0 -8 -12v-89z" />
    <glyph glyph-name="seven.sub" unicode="&#x2087;" horiz-adv-x="168" 
d="M5 216h158v-37q0 -21 -22 -160q-8 -58 -8 -128v-18h-92v16q0 61 22 129t27.5 93t5.5 53h-23v-71h-68v123z" />
    <glyph glyph-name="eight.sub" unicode="&#x2088;" horiz-adv-x="183" 
d="M176 156v-57q0 -29 -27 -43q29 -11 29 -46v-73q0 -68 -80 -68h-12q-81 0 -81 68v73q0 33 28 46q-25 14 -25 43v57q0 64 78 64h12q38 0 58 -17t20 -47zM99 92v61q0 12 -8 12q-7 0 -7 -12v-61q0 -12 7 -12q8 0 8 12zM99 -60v78q0 12 -8 12q-7 0 -7 -12v-78q0 -12 7 -12
q8 0 8 12z" />
    <glyph glyph-name="nine.sub" unicode="&#x2089;" horiz-adv-x="195" 
d="M6 143q0 77 84 77h14q84 0 84 -78v-195q0 -78 -84 -78h-12q-81 0 -81 70v46h80v-47q0 -10 7 -10t7 10v83q-21 -24 -46 -24h-3q-25 0 -37.5 15.5t-12.5 39.5v91zM97 161q-7 0 -7 -12v-89q0 -12 7 -12q8 0 8 12v89q0 12 -8 12z" />
    <glyph glyph-name="Euro" unicode="&#x20ac;" horiz-adv-x="325" 
d="M317 120q0 -55 -31.5 -91t-94.5 -36h-18q-135 0 -135 139v183h-35v66h35v13h-35v65h35v156q0 135 132 135h22q64 0 94.5 -32t30.5 -88v-159h-124v154q0 20 -13 20t-13 -20v-166h78v-65h-78v-13h78v-66h-78v-192q0 -21 13 -21t13 21v180h124v-183z" />
    <glyph glyph-name="uni20B4" unicode="&#x20b4;" horiz-adv-x="312" 
d="M308 463v-65h-304v65h138l1 1q16 15 20.5 23.5t4.5 24.5v127q0 16 -12 16q-13 0 -13 -16v-159h-122v165q0 106 120 106h29q126 0 126 -110v-123q0 -32 -9 -55h21zM300 108q0 -115 -124 -115h-29q-66 0 -98.5 34t-32.5 93v140q0 32 9 59h-21v66h304v-66h-131l-2 -1
q-17 -16 -21.5 -26t-4.5 -29v-145q0 -21 14 -21q13 0 13 20v186h124v-195z" />
    <glyph glyph-name="uni20B8" unicode="&#x20b8;" horiz-adv-x="256" 
d="M6 679v65h245v-65h-245zM251 551h-60v-551h-126v551h-59v115h245v-115z" />
    <glyph glyph-name="uni20BD" unicode="&#x20bd;" horiz-adv-x="311" 
d="M304 406q0 -47 -25 -72.5t-64 -25.5h-60v-13h97v-66h-97v-229h-126v229h-30v66h30v13h-30v65h30v371h185q41 0 65.5 -24t24.5 -74v-240zM155 648v-245h9q16 0 16 20v206q0 19 -16 19h-9z" />
    <glyph glyph-name="uni2116" unicode="&#x2116;" horiz-adv-x="501" 
d="M393 402q-43 0 -65.5 23t-22.5 59v182q0 36 22 59t66 23h15q43 0 64.5 -22.5t21.5 -59.5v-182q0 -35 -22 -58.5t-64 -23.5h-15zM399 470q11 0 11 13v184q0 14 -11 14q-9 0 -9 -14v-184q0 -13 9 -13zM307 291v97h184v-97h-184zM9 744h128l49 -403l-1 403h105v-744h-117
l-59 446l1 -446h-106v744z" />
    <glyph glyph-name="trademark" unicode="&#x2122;" horiz-adv-x="281" 
d="M168 622v-166h-51v288h71l7 -100l3 -38l2 39l5 99h68v-288h-51v110l1 56l-6 -54l-10 -112h-25l-9 113zM109 691h-20v-235h-64v235h-20v53h104v-53z" />
    <glyph glyph-name="onethird" unicode="&#x2153;" horiz-adv-x="349" 
d="M247 223h-73v64q0 60 75 60h10q81 0 81 -59v-57q0 -30 -27 -40q32 -11 32 -47v-77q0 -72 -84 -72h-11q-77 0 -77 65v79h76v-75q0 -9 7 -9q6 0 6 9v81q0 7 -7 7h-35v59h34q7 0 7 7v67q0 8 -7 8t-7 -8v-62zM32 656h-28v62q34 0 36 26h72v-343h-79zM218 744h71l-209 -744
h-70z" />
    <glyph glyph-name="twothirds" unicode="&#x2154;" horiz-adv-x="414" 
d="M313 223h-73v64q0 60 75 60h10q81 0 81 -59v-57q0 -30 -27 -40q32 -11 32 -47v-77q0 -72 -84 -72h-11q-77 0 -77 65v79h76v-75q0 -9 7 -9q6 0 6 9v81q0 7 -7 7h-35v59h34q7 0 7 7v67q0 8 -7 8t-7 -8v-62zM179 401h-174v52q0 37 10 57.5t49 73.5q23 35 27.5 45.5t4.5 28.5
v24q0 10 -7 10t-7 -10v-56h-74v53q0 69 75 69h12q82 0 82 -66v-23q0 -32 -10.5 -50.5t-45.5 -57.5q-30 -34 -36.5 -46t-6.5 -30v-15h32v62h69v-121zM284 744h71l-209 -744h-70z" />
    <glyph glyph-name="oneeighth" unicode="&#x215b;" horiz-adv-x="347" 
d="M342 226v57q0 30 -20 47t-58 17h-12q-78 0 -78 -64v-57q0 -29 25 -43q-28 -13 -28 -46v-73q0 -68 81 -68h12q80 0 80 68v73q0 35 -29 46q27 13 27 43zM218 744h71l-209 -744h-70zM32 656h-28v62q34 0 36 26h72v-343h-79zM265 145v-78q0 -12 -8 -12q-7 0 -7 12v78
q0 12 7 12q8 0 8 -12zM265 280v-61q0 -12 -8 -12q-7 0 -7 12v61q0 12 7 12q8 0 8 -12z" />
    <glyph glyph-name="threeeighths" unicode="&#x215c;" horiz-adv-x="397" 
d="M392 226v57q0 30 -20 47t-58 17h-12q-78 0 -78 -64v-57q0 -29 25 -43q-28 -13 -28 -46v-73q0 -68 81 -68h12q80 0 80 68v73q0 35 -29 46q27 13 27 43zM269 744h71l-209 -744h-70zM79 624h-73v64q0 60 75 60h10q81 0 81 -59v-57q0 -30 -27 -40q32 -11 32 -47v-77
q0 -72 -84 -72h-11q-77 0 -77 65v79h76v-75q0 -9 7 -9q6 0 6 9v81q0 7 -7 7h-35v59h34q7 0 7 7v67q0 8 -7 8t-7 -8v-62zM315 145v-78q0 -12 -8 -12q-7 0 -7 12v78q0 12 7 12q8 0 8 -12zM315 280v-61q0 -12 -8 -12q-7 0 -7 12v61q0 12 7 12q8 0 8 -12z" />
    <glyph glyph-name="fiveeighths" unicode="&#x215d;" horiz-adv-x="396" 
d="M391 226v57q0 30 -20 47t-58 17h-12q-78 0 -78 -64v-57q0 -29 25 -43q-28 -13 -28 -46v-73q0 -68 81 -68h12q80 0 80 68v73q0 35 -29 46q27 13 27 43zM268 744h71l-209 -744h-70zM82 555h-73v189h160v-61h-89v-63q20 27 46 27h4q47 0 47 -55v-123q0 -72 -83 -72h-11
q-78 0 -78 65v69h77v-68q0 -9 6 -9q7 0 7 9v119q0 9 -7 9q-6 0 -6 -9v-27zM314 145v-78q0 -12 -8 -12q-7 0 -7 12v78q0 12 7 12q8 0 8 -12zM314 280v-61q0 -12 -8 -12q-7 0 -7 12v61q0 12 7 12q8 0 8 -12z" />
    <glyph glyph-name="seveneighths" unicode="&#x215e;" horiz-adv-x="367" 
d="M362 226v57q0 30 -20 47t-58 17h-12q-78 0 -78 -64v-57q0 -29 25 -43q-28 -13 -28 -46v-73q0 -68 81 -68h12q80 0 80 68v73q0 35 -29 46q27 13 27 43zM238 744h71l-209 -744h-70zM5 744h158v-37q0 -21 -22 -160q-8 -58 -8 -128v-18h-92v16q0 61 22 129t27.5 93t5.5 53
h-23v-71h-68v123zM285 145v-78q0 -12 -8 -12q-7 0 -7 12v78q0 12 7 12q8 0 8 -12zM285 280v-61q0 -12 -8 -12q-7 0 -7 12v61q0 12 7 12q8 0 8 -12z" />
    <glyph glyph-name="minus" unicode="&#x2212;" horiz-adv-x="223" 
d="M8 339h207v-72h-207v72z" />
    <glyph glyph-name="uni24C5" unicode="&#x24c5;" horiz-adv-x="387" 
d="M199 -7h-10q-180 0 -180 177v406q0 86 48 130.5t133 44.5h10q82 0 130 -43.5t48 -131.5v-405q0 -88 -50.5 -133t-128.5 -45zM67 180q0 -71 29.5 -105t93.5 -34h8q123 0 123 140v383q0 72 -30 105.5t-92 33.5h-9q-64 0 -93.5 -32.5t-29.5 -106.5v-384zM233 324h-42v-243
h-90v585h130q68 0 68 -73v-195q0 -36 -18 -55t-48 -19zM191 598v-204h9q9 0 9 14v177q0 13 -9 13h-9z" />
    <glyph glyph-name="zero.den" unicode="&#xe402;" horiz-adv-x="200" 
d="M94 347h13q46 0 66 -24t20 -61v-180q0 -35 -21 -60.5t-65 -25.5h-13q-47 0 -67 25t-20 61v180q0 36 20.5 60.5t66.5 24.5zM108 268q0 11 -8 11t-8 -11v-190q0 -11 8 -11t8 11v190z" />
    <glyph glyph-name="one.den" unicode="&#xe403;" horiz-adv-x="120" 
d="M32 255h-28v62q34 0 36 26h72v-343h-79z" />
    <glyph glyph-name="two.den" unicode="&#xe404;" horiz-adv-x="184" 
d="M179 0h-174v52q0 37 10 57.5t49 73.5q23 35 27.5 45.5t4.5 28.5v24q0 10 -7 10t-7 -10v-56h-74v53q0 69 75 69h12q82 0 82 -66v-23q0 -32 -10.5 -50.5t-45.5 -57.5q-30 -34 -36.5 -46t-6.5 -30v-15h32v62h69v-121z" />
    <glyph glyph-name="three.den" unicode="&#xe405;" horiz-adv-x="182" 
d="M79 223h-73v64q0 60 75 60h10q81 0 81 -59v-57q0 -30 -27 -40q32 -11 32 -47v-77q0 -72 -84 -72h-11q-77 0 -77 65v79h76v-75q0 -9 7 -9q6 0 6 9v81q0 7 -7 7h-35v59h34q7 0 7 7v67q0 8 -7 8t-7 -8v-62z" />
    <glyph glyph-name="four.den" unicode="&#xe406;" horiz-adv-x="169" 
d="M4 53v57l54 234h86v-225h21v-66h-21v-53h-76v53h-64zM52 119h16v122z" />
    <glyph glyph-name="five.den" unicode="&#xe407;" horiz-adv-x="184" 
d="M82 154h-73v189h160v-61h-89v-63q20 27 46 27h4q47 0 47 -55v-123q0 -72 -83 -72h-11q-78 0 -78 65v69h77v-68q0 -9 6 -9q7 0 7 9v119q0 9 -7 9q-6 0 -6 -9v-27z" />
    <glyph glyph-name="six.den" unicode="&#xe408;" horiz-adv-x="195" 
d="M90 195q20 25 49 25h2q48 0 48 -53v-92q0 -39 -22 -59t-62 -20h-14q-84 0 -84 79v195q0 34 20 55.5t64 21.5h11q83 0 83 -72v-44h-82v47q0 10 -6 10q-7 0 -7 -10v-83zM90 67q0 -12 8 -12q7 0 7 12v89q0 12 -7 12q-8 0 -8 -12v-89z" />
    <glyph glyph-name="seven.den" unicode="&#xe409;" horiz-adv-x="168" 
d="M5 343h158v-37q0 -21 -22 -160q-8 -58 -8 -128v-18h-92v16q0 61 22 129t27.5 93t5.5 53h-23v-71h-68v123z" />
    <glyph glyph-name="eight.den" unicode="&#xe40a;" horiz-adv-x="183" 
d="M176 283v-57q0 -30 -27 -43q29 -11 29 -46v-73q0 -68 -80 -68h-12q-81 0 -81 68v73q0 33 28 46q-25 14 -25 43v57q0 64 78 64h12q38 0 58 -17t20 -47zM99 67v78q0 12 -8 12q-7 0 -7 -12v-78q0 -12 7 -12q8 0 8 12zM99 219v61q0 12 -8 12q-7 0 -7 -12v-61q0 -12 7 -12
q8 0 8 12z" />
    <glyph glyph-name="nine.den" unicode="&#xe40b;" horiz-adv-x="195" 
d="M6 270q0 77 84 77h14q84 0 84 -78v-195q0 -78 -84 -78h-12q-81 0 -81 70v46h80v-47q0 -10 7 -10t7 10v83q-21 -24 -46 -24h-3q-25 0 -37.5 15.5t-12.5 39.5v91zM97 288q-7 0 -7 -12v-89q0 -12 7 -12q8 0 8 12v89q0 12 -8 12z" />
    <glyph glyph-name="zero.num" unicode="&#xe416;" horiz-adv-x="200" 
d="M94 748h13q46 0 66 -24t20 -61v-180q0 -35 -21 -60.5t-65 -25.5h-13q-47 0 -67 25t-20 61v180q0 36 20.5 60.5t66.5 24.5zM108 669q0 11 -8 11t-8 -11v-190q0 -11 8 -11t8 11v190z" />
    <glyph glyph-name="one.num" unicode="&#xe417;" horiz-adv-x="120" 
d="M32 656h-28v62q34 0 36 26h72v-343h-79z" />
    <glyph glyph-name="two.num" unicode="&#xe418;" horiz-adv-x="184" 
d="M179 401h-174v52q0 37 10 57.5t49 73.5q23 35 27.5 45.5t4.5 28.5v24q0 10 -7 10t-7 -10v-56h-74v53q0 69 75 69h12q82 0 82 -66v-23q0 -32 -10.5 -50.5t-45.5 -57.5q-30 -34 -36.5 -46t-6.5 -30v-15h32v62h69v-121z" />
    <glyph glyph-name="three.num" unicode="&#xe419;" horiz-adv-x="182" 
d="M79 624h-73v64q0 60 75 60h10q81 0 81 -59v-57q0 -30 -27 -40q32 -11 32 -47v-77q0 -72 -84 -72h-11q-77 0 -77 65v79h76v-75q0 -9 7 -9q6 0 6 9v81q0 7 -7 7h-35v59h34q7 0 7 7v67q0 8 -7 8t-7 -8v-62z" />
    <glyph glyph-name="four.num" unicode="&#xe41a;" horiz-adv-x="169" 
d="M4 454v57l54 234h86v-225h21v-66h-21v-53h-76v53h-64zM52 520h16v122z" />
    <glyph glyph-name="five.num" unicode="&#xe41b;" horiz-adv-x="184" 
d="M82 555h-73v189h160v-61h-89v-63q20 27 46 27h4q47 0 47 -55v-123q0 -72 -83 -72h-11q-78 0 -78 65v69h77v-68q0 -9 6 -9q7 0 7 9v119q0 9 -7 9q-6 0 -6 -9v-27z" />
    <glyph glyph-name="six.num" unicode="&#xe41c;" horiz-adv-x="195" 
d="M90 596q20 25 49 25h2q48 0 48 -53v-92q0 -39 -22 -59t-62 -20h-14q-84 0 -84 79v195q0 34 20 55.5t64 21.5h11q83 0 83 -72v-44h-82v47q0 10 -6 10q-7 0 -7 -10v-83zM90 468q0 -12 8 -12q7 0 7 12v89q0 12 -7 12q-8 0 -8 -12v-89z" />
    <glyph glyph-name="seven.num" unicode="&#xe41d;" horiz-adv-x="168" 
d="M5 744h158v-37q0 -21 -22 -160q-8 -58 -8 -128v-18h-92v16q0 61 22 129t27.5 93t5.5 53h-23v-71h-68v123z" />
    <glyph glyph-name="eight.num" unicode="&#xe41e;" horiz-adv-x="183" 
d="M176 684v-57q0 -29 -27 -43q29 -11 29 -46v-73q0 -68 -80 -68h-12q-81 0 -81 68v73q0 33 28 46q-25 14 -25 43v57q0 64 78 64h12q38 0 58 -17t20 -47zM99 620v61q0 12 -8 12q-7 0 -7 -12v-61q0 -12 7 -12q8 0 8 12zM99 468v78q0 12 -8 12q-7 0 -7 -12v-78q0 -12 7 -12
q8 0 8 12z" />
    <glyph glyph-name="nine.num" unicode="&#xe41f;" horiz-adv-x="195" 
d="M6 671q0 77 84 77h14q84 0 84 -78v-195q0 -78 -84 -78h-12q-81 0 -81 70v46h80v-47q0 -10 7 -10t7 10v83q-21 -24 -46 -24h-3q-25 0 -37.5 15.5t-12.5 39.5v91zM97 689q-7 0 -7 -12v-89q0 -12 7 -12q8 0 8 12v89q0 12 -8 12z" />
    <glyph glyph-name="f_f_i" unicode="&#xfb03;" horiz-adv-x="512" 
d="M210 0v438h-44v-438h-123v438h-39v100h39v140q0 32 19 49t46 17h92v-97h-23q-11 0 -11 -12v-97h44v140q0 32 19 49t46 17h94v-97h-24q-11 0 -11 -12v-97h35v-100h-35v-438h-124zM504 668v-116h-123v116h123zM504 538v-538h-123v538h123z" />
    <glyph glyph-name="f_f_l" unicode="&#xfb04;" horiz-adv-x="512" 
d="M210 0v438h-44v-438h-123v438h-39v100h39v140q0 32 19 49t46 17h92v-97h-23q-11 0 -11 -12v-97h44v140q0 32 19 49t46 17h94v-97h-24q-11 0 -11 -12v-97h35v-100h-35v-438h-124zM504 744v-744h-123v744h123z" />
    <glyph glyph-name="idotaccent" horiz-adv-x="139" 
d="M131 668v-116h-123v116h123zM131 538v-538h-123v538h123z" />
    <glyph glyph-name="space_uni0326" horiz-adv-x="217" 
d="M141 -162h-53q10 28 12 57h-40v91h98v-66q0 -39 -17 -82z" />
    <glyph glyph-name="E.alt" horiz-adv-x="232" 
d="M9 744h214v-114h-88v-182h86v-117h-86v-215h90v-116h-216v744z" />
    <glyph glyph-name="F.alt" horiz-adv-x="230" 
d="M9 744h213v-114h-87v-181h85v-118h-85v-331h-126v744z" />
    <glyph glyph-name="J.alt" horiz-adv-x="198" 
d="M6 0v117h34q18 0 18 21v606h131v-649q0 -44 -22.5 -69.5t-63.5 -25.5h-97z" />
    <glyph glyph-name="IJ.alt" horiz-adv-x="343" 
d="M136 744v-744h-127v744h127zM151 0v117h34q18 0 18 21v606h131v-649q0 -44 -22.5 -69.5t-63.5 -25.5h-97z" />
    <glyph glyph-name="a.alt" horiz-adv-x="271" 
d="M145 44q-28 -49 -75 -49h-2q-29 0 -45.5 21.5t-16.5 51.5v167q0 57 50 81q12 6 43 18.5t36 14.5q9 5 9 14v91q0 13 -11 13h-1q-11 0 -11 -13v-102h-111v103q0 91 116 91h13q124 0 124 -90v-366q0 -68 6 -86v-4h-118q-6 15 -6 44zM144 93v181q-13 -8 -17 -15t-4 -21v-145
q0 -14 11 -14q10 0 10 14z" />
    <glyph glyph-name="a.alt2" horiz-adv-x="288" 
d="M157 538h123v-538h-123v43q-35 -50 -74 -50h-3q-32 0 -52 27t-20 66v370q0 37 18.5 61t48.5 24h4q26 0 42.5 -11t35.5 -34v42zM133 99q0 -17 11 -17q13 0 13 17v337q0 18 -13 18q-11 0 -11 -17v-338z" />
    <glyph glyph-name="r.alt" horiz-adv-x="220" 
d="M130 538v-60q20 63 61 63h3q15 0 21 -3v-139q-17 5 -38 5h-5q-41 0 -41 -30v-374h-123v538h122z" />
    <glyph glyph-name="Eacute.alt" horiz-adv-x="232" 
d="M69 758l37 95h102l-40 -95h-99zM9 744h214v-114h-88v-182h86v-117h-86v-215h90v-116h-216v744z" />
    <glyph glyph-name="Ebreve.alt" horiz-adv-x="232" 
d="M211 840q0 -37 -24 -61t-67 -24h-3q-44 0 -67.5 24t-23.5 61v9h77v-8q0 -19 15 -19h1q16 0 16 19v8h76v-9zM9 744h214v-114h-88v-182h86v-117h-86v-215h90v-116h-216v744z" />
    <glyph glyph-name="Ecaron.alt" horiz-adv-x="232" 
d="M69 758l-50 95h85l16 -38l17 38h85l-50 -95h-103zM9 744h214v-114h-88v-182h86v-117h-86v-215h90v-116h-216v744z" />
    <glyph glyph-name="Ecircumflex.alt" horiz-adv-x="232" 
d="M169 853l50 -95h-85l-17 37l-16 -37h-85l50 95h103zM9 744h214v-114h-88v-182h86v-117h-86v-215h90v-116h-216v744z" />
    <glyph glyph-name="Edieresis.alt" horiz-adv-x="232" 
d="M215 851v-93h-90v93h90zM110 851v-93h-89v93h89zM9 744h214v-114h-88v-182h86v-117h-86v-215h90v-116h-216v744z" />
    <glyph glyph-name="Edotaccent.alt" horiz-adv-x="232" 
d="M180 866v-108h-123v108h123zM9 744h214v-114h-88v-182h86v-117h-86v-215h90v-116h-216v744z" />
    <glyph glyph-name="Egrave.alt" horiz-adv-x="232" 
d="M136 853l35 -95h-99l-38 95h102zM9 744h214v-114h-88v-182h86v-117h-86v-215h90v-116h-216v744z" />
    <glyph glyph-name="Emacron.alt" horiz-adv-x="232" 
d="M36 762v77h165v-77h-165zM9 744h214v-114h-88v-182h86v-117h-86v-215h90v-116h-216v744z" />
    <glyph glyph-name="Eogonek.alt" horiz-adv-x="231" 
d="M9 744h214v-114h-88v-182h86v-117h-86v-215h90v-116h-31q-27 -36 -27 -74v-2q0 -23 21 -23h7v-68h-43q-31 0 -51.5 14.5t-20.5 42.5v6q0 50 63 104h-134v744z" />
    <glyph glyph-name="Jcircumflex.alt" horiz-adv-x="198" 
d="M175 853l50 -95h-85l-17 37l-16 -37h-85l50 95h103zM6 0v117h34q18 0 18 21v606h131v-649q0 -44 -22.5 -69.5t-63.5 -25.5h-97z" />
    <glyph glyph-name="aacute.alt" horiz-adv-x="271" 
d="M87 555l33 113h99l-36 -113h-96zM145 44q-28 -49 -75 -49h-2q-29 0 -45.5 21.5t-16.5 51.5v167q0 57 50 81q12 6 43 18.5t36 14.5q9 5 9 14v91q0 13 -11 13h-1q-11 0 -11 -13v-102h-111v103q0 91 116 91h13q124 0 124 -90v-366q0 -68 6 -86v-4h-118q-6 15 -6 44zM144 93
v181q-13 -8 -17 -15t-4 -21v-145q0 -14 11 -14q10 0 10 14z" />
    <glyph glyph-name="aacute.alt2" horiz-adv-x="286" 
d="M95 552l35 116h99l-38 -116h-96zM157 538h123v-538h-123v43q-35 -50 -74 -50h-3q-32 0 -52 27t-20 66v370q0 37 18.5 61t48.5 24h4q26 0 42.5 -11t35.5 -34v42zM133 99q0 -17 11 -17q13 0 13 17v337q0 18 -13 18q-11 0 -11 -17v-338z" />
    <glyph glyph-name="abreve.alt" horiz-adv-x="271" 
d="M145 44q-28 -49 -75 -49h-2q-29 0 -45.5 21.5t-16.5 51.5v167q0 57 50 81q12 6 43 18.5t36 14.5q9 5 9 14v91q0 13 -11 13h-1q-11 0 -11 -13v-102h-111v103q0 91 116 91h13q124 0 124 -90v-366q0 -68 6 -86v-4h-118q-6 15 -6 44zM144 93v181q-13 -8 -17 -15t-4 -21v-145
q0 -14 11 -14q10 0 10 14zM225 642q0 -41 -24 -64.5t-67 -23.5h-2q-92 0 -92 88v12h77v-8q0 -25 15 -25h1q16 0 16 25v8h76v-12z" />
    <glyph glyph-name="abreve.alt2" horiz-adv-x="286" 
d="M157 538h123v-538h-123v43q-35 -50 -74 -50h-3q-32 0 -52 27t-20 66v370q0 37 18.5 61t48.5 24h4q26 0 42.5 -11t35.5 -34v42zM133 99q0 -17 11 -17q13 0 13 17v337q0 18 -13 18q-11 0 -11 -17v-338zM232 638q0 -41 -24 -64.5t-67 -23.5h-2q-92 0 -92 88v12h77v-8
q0 -25 15 -25h1q16 0 16 25v8h76v-12z" />
    <glyph glyph-name="acircumflex.alt" horiz-adv-x="271" 
d="M184 668l48 -113h-83l-15 51l-15 -51h-83l48 113h100zM145 44q-28 -49 -75 -49h-2q-29 0 -45.5 21.5t-16.5 51.5v167q0 57 50 81q12 6 43 18.5t36 14.5q9 5 9 14v91q0 13 -11 13h-1q-11 0 -11 -13v-102h-111v103q0 91 116 91h13q124 0 124 -90v-366q0 -68 6 -86v-4h-118
q-6 15 -6 44zM144 93v181q-13 -8 -17 -15t-4 -21v-145q0 -14 11 -14q10 0 10 14z" />
    <glyph glyph-name="acircumflex.alt2" horiz-adv-x="286" 
d="M192 668l48 -116h-83l-16 54l-15 -54h-82l47 116h101zM157 538h123v-538h-123v43q-35 -50 -74 -50h-3q-32 0 -52 27t-20 66v370q0 37 18.5 61t48.5 24h4q26 0 42.5 -11t35.5 -34v42zM133 99q0 -17 11 -17q13 0 13 17v337q0 18 -13 18q-11 0 -11 -17v-338z" />
    <glyph glyph-name="adieresis.alt" horiz-adv-x="271" 
d="M126 650v-95h-89v95h89zM230 650v-95h-89v95h89zM145 44q-28 -49 -75 -49h-2q-29 0 -45.5 21.5t-16.5 51.5v167q0 57 50 81q12 6 43 18.5t36 14.5q9 5 9 14v91q0 13 -11 13h-1q-11 0 -11 -13v-102h-111v103q0 91 116 91h13q124 0 124 -90v-366q0 -68 6 -86v-4h-118
q-6 15 -6 44zM144 93v181q-13 -8 -17 -15t-4 -21v-145q0 -14 11 -14q10 0 10 14z" />
    <glyph glyph-name="adieresis.alt2" horiz-adv-x="286" 
d="M136 647v-95h-89v95h89zM240 647v-95h-89v95h89zM157 538h123v-538h-123v43q-35 -50 -74 -50h-3q-32 0 -52 27t-20 66v370q0 37 18.5 61t48.5 24h4q26 0 42.5 -11t35.5 -34v42zM133 99q0 -17 11 -17q13 0 13 17v337q0 18 -13 18q-11 0 -11 -17v-338z" />
    <glyph glyph-name="agrave.alt" horiz-adv-x="271" 
d="M148 668l33 -113h-95l-37 113h99zM145 44q-28 -49 -75 -49h-2q-29 0 -45.5 21.5t-16.5 51.5v167q0 57 50 81q12 6 43 18.5t36 14.5q9 5 9 14v91q0 13 -11 13h-1q-11 0 -11 -13v-102h-111v103q0 91 116 91h13q124 0 124 -90v-366q0 -68 6 -86v-4h-118q-6 15 -6 44zM144 93
v181q-13 -8 -17 -15t-4 -21v-145q0 -14 11 -14q10 0 10 14z" />
    <glyph glyph-name="agrave.alt2" horiz-adv-x="286" 
d="M157 538h123v-538h-123v43q-35 -50 -74 -50h-3q-32 0 -52 27t-20 66v370q0 37 18.5 61t48.5 24h4q26 0 42.5 -11t35.5 -34v42zM133 99q0 -17 11 -17q13 0 13 17v337q0 18 -13 18q-11 0 -11 -17v-338zM155 668l34 -116h-96l-37 116h99z" />
    <glyph glyph-name="amacron.alt" horiz-adv-x="271" 
d="M145 44q-28 -49 -75 -49h-2q-29 0 -45.5 21.5t-16.5 51.5v167q0 57 50 81q12 6 43 18.5t36 14.5q9 5 9 14v91q0 13 -11 13h-1q-11 0 -11 -13v-102h-111v103q0 91 116 91h13q124 0 124 -90v-366q0 -68 6 -86v-4h-118q-6 15 -6 44zM144 93v181q-13 -8 -17 -15t-4 -21v-145
q0 -14 11 -14q10 0 10 14zM54 560v78h165v-78h-165z" />
    <glyph glyph-name="amacron.alt2" horiz-adv-x="286" 
d="M60 557v78h165v-78h-165zM157 538h123v-538h-123v43q-35 -50 -74 -50h-3q-32 0 -52 27t-20 66v370q0 37 18.5 61t48.5 24h4q26 0 42.5 -11t35.5 -34v42zM133 99q0 -17 11 -17q13 0 13 17v337q0 18 -13 18q-11 0 -11 -17v-338z" />
    <glyph glyph-name="aogonek.alt" horiz-adv-x="270" 
d="M155 -110v6q0 50 63 104h-67q-6 15 -6 44q-28 -49 -75 -49h-2q-29 0 -45.5 21.5t-16.5 51.5v167q0 57 50 81q12 6 43 18.5t36 14.5q9 5 9 14v91q0 13 -11 13h-1q-11 0 -11 -13v-102h-111v103q0 91 116 91h13q124 0 124 -90v-366q0 -68 6 -86v-4q-27 -36 -27 -74v-2
q0 -23 20 -23h7v-68h-42q-31 0 -51.5 14.5t-20.5 42.5zM144 93v181q-13 -8 -17 -15t-4 -21v-145q0 -14 11 -14q10 0 10 14z" />
    <glyph glyph-name="aogonek.alt2" horiz-adv-x="288" 
d="M157 538h123v-538q-27 -36 -27 -74v-2q0 -23 20 -23h7v-68h-42q-31 0 -51.5 14.5t-20.5 42.5v6q0 50 63 104h-72v43q-35 -50 -74 -50h-3q-32 0 -52 27t-20 66v370q0 37 18.5 61t48.5 24h4q26 0 42.5 -11t35.5 -34v42zM133 99q0 -17 11 -17q13 0 13 17v337q0 18 -13 18
q-11 0 -11 -17v-338z" />
    <glyph glyph-name="aring.alt" horiz-adv-x="271" 
d="M198 617q0 -28 -18.5 -45.5t-46.5 -17.5t-47 18t-19 45t19 44.5t47 17.5t46.5 -17.5t18.5 -44.5zM107 617q0 -12 7.5 -19t18.5 -7t18 7t7 19q0 11 -7 18t-18 7t-18.5 -7t-7.5 -18zM145 44q-28 -49 -75 -49h-2q-29 0 -45.5 21.5t-16.5 51.5v167q0 57 50 81q12 6 43 18.5
t36 14.5q9 5 9 14v91q0 13 -11 13h-1q-11 0 -11 -13v-102h-111v103q0 91 116 91h13q124 0 124 -90v-366q0 -68 6 -86v-4h-118q-6 15 -6 44zM144 93v181q-13 -8 -17 -15t-4 -21v-145q0 -14 11 -14q10 0 10 14z" />
    <glyph glyph-name="aring.alt2" horiz-adv-x="286" 
d="M201 613q0 -28 -18.5 -45.5t-46.5 -17.5t-47 18t-19 45t19 44.5t47 17.5t46.5 -17.5t18.5 -44.5zM110 613q0 -12 7.5 -19t18.5 -7t18 7t7 19q0 11 -7 18t-18 7t-18.5 -7t-7.5 -18zM157 538h123v-538h-123v43q-35 -50 -74 -50h-3q-32 0 -52 27t-20 66v370q0 37 18.5 61
t48.5 24h4q26 0 42.5 -11t35.5 -34v42zM133 99q0 -17 11 -17q13 0 13 17v337q0 18 -13 18q-11 0 -11 -17v-338z" />
    <glyph glyph-name="aringacute.alt" horiz-adv-x="271" 
d="M86 687l35 116h99l-38 -116h-96zM198 617q0 -28 -18.5 -45.5t-46.5 -17.5t-47 18t-19 45t19 44.5t47 17.5t46.5 -17.5t18.5 -44.5zM107 617q0 -12 7.5 -19t18.5 -7t18 7t7 19q0 11 -7 18t-18 7t-18.5 -7t-7.5 -18zM145 44q-28 -49 -75 -49h-2q-29 0 -45.5 21.5
t-16.5 51.5v167q0 57 50 81q12 6 43 18.5t36 14.5q9 5 9 14v91q0 13 -11 13h-1q-11 0 -11 -13v-102h-111v103q0 91 116 91h13q124 0 124 -90v-366q0 -68 6 -86v-4h-118q-6 15 -6 44zM144 93v181q-13 -8 -17 -15t-4 -21v-145q0 -14 11 -14q10 0 10 14z" />
    <glyph glyph-name="aringacute.alt2" horiz-adv-x="286" 
d="M89 684l35 116h99l-38 -116h-96zM200 613q0 -28 -18.5 -45.5t-46.5 -17.5t-47 18t-19 45t19 44.5t47 17.5t46.5 -17.5t18.5 -44.5zM109 613q0 -12 7.5 -19t18.5 -7t18 7t7 19q0 11 -7 18t-18 7t-18.5 -7t-7.5 -18zM157 538h123v-538h-123v43q-35 -50 -74 -50h-3
q-32 0 -52 27t-20 66v370q0 37 18.5 61t48.5 24h4q26 0 42.5 -11t35.5 -34v42zM133 99q0 -17 11 -17q13 0 13 17v337q0 18 -13 18q-11 0 -11 -17v-338z" />
    <glyph glyph-name="atilde.alt" horiz-adv-x="271" 
d="M145 44q-28 -49 -75 -49h-2q-29 0 -45.5 21.5t-16.5 51.5v167q0 57 50 81q12 6 43 18.5t36 14.5q9 5 9 14v91q0 13 -11 13h-1q-11 0 -11 -13v-102h-111v103q0 91 116 91h13q124 0 124 -90v-366q0 -68 6 -86v-4h-118q-6 15 -6 44zM144 93v181q-13 -8 -17 -15t-4 -21v-145
q0 -14 11 -14q10 0 10 14zM161 660h65v-53q0 -50 -45 -50h-2q-19 0 -46 15q-18 10 -21 10q-5 0 -5 -8v-19h-66v53q0 23 12 36.5t34 13.5h2q20 0 45 -14q18 -11 22 -11q5 0 5 8v19z" />
    <glyph glyph-name="atilde.alt2" horiz-adv-x="286" 
d="M157 538h123v-538h-123v43q-35 -50 -74 -50h-3q-32 0 -52 27t-20 66v370q0 37 18.5 61t48.5 24h4q26 0 42.5 -11t35.5 -34v42zM133 99q0 -17 11 -17q13 0 13 17v337q0 18 -13 18q-11 0 -11 -17v-338zM171 656h65v-53q0 -50 -45 -50h-2q-19 0 -46 15q-18 10 -21 10
q-5 0 -5 -8v-19h-66v53q0 23 12 36.5t34 13.5h2q20 0 45 -14q18 -11 22 -11q5 0 5 8v19z" />
    <glyph glyph-name="racute.alt" horiz-adv-x="220" 
d="M71 552l35 116h99l-38 -116h-96zM130 538v-60q20 63 61 63h3q15 0 21 -3v-139q-17 5 -38 5h-5q-41 0 -41 -30v-374h-123v538h122z" />
    <glyph glyph-name="rcaron.alt" horiz-adv-x="220" 
d="M67 552l-48 116h82l15 -54l16 54h82l-47 -116h-100zM130 538v-60q20 63 61 63h3q15 0 21 -3v-139q-17 5 -38 5h-5q-41 0 -41 -30v-374h-123v538h122z" />
    <glyph glyph-name="rcommaaccent.alt" horiz-adv-x="220" 
d="M102 -162h-53q10 28 12 57h-40v91h98v-66q0 -39 -17 -82zM130 538v-60q20 63 61 63h3q15 0 21 -3v-139q-17 5 -38 5h-5q-41 0 -41 -30v-374h-123v538h122z" />
    <glyph glyph-name="space_uni0326.alt" horiz-adv-x="217" 
d="M77 700h53q-10 -28 -12 -57h40v-91h-98v66q0 40 17 82z" />
    <glyph glyph-name="ordfeminine.alt" horiz-adv-x="170" 
d="M91 461q-18 -29 -45 -29h-2q-18 0 -28 12.5t-10 31.5v89q0 34 32 49q7 3 47 18q6 2 6 9v51q0 8 -8 8q-7 0 -7 -8v-57h-67v60q0 53 70 53h8q76 0 76 -53v-224q0 -23 4 -33v-3h-72q-4 8 -4 26zM77 567v-77q0 -8 7 -8t7 9v97q-14 -7 -14 -21z" />
    <glyph glyph-name="ordfeminine.alt2" horiz-adv-x="179" 
d="M98 744h74v-309h-74v26q-19 -29 -46 -29h-1q-20 0 -32 15.5t-12 37.5v211q0 22 11 36t30 14h2q27 0 48 -28v26zM83 494q0 -11 7 -11q8 0 8 11v189q0 11 -8 11q-7 0 -7 -11v-189z" />
    <glyph glyph-name="caron.alt" horiz-adv-x="217" 
d="M65 624l4 120h82l-8 -120h-78z" />
    <glyph glyph-name="plus.uc" horiz-adv-x="230" 
d="M222 306h-68v-75h-78v75h-68v72h68v75h78v-75h68v-72z" />
    <glyph glyph-name="minus.uc" horiz-adv-x="223" 
d="M8 378h207v-72h-207v72z" />
    <glyph glyph-name="multiply.uc" horiz-adv-x="214" 
d="M209 290l-50 -50l-52 52l-52 -52l-50 50l52 53l-52 52l50 51l52 -53l52 53l50 -51l-52 -52z" />
    <glyph glyph-name="divide.uc" horiz-adv-x="230" 
d="M154 468v-78h-78v78h78zM8 378h214v-72h-214v72zM154 294v-78h-78v78h78z" />
    <glyph glyph-name="equal.uc" horiz-adv-x="226" 
d="M9 415h208v-66h-208v66zM9 336h208v-67h-208v67z" />
    <glyph glyph-name="less.uc" horiz-adv-x="199" 
d="M190 233l-182 72v73l182 72v-81l-94 -28l94 -27v-81z" />
    <glyph glyph-name="greater.uc" horiz-adv-x="199" 
d="M9 450l182 -72v-73l-182 -72v81l94 27l-94 28v81z" />
    <glyph glyph-name="questiondown.uc" horiz-adv-x="272" 
d="M102 599h93v-130q0 -52 -22 -96l-33 -67q-11 -23 -11 -61v-139q0 -17 12 -17q11 0 11 17v180h113v-180q0 -111 -115 -111h-24q-119 0 -119 109v130q0 39 6 62.5t24 53.5l44 72q21 35 21 75v102zM95 615v129h107v-129h-107z" />
    <glyph glyph-name="exclamdown.uc" horiz-adv-x="141" 
d="M136 0h-131q0 19 15 278.5t16 319.5h68q1 -63 16.5 -323.5t15.5 -274.5zM124 744v-129h-108v129h108z" />
    <glyph glyph-name="hyphen.uc" horiz-adv-x="142" 
d="M8 399h126v-114h-126v114z" />
    <glyph glyph-name="endash.uc" horiz-adv-x="279" 
d="M8 382h263v-78h-263v78z" />
    <glyph glyph-name="emdash.uc" horiz-adv-x="422" 
d="M8 382h406v-78h-406v78z" />
    <glyph glyph-name="guilsinglleft.uc" horiz-adv-x="136" 
d="M99 300l31 -150h-92l-32 127v47l32 123h93z" />
    <glyph glyph-name="guilsinglright.uc" horiz-adv-x="136" 
d="M37 300l-32 147h92l33 -123v-47l-33 -127h-91z" />
    <glyph glyph-name="guillemotleft.uc" horiz-adv-x="234" 
d="M92 300l36 -150h-87l-35 127v47l35 123h88zM197 300l30 -150h-86l-36 150l37 147h87z" />
    <glyph glyph-name="guillemotright.uc" horiz-adv-x="234" 
d="M105 150l36 149l-36 148h87l36 -124v-47l-36 -126h-87zM6 150l31 149l-32 148h87l36 -148l-35 -149h-87z" />
    <glyph glyph-name="parenleft.uc" horiz-adv-x="152" 
d="M9 366v7q0 222 75 433h70q-43 -197 -43 -435q0 -227 43 -442h-70q-75 208 -75 437z" />
    <glyph glyph-name="parenright.uc" horiz-adv-x="153" 
d="M144 366q0 -221 -75 -437h-71q43 202 43 442q0 230 -42 435h70q75 -219 75 -433v-7z" />
    <glyph glyph-name="bracketleft.uc" horiz-adv-x="145" 
d="M9 -70v876h131v-84h-35v-710h35v-82h-131z" />
    <glyph glyph-name="bracketright.uc" horiz-adv-x="145" 
d="M5 722v84h131v-876h-131v82h35v710h-35z" />
    <glyph glyph-name="braceleft.uc" horiz-adv-x="156" 
d="M13 328h-9v79h13q21 0 21 25q0 23 -10 151t-10 147q0 76 80 76h53v-80h-19q-22 0 -22 -21q0 -11 10 -134t10 -138q0 -54 -48 -66q48 -15 48 -63q0 -15 -10 -137.5t-10 -136.5q0 -22 23 -22h18v-78h-53q-80 0 -80 72q0 13 10 145.5t10 152.5q0 28 -25 28z" />
    <glyph glyph-name="braceright.uc" horiz-adv-x="155" 
d="M138 407h13v-79h-9q-24 0 -24 -28q0 -20 10 -152.5t10 -145.5q0 -72 -81 -72h-52v78h18q23 0 23 22q0 14 -10 136.5t-10 137.5q0 48 47 63q-47 12 -47 66q0 15 10 138t10 134q0 21 -23 21h-18v80h52q81 0 81 -76q0 -19 -10 -147t-10 -151q0 -25 20 -25z" />
    <glyph glyph-name="slash.uc" horiz-adv-x="165" 
d="M168 806l-90 -877h-82l90 877h82z" />
    <glyph glyph-name="backslash.uc" horiz-adv-x="165" 
d="M87 -71l-90 877h83l89 -877h-82z" />
    <glyph glyph-name="bar.uc" horiz-adv-x="141" 
d="M110 806v-877h-79v877h79z" />
    <glyph glyph-name="at.uc" horiz-adv-x="458" 
d="M396 44q-21 -36 -63.5 -64t-105.5 -28q-30 0 -57 5.5t-57.5 22.5t-52.5 43.5t-36.5 73.5t-14.5 109v302q0 118 60.5 187.5t163.5 69.5h1q99 0 157 -52.5t58 -164.5v-267q0 -108 -31.5 -148.5t-85.5 -40.5h-13q-57 0 -76 46q-31 -46 -69 -46h-2q-32 0 -51.5 25t-18.5 64
l8 358q1 36 18.5 55.5t43.5 19.5h3q41 0 71 -42l1 40h113l-14 -444q0 -16 9 -16q13 0 20 37.5t7 91.5v265q0 92 -40 127.5t-108 35.5h-1q-70 0 -112.5 -50.5t-42.5 -151.5v-301q0 -60 14.5 -102t39 -61t47 -26t48.5 -7q79 0 129 72zM235 180l8 344q1 16 -10 16q-9 0 -9 -16
l-8 -343q-2 -15 9 -15q8 0 10 14z" />
    <glyph glyph-name="grave.uc" horiz-adv-x="217" 
d="M142 853l35 -95h-99l-38 95h102z" />
    <glyph glyph-name="dieresis.uc" horiz-adv-x="217" 
d="M206 851v-93h-90v93h90zM101 851v-93h-89v93h89z" />
    <glyph glyph-name="macron.uc" horiz-adv-x="217" 
d="M26 762v77h165v-77h-165z" />
    <glyph glyph-name="acute.uc" horiz-adv-x="217" 
d="M40 758l37 95h102l-40 -95h-99z" />
    <glyph glyph-name="circumflex.uc" horiz-adv-x="217" 
d="M160 853l50 -95h-85l-17 37l-16 -37h-85l50 95h103z" />
    <glyph glyph-name="caron.uc" horiz-adv-x="217" 
d="M57 758l-50 95h85l16 -38l17 38h85l-50 -95h-103z" />
    <glyph glyph-name="breve.uc" horiz-adv-x="217" 
d="M201 840q0 -37 -24 -61t-67 -24h-3q-44 0 -67.5 24t-23.5 61v9h77v-8q0 -19 15 -19h1q16 0 16 19v8h76v-9z" />
    <glyph glyph-name="dotaccent.uc" horiz-adv-x="217" 
d="M170 866v-108h-123v108h123z" />
    <glyph glyph-name="ring.uc" horiz-adv-x="217" 
d="M43 818q0 27 19 44.5t47 17.5t46.5 -17.5t18.5 -44.5q0 -28 -18.5 -45.5t-46.5 -17.5t-47 17.5t-19 45.5zM109 843q-11 0 -18.5 -7.5t-7.5 -18.5t7.5 -18.5t18.5 -7.5t18 7.5t7 18.5t-7 18.5t-18 7.5z" />
    <glyph glyph-name="tilde.uc" horiz-adv-x="217" 
d="M109 839q21 -8 24 -8q5 0 5 8v16h65v-44q0 -52 -43 -52h-2q-16 0 -49 13q-22 8 -24 8q-6 0 -6 -8v-15h-64v46q0 50 44 50h1q14 0 49 -14z" />
    <glyph glyph-name="hungarumlaut.uc" horiz-adv-x="217" 
d="M5 758l25 95h84l-26 -95h-83zM103 758l26 95h85l-28 -95h-83z" />
    <glyph glyph-name="emdash.altuc" horiz-adv-x="829" 
d="M8 382h813v-78h-813v78z" />
    <glyph glyph-name="f.short" horiz-adv-x="206" 
d="M202 744v-97h-25q-11 0 -11 -12v-97h35v-100h-35v-438h-123v438h-39v100h39v140q0 32 19 49t46 17h94z" />
    <glyph glyph-name="f_f.short" horiz-adv-x="373" 
d="M210 0v438h-44v-438h-123v438h-39v100h39v140q0 32 19 49t46 17h92v-97h-23q-11 0 -11 -12v-97h44v140q0 32 19 49t46 17h94v-97h-24q-11 0 -11 -12v-97h35v-100h-35v-438h-124z" />
    <glyph glyph-name="j.short" horiz-adv-x="139" 
d="M131 668v-116h-123v116h123zM-15 -61h12q11 0 11 11v588h123v-647q0 -28 -15.5 -43t-38.5 -15h-92v106z" />
    <glyph glyph-name="uni0401.alt" horiz-adv-x="232" 
d="M215 851v-93h-90v93h90zM110 851v-93h-89v93h89zM9 744h214v-114h-88v-182h86v-117h-86v-215h90v-116h-216v744z" />
    <glyph glyph-name="uni0408.alt" horiz-adv-x="197" 
d="M6 0v117h34q18 0 18 21v606h131v-649q0 -44 -22.5 -69.5t-63.5 -25.5h-97z" />
    <glyph glyph-name="uni0414.bgr" horiz-adv-x="341" 
d="M112 0v-87h-110v203h25l57 628h169l61 -628h25v-203h-110v87h-117zM186 113l-21 427l-21 -427h42z" />
    <glyph glyph-name="uni0415.alt" horiz-adv-x="232" 
d="M9 744h214v-114h-88v-182h86v-117h-86v-215h90v-116h-216v744z" />
    <glyph glyph-name="uni0416.bgr" horiz-adv-x="451" 
d="M164 0l2 317l-36 -317h-130l55 393l-53 351h126l38 -296l-2 296h123l-1 -289l37 289h125l-52 -344l57 -400h-132l-35 317l1 -317h-123z" />
    <glyph glyph-name="uni041A.bgr" horiz-adv-x="302" 
d="M173 0l-39 293l1 -293h-126v744h126l-1 -268l42 268h126l-61 -337l64 -407h-132z" />
    <glyph glyph-name="uni041B.bgr" horiz-adv-x="306" 
d="M-2 0l67 744h169l74 -744h-136l-25 507l-26 -507h-123z" />
    <glyph glyph-name="uni042F.alt" horiz-adv-x="298" 
d="M162 0v319h-9q-14 0 -14 -17v-271q0 -20 -9 -31h-122v3q6 14 6 33v279q0 49 44 69q-46 21 -46 81v190q0 44 22.5 66.5t56.5 22.5h198v-744h-127zM162 424v226h-12q-8 0 -10 -3.5t-2 -13.5v-192q0 -17 13 -17h11z" />
    <glyph glyph-name="uni0430.alt" horiz-adv-x="270" 
d="M145 44q-28 -49 -75 -49h-2q-29 0 -45.5 21.5t-16.5 51.5v167q0 57 50 81q12 6 43 18.5t36 14.5q9 5 9 14v91q0 13 -11 13h-1q-11 0 -11 -13v-102h-111v103q0 91 116 91h13q124 0 124 -90v-366q0 -68 6 -86v-4h-118q-6 15 -6 44zM144 93v181q-13 -8 -17 -15t-4 -21v-145
q0 -14 11 -14q10 0 10 14z" />
    <glyph glyph-name="uni0430.alt2" horiz-adv-x="286" 
d="M157 538h123v-538h-123v43q-35 -50 -74 -50h-3q-32 0 -52 27t-20 66v370q0 37 18.5 61t48.5 24h4q26 0 42.5 -11t35.5 -34v42zM133 99q0 -17 11 -17q13 0 13 17v337q0 18 -13 18q-11 0 -11 -17v-338z" />
    <glyph glyph-name="uni0431.alt" horiz-adv-x="288" 
d="M280 118q0 -61 -33.5 -93.5t-93.5 -32.5h-17q-129 0 -129 126v437q0 80 31.5 119.5t106.5 48.5l83 9q31 2 48 14v-106q-17 -10 -45 -13l-54 -5q-31 -4 -42 -20t-11 -50v-57q28 50 78 50h5q73 0 73 -91v-336zM143 85q14 0 14 21v327q0 22 -13 22t-13 -22v-327
q0 -21 12 -21z" />
    <glyph glyph-name="uni0431.locl" 
d="M280 118q0 -61 -33.5 -93.5t-96.5 -32.5h-14q-129 0 -129 126v306q0 77 63 95q-61 35 -61 102q0 84 97 99l42 4q14 4 18 7.5t4 12.5h107q0 -61 -16.5 -84t-68.5 -29l-23 -1q-48 -8 -48 -36q0 -21 36 -41l28 -14q49 -18 72 -43t23 -71v-307zM131 107q0 -22 13 -22t13 22
v328q0 20 -14 20q-12 0 -12 -20v-328z" />
    <glyph glyph-name="uni0431.loclalt" horiz-adv-x="288" 
d="M280 118q0 -61 -33.5 -93.5t-96.5 -32.5h-14q-129 0 -129 126v306q0 77 63 95q-61 35 -61 105q0 50 32.5 79.5t94.5 30.5l93 2q33 0 46 10v-102q-20 -10 -52 -10l-55 -1q-47 -2 -47 -36q0 -15 8.5 -24.5t27.5 -19.5l28 -14q49 -18 72 -43t23 -71v-307zM131 107
q0 -22 13 -22t13 22v328q0 20 -14 20q-12 0 -12 -20v-328z" />
    <glyph glyph-name="uni0432.bgr" 
d="M7 117v507q0 57 31.5 90.5t96.5 33.5h17q123 0 123 -116v-147q0 -40 -9 -59.5t-33 -32.5q25 -10 36 -29.5t11 -59.5v-187q0 -55 -31 -90t-95 -35h-21q-126 0 -126 125zM130 645v-205h13q11 0 11 11v194q0 15 -12 15t-12 -15zM130 98q0 -16 13 -16q14 0 14 16v228
q0 14 -14 14h-13v-242z" />
    <glyph glyph-name="uni0433.bgr" horiz-adv-x="255" 
d="M251 88q0 -96 -108 -96h-30q-51 0 -80 26t-29 76v99q0 39 13 63.5t49 49.5l54 37q16 10 16 33v82q0 14 -11 14q-10 0 -10 -14v-103h-105v103q0 88 104 88h27q107 0 107 -94v-84q0 -35 -11.5 -60t-45.5 -48l-53 -35q-17 -12 -17 -43v-94q0 -13 11 -13t11 13v125h108v-125z
" />
    <glyph glyph-name="uni0433.locl" horiz-adv-x="211" 
d="M7 0v538h200v-100h-76v-438h-124z" />
    <glyph glyph-name="uni0434.bgr" horiz-adv-x="288" 
d="M281 -72q0 -47 -31 -73.5t-90 -26.5h-29q-116 0 -116 84v75h120v-60q0 -13 11 -13q12 0 12 14v113q-33 -47 -75 -47q-32 0 -53 23t-21 63v377q0 35 18 60t51 25h4q37 0 77 -47v43h122v-610zM134 95q0 -16 12 -16t12 16v343q0 16 -12 16t-12 -16v-343z" />
    <glyph glyph-name="uni0434.locl" horiz-adv-x="317" 
d="M112 -86h-110v186h18q7 76 9 126q2 59 2 312h258v-438h24v-186h-110v86h-91v-86zM136 216q-3 -79 -9 -116h39v339h-26q0 -113 -4 -223z" />
    <glyph glyph-name="uni0436.bgr" horiz-adv-x="420" 
d="M148 0l1 232l-33 -232h-118l51 298l-46 240h116l30 -195l-1 401h123v-396l30 190h114l-45 -234l52 -304h-119l-32 226v-226h-123z" />
    <glyph glyph-name="uni0437.bgr" horiz-adv-x="272" 
d="M264 -65q0 -51 -32 -79t-88 -28h-24q-53 0 -83.5 27t-30.5 73v242h111v-240q0 -14 12 -14t12 14v246q0 19 -15 19h-53v94h53q13 0 13 17v140q0 15 -11 15t-11 -14v-134h-111v132q0 101 110 101h27q60 0 88.5 -28t28.5 -74v-126q0 -58 -40 -74q22 -10 33 -26.5t11 -53.5
v-229z" />
    <glyph glyph-name="uni0438.bgr" 
d="M279 538v-538h-121v47q-37 -51 -82 -51h-4q-32 0 -48 22.5t-16 47.5v472h124v-434q0 -16 13 -16q11 0 11 17v433h123z" />
    <glyph glyph-name="uni0439.bgr" 
d="M279 0v538h-123v-433q0 -17 -11 -17q-13 0 -13 16v434h-124v-472q0 -25 16 -47.5t48 -22.5h4q45 0 82 51v-47h121zM236 638q0 -41 -24 -64.5t-67 -23.5h-2q-92 0 -92 88v12h77v-8q0 -25 15 -25h1q16 0 16 25v8h76v-12z" />
    <glyph glyph-name="uni043A.bgr" horiz-adv-x="281" 
d="M131 0h-123v744h123v-381l30 175h116l-45 -227l51 -311h-120l-33 222z" />
    <glyph glyph-name="uni043B.bgr" horiz-adv-x="270" 
d="M-3 0l58 538h159l58 -538h-124l-15 363l-15 -363h-121z" />
    <glyph glyph-name="uni043D.bgr" horiz-adv-x="288" 
d="M131 0h-124v538h124v-225h26v225h123v-538h-123v213h-26v-213z" />
    <glyph glyph-name="uni043F.bgr" 
d="M8 0v538h121v-47q38 52 82 52h5q34 0 49 -22t15 -48v-473h-124v434q0 17 -13 17q-12 0 -12 -18v-433h-123z" />
    <glyph glyph-name="uni043F.locl" 
d="M131 0h-124v538h273v-538h-124v438h-25v-438z" />
    <glyph glyph-name="uni0442.bgr" horiz-adv-x="432" 
d="M131 434v-434h-123v538h121v-47q33 52 78 52h5q47 0 62 -50q34 50 81 50h5q33 0 48.5 -23t15.5 -48v-472h-125v434q0 16 -10 16q-12 0 -12 -16v-434h-124v434q0 16 -11 16t-11 -16z" />
    <glyph glyph-name="uni0442.locl" horiz-adv-x="242" 
d="M59 0v438h-55v100h235v-100h-56v-438h-124z" />
    <glyph glyph-name="uni0446.bgr" horiz-adv-x="307" 
d="M279 538v-438h25v-186h-110v86h-36v47q-37 -51 -82 -51h-4q-32 0 -48 22.5t-16 47.5v472h124v-434q0 -16 13 -16q11 0 11 17v433h123z" />
    <glyph glyph-name="uni0447.bgr" horiz-adv-x="285" 
d="M129 326q0 -17 15 -17q7 0 10 2v227h123v-538h-123v212q-23 -4 -48 -4q-101 0 -101 102v228h124v-212z" />
    <glyph glyph-name="uni0448.bgr" horiz-adv-x="432" 
d="M301 104v434h123v-538h-121v47q-33 -52 -78 -52h-5q-47 0 -62 50q-34 -50 -81 -50h-5q-33 0 -48.5 23t-15.5 48v472h125v-434q0 -16 10 -16q12 0 12 16v434h124v-434q0 -16 11 -16t11 16z" />
    <glyph glyph-name="uni0449.bgr" horiz-adv-x="452" 
d="M301 104v434h123v-438h25v-186h-110v86h-36v47q-33 -52 -78 -52h-5q-47 0 -62 50q-34 -50 -81 -50h-5q-33 0 -48.5 23t-15.5 48v472h125v-434q0 -16 10 -16q12 0 12 16v434h124v-434q0 -16 11 -16t11 16z" />
    <glyph glyph-name="uni044A.bgr" horiz-adv-x="328" 
d="M179 -8q-130 0 -130 128v318h-47v100h171v-184h20q129 0 129 -111v-124q0 -57 -32 -92t-97 -35h-14zM173 103q0 -18 13 -18q12 0 12 18v139q0 21 -16 21h-9v-160z" />
    <glyph glyph-name="uni044C.bgr" horiz-adv-x="286" 
d="M137 -8q-130 0 -130 128v418h124v-184h20q129 0 129 -111v-124q0 -57 -32 -92t-97 -35h-14zM131 103q0 -18 13 -18q12 0 12 18v139q0 21 -16 21h-9v-160z" />
    <glyph glyph-name="uni044E.bgr" horiz-adv-x="430" 
d="M423 123q0 -65 -33.5 -98t-94.5 -33h-19q-64 0 -95 32t-31 99v90h-19v-213h-124v744h124v-431h19v102q0 131 126 131h20q127 0 127 -131v-292zM274 103q0 -18 12 -18q13 0 13 18v334q0 19 -13 19q-12 0 -12 -19v-334z" />
    <glyph glyph-name="uni044F.alt" horiz-adv-x="289" 
d="M136 37q0 -29 -8 -37h-121v2q6 14 6 34v153q0 47 27 66q-30 24 -30 76v101q0 106 110 106h162v-538h-124v200h-7q-9 0 -12 -4.5t-3 -17.5v-141zM158 297v150h-7q-17 0 -17 -22v-110q0 -18 17 -18h7z" />
    <glyph glyph-name="uni0458.short" horiz-adv-x="138" 
d="M131 668v-116h-123v116h123zM-15 -61h12q11 0 11 11v588h123v-647q0 -28 -15.5 -43t-38.5 -15h-92v106z" />
    <glyph glyph-name="f_b" horiz-adv-x="493" 
d="M202 744v-97h-25q-11 0 -11 -12v-97h35v-100h-35v-438h-123v438h-39v100h39v140q0 32 19 49t46 17h94zM214 744h123v-252q35 49 78 49h4q32 0 49 -23.5t17 -60.5v-373q0 -36 -21 -63t-53 -27h-2q-48 0 -83 55q-5 -20 -7 -49h-105v744zM337 97q0 -17 11 -17q12 0 12 16
v343q0 16 -11 16q-12 0 -12 -16v-342z" />
    <glyph glyph-name="f_f_b" horiz-adv-x="660" 
d="M210 0v438h-44v-438h-123v438h-39v100h39v140q0 32 19 49t46 17h92v-97h-23q-11 0 -11 -12v-97h44v140q0 32 19 49t46 17h94v-97h-24q-11 0 -11 -12v-97h35v-100h-35v-438h-124zM381 744h123v-252q35 49 78 49h4q32 0 49 -23.5t17 -60.5v-373q0 -36 -21 -63t-53 -27h-2
q-48 0 -83 55q-5 -20 -7 -49h-105v744zM504 97q0 -17 11 -17q12 0 12 16v343q0 16 -11 16q-12 0 -12 -16v-342z" />
    <glyph glyph-name="f_f_h" horiz-adv-x="661" 
d="M210 0v438h-44v-438h-123v438h-39v100h39v140q0 32 19 49t46 17h92v-97h-23q-11 0 -11 -12v-97h44v140q0 32 19 49t46 17h94v-97h-24q-11 0 -11 -12v-97h35v-100h-35v-438h-124zM381 0v744h123v-251q35 50 80 50h4q34 0 49.5 -22t15.5 -48v-473h-124v434q0 17 -13 17
q-12 0 -12 -18v-433h-123z" />
    <glyph glyph-name="f_f_j" horiz-adv-x="512" 
d="M210 0v438h-44v-438h-123v438h-39v100h39v140q0 32 19 49t46 17h92v-97h-23q-11 0 -11 -12v-97h44v140q0 32 19 49t46 17h94v-97h-24q-11 0 -11 -12v-97h35v-100h-35v-438h-124zM504 668v-116h-123v116h123zM346 -61h24q11 0 11 12v587h123v-647q0 -28 -15.5 -43
t-38.5 -15h-104v106z" />
    <glyph glyph-name="f_f_k" horiz-adv-x="654" 
d="M210 0v438h-44v-438h-123v438h-39v100h39v140q0 32 19 49t46 17h92v-97h-23q-11 0 -11 -12v-97h44v140q0 32 19 49t46 17h94v-97h-24q-11 0 -11 -12v-97h35v-100h-35v-438h-124zM504 0h-123v744h123v-381l30 175h116l-45 -227l51 -311h-120l-33 222z" />
    <glyph glyph-name="f_h" horiz-adv-x="494" 
d="M202 744v-97h-25q-11 0 -11 -12v-97h35v-100h-35v-438h-123v438h-39v100h39v140q0 32 19 49t46 17h94zM214 0v744h123v-251q35 50 80 50h4q34 0 49.5 -22t15.5 -48v-473h-124v434q0 17 -13 17q-12 0 -12 -18v-433h-123z" />
    <glyph glyph-name="f_j" horiz-adv-x="345" 
d="M202 744v-97h-25q-11 0 -11 -12v-97h35v-100h-35v-438h-123v438h-39v100h39v140q0 32 19 49t46 17h94zM337 668v-116h-123v116h123zM179 -61h24q11 0 11 12v587h123v-647q0 -28 -15.5 -43t-38.5 -15h-104v106z" />
    <glyph glyph-name="f_k" horiz-adv-x="487" 
d="M202 744v-97h-25q-11 0 -11 -12v-97h35v-100h-35v-438h-123v438h-39v100h39v140q0 32 19 49t46 17h94zM337 0h-123v744h123v-381l30 175h116l-45 -227l51 -311h-120l-33 222z" />
    </font>
</defs>
</svg>
