<?xml version="1.0" standalone="no"?>
<!DOCTYPE svg PUBLIC "-//W3C//DTD SVG 1.1//EN" "http://www.w3.org/Graphics/SVG/1.1/DTD/svg11.dtd" >
<svg>
<metadata>
Created by FontForge 20090914 at Tue Jul 13 03:47:25 2021
 By www-data
Copyright (c)2014 Commercial Type.
</metadata>
<defs>
<font id="." horiz-adv-x="339" >
  <font-face 
    font-family="."
    font-weight="700"
    font-stretch="normal"
    units-per-em="1000"
    panose-1="0 0 0 0 0 0 0 0 0 0"
    ascent="812"
    descent="-188"
    x-height="538"
    cap-height="744"
    bbox="-51 -215 975 1054"
    underline-thickness="84"
    underline-position="-64"
    unicode-range="U+000D-U+FB02"
  />
<missing-glyph horiz-adv-x="103" 
 />
    <glyph glyph-name="f_f" unicode="ff" horiz-adv-x="480" 
d="M260 631h-47c-8.66699 0 -14.167 -1.83301 -16.5 -5.5s-3.5 -9.5 -3.5 -17.5v-70h84v132c0 18 6.33301 34.833 19 50.5s33.667 23.5 63 23.5h112v-113h-47c-8.66699 0 -14.167 -1.83301 -16.5 -5.5s-3.5 -9.5 -3.5 -17.5v-70h65v-119h-65v-419h-127v419h-84v-419h-127
v419h-60v119h60v132c0 18 6.33301 34.833 19 50.5s33.667 23.5 63 23.5h112v-113z" />
    <glyph glyph-name="f_i" unicode="fi" horiz-adv-x="424" 
d="M255 631h-42c-8.66699 0 -14.167 -1.83301 -16.5 -5.5s-3.5 -9.5 -3.5 -17.5v-70h62v-119h-62v-419h-127v419h-60v119h60v132c0 8.66699 1.5 17.5 4.5 26.5s7.83301 17 14.5 24s15.167 12.667 25.5 17s22.833 6.5 37.5 6.5h107v-113zM406 0h-128v538h128v-538zM406 564
h-128v126h128v-126z" />
    <glyph glyph-name="f_l" unicode="fl" horiz-adv-x="424" 
d="M255 631h-42c-8.66699 0 -14.167 -1.83301 -16.5 -5.5s-3.5 -9.5 -3.5 -17.5v-70h62v-119h-62v-419h-127v419h-60v119h60v132c0 8.66699 1.5 17.5 4.5 26.5s7.83301 17 14.5 24s15.167 12.667 25.5 17s22.833 6.5 37.5 6.5h107v-113zM406 0h-128v744h128v-744z" />
    <glyph glyph-name="emdash.alt" unicode="&#x2014;&#x2014;" horiz-adv-x="990" 
d="M975 345v-90h-960v90h960z" />
    <glyph glyph-name=".notdef" horiz-adv-x="103" 
 />
    <glyph glyph-name="NULL" horiz-adv-x="0" 
 />
    <glyph glyph-name="NULL" horiz-adv-x="0" 
 />
    <glyph glyph-name="nonmarkingreturn" unicode="&#xd;" horiz-adv-x="103" 
 />
    <glyph glyph-name="space" unicode=" " horiz-adv-x="103" 
 />
    <glyph glyph-name="exclam" unicode="!" horiz-adv-x="164" 
d="M141 0h-119v144h119v-144zM154 744l-47 -577h-51l-47 577h145z" />
    <glyph glyph-name="quotedbl" unicode="&#x22;" horiz-adv-x="232" 
d="M106 553h-91v191h91v-191zM217 553h-91v191h91v-191z" />
    <glyph glyph-name="numbersign" unicode="#" horiz-adv-x="372" 
d="M199 748l-18 -210h35l18 210h92l-19 -210h60l-7 -98h-61l-8 -94h60l-7 -98h-62l-21 -248h-90l21 248h-36l-21 -248h-90l21 248h-61l9 98h60l8 94h-61l9 98h60l18 210h91zM164 346h36l8 94h-36z" />
    <glyph glyph-name="dollar" unicode="$" horiz-adv-x="356" 
d="M157 -11c-98 2.66699 -146.999 54.667 -146.999 156v133h123v-135c0 -25.333 8 -40.333 24 -45v209l-74 76c-27.333 28.667 -45.833 58.167 -55.5 88.5s-14.5 65.833 -14.5 106.5v23c0 26 3.5 48.5 10.5 67.5s17 34.667 30 47s28.167 21.5 45.5 27.5
s36.666 9.33301 57.999 10v59h35v-59c50 -1.33301 85.167 -14 105.5 -38s30.5 -60 30.5 -108v-101h-116v102c0 10 -1.33301 18 -4 24s-8 10.333 -16 13v-188l66 -68c16 -17.333 29.667 -32.833 41 -46.5s20.5 -28 27.5 -43s12 -31.5 15 -49.5s4.5 -39.667 4.5 -65v-27
c0 -52 -13.667 -92.833 -41 -122.5s-65 -45.167 -113 -46.5v-61h-35v61zM220.001 181c0 21.333 -2 38.168 -6 50.501s-11.333 25.166 -22 38.499v-174c18.667 6 28 24.667 28 56v29zM136.001 581.002c0 -21.333 1.16699 -37.832 3.5 -49.499s8.16602 -23.5 17.499 -35.5v149
c-9.33301 -2.66699 -15.166 -7.33398 -17.499 -14.001s-3.5 -14.667 -3.5 -24v-26z" />
    <glyph glyph-name="percent" unicode="%" horiz-adv-x="494" 
d="M265 230c0 36 9 63 27 81s42 27 72 27h20c30.667 0 54.667 -9.5 72 -28.5s26 -45.5 26 -79.5v-128c0 -34 -8.66699 -60.333 -26 -79s-41.333 -28 -72 -28h-20c-30 0 -54 8.83301 -72 26.5s-27 44.5 -27 80.5v128zM12 643c0 36 9 62.833 27 80.5s42 26.5 72 26.5h20
c30.667 0 54.667 -9.33301 72 -28s26 -45 26 -79v-128c0 -34 -8.66699 -60.5 -26 -79.5s-41.333 -28.5 -72 -28.5h-20c-30 0 -54 9 -72 27s-27 45 -27 81v128zM429 744l-279 -744h-83l279 744h83zM137 651c0 5.33301 -1.16699 10 -3.5 14s-6.83301 6 -13.5 6
c-6 0 -10.167 -2 -12.5 -6s-3.5 -8.66699 -3.5 -14v-143c0 -13.333 5.33301 -20 16 -20c11.333 0 17 6.66699 17 20v143zM373 75c6.66699 0 11.167 2 13.5 6s3.5 8.66699 3.5 14v143c0 13.333 -5.66699 20 -17 20c-10.667 0 -16 -6.66699 -16 -20v-143
c0 -5.33301 1.16699 -10 3.5 -14s6.5 -6 12.5 -6z" />
    <glyph glyph-name="ampersand" unicode="&#x26;" horiz-adv-x="453" 
d="M12 230c0 45.333 8.66504 82.6621 25.998 111.995s40.666 55 69.999 77c-7.33301 16 -13.666 30.833 -18.999 44.5s-9.83301 27.334 -13.5 41.001s-6.5 27.5 -8.5 41.5s-3 29 -3 45v28c0 14.667 1.83301 29.834 5.5 45.501s10.334 30 20.001 43s22.667 23.833 39 32.5
s37.5 13 63.5 13h22c24 0 44 -3.16699 60 -9.5s28.667 -15.5 38 -27.5s16 -26.167 20 -42.5s6 -34.5 6 -54.5v-13c0 -20 -1.5 -38 -4.5 -54s-8.16699 -31.167 -15.5 -45.5s-17.666 -28.5 -30.999 -42.5s-30 -29.333 -50 -46l82 -180c4 32 6 66 6 102v105h112
c-1.33301 -72.667 -5.16602 -135.167 -11.499 -187.5s-17.833 -99.5 -34.5 -141.5c9.33301 -7.33301 19 -12.666 29 -15.999s20.667 -6 32 -8c-2.66699 -8.66699 -5 -17.167 -7 -25.5s-3.66699 -16.166 -5 -23.499l-9.5 -38c-3 -12 -5.16699 -19.667 -6.5 -23
c-23.333 3.33301 -43.5 8 -60.5 14s-32.167 14.667 -45.5 26c-10 -9.33301 -23.167 -17.166 -39.5 -23.499s-36.833 -9.5 -61.5 -9.5h-13c-60.667 0 -107.834 17.5 -141.501 52.5s-50.5 85.833 -50.5 152.5v36zM224.998 98.9961c14.667 0 26.333 2.33301 35 7l-110 225
c-3.33301 -9.33301 -6.33301 -20.333 -9 -33s-4 -27 -4 -43v-26c0 -46 7.66699 -79.167 23 -99.5s37 -30.5 65 -30.5zM177.997 595.996c0 -9.33301 0.333984 -17.834 1.00098 -25.501s2 -15.167 4 -22.5s4.5 -15.166 7.5 -23.499s6.83301 -17.833 11.5 -28.5
c11.333 16 18.666 30.833 21.999 44.5s5 32.5 5 56.5v15c0 16.667 -1.66699 28 -5 34s-10 9 -20 9s-16.833 -3.16699 -20.5 -9.5s-5.5 -17.5 -5.5 -33.5v-16z" />
    <glyph glyph-name="quotesingle" unicode="'" horiz-adv-x="123" 
d="M108 553h-93v191h93v-191z" />
    <glyph glyph-name="parenleft" unicode="(" horiz-adv-x="214" 
d="M27 344c0 52.667 3 101.33 9 145.997s14.167 86 24.5 124s22 73 35 105s26.5 61.667 40.5 89h78c-9.33301 -25.333 -18.166 -54.5 -26.499 -87.5s-15.833 -69.167 -22.5 -108.5s-11.834 -81.333 -15.501 -126s-5.5 -91 -5.5 -139c0 -98.667 7.5 -189 22.5 -271
s31.833 -151 50.5 -207h-78c-13.333 24.667 -26.666 53.334 -39.999 86.001s-25.333 68.834 -36 108.501s-19.334 82.834 -26.001 129.501s-10 97 -10 151z" />
    <glyph glyph-name="parenright" unicode=")" horiz-adv-x="214" 
d="M70 347c0 48 -1.83496 94.168 -5.50195 138.501s-8.83398 86.333 -15.501 126s-14.167 76 -22.5 109s-17.166 62.167 -26.499 87.5h77c14 -27.333 27.667 -57.166 41 -89.499s25 -67.5 35 -105.5s18.167 -79.167 24.5 -123.5s9.5 -92.833 9.5 -145.5
c0 -53.333 -3.33301 -103.333 -10 -150s-15.5 -89.834 -26.5 -129.501s-23.167 -75.834 -36.5 -108.501s-26.666 -61.667 -39.999 -87h-77c8.66699 28 17.334 59.333 26.001 94s16.5 72.167 23.5 112.5s12.667 83.333 17 129s6.5 93.167 6.5 142.5z" />
    <glyph glyph-name="asterisk" unicode="*" horiz-adv-x="237" 
d="M196 718l36 -61l-61 -25l60 -27l-34 -59l-51 41l8 -66h-72l9 66l-50 -41l-36 61l60 25l-61 25l36 61l50 -40l-8 66h72l-8 -66z" />
    <glyph glyph-name="plus" unicode="+" horiz-adv-x="344" 
d="M123 255h-108v91h108v122h98v-122h108v-91h-108v-121h-98v121z" />
    <glyph glyph-name="comma" unicode="," horiz-adv-x="149" 
d="M36 -95c4.66699 10.667 9.83203 24.833 15.499 42.5s8.83398 35.167 9.50098 52.5h-46v144h119v-106c0 -32 -3.66699 -59 -11 -81s-14 -39.333 -20 -52h-67z" />
    <glyph glyph-name="hyphen" unicode="-" horiz-adv-x="183" 
d="M168 359v-121h-153v121h153z" />
    <glyph glyph-name="period" unicode="." horiz-adv-x="149" 
d="M134 0h-119v144h119v-144z" />
    <glyph glyph-name="slash" unicode="/" horiz-adv-x="219" 
d="M87 -131h-95l131 939h94z" />
    <glyph glyph-name="zero" unicode="0" horiz-adv-x="374" 
d="M356 165c0 -54 -13.5 -96.835 -40.5 -128.502s-65.5 -47.5 -115.5 -47.5h-30c-52 0 -90.333 15.833 -115 47.5s-37 74.5 -37 128.5v398c0 28 2.83301 53.667 8.5 77s14.5 43.333 26.5 60s27.667 29.667 47 39s43 14 71 14h30c28.667 0 52.834 -4.66699 72.501 -14
s35.667 -22.166 48 -38.499s21.166 -36.166 26.499 -59.499s8 -49 8 -77v-399zM216 576.998c0 15.333 -2.00098 26.833 -6.00098 34.5s-12 11.5 -24 11.5c-11.333 0 -19.166 -3.83301 -23.499 -11.5s-6.5 -19.167 -6.5 -34.5v-412c0 -11.333 1.83301 -21.333 5.5 -30
s11.5 -13 23.5 -13c12.667 0 21 3.83301 25 11.5s6 18.167 6 31.5v412z" />
    <glyph glyph-name="one" unicode="1" horiz-adv-x="243" 
d="M9 547l0.00390625 114.003c19.333 0 35.166 2.16699 47.499 6.5s22.166 10.166 29.499 17.499s12.666 16.166 15.999 26.499s5.66602 21.166 6.99902 32.499h111v-744h-133v547h-78z" />
    <glyph glyph-name="two" unicode="2" horiz-adv-x="363" 
d="M177 632c-9.33301 0 -15.832 -2.66992 -19.499 -8.00293s-5.5 -14 -5.5 -26v-115h-125v131c0 17.333 2.33301 34.333 7 51s12.334 31.5 23.001 44.5s24.667 23.5 42 31.5s38.666 12 63.999 12h27c48 0 85.167 -11.833 111.5 -35.5s39.5 -59.5 39.5 -107.5v-42
c0 -20 -0.5 -38 -1.5 -54s-3.5 -31.5 -7.5 -46.5s-10.333 -30.5 -19 -46.5s-21 -34.333 -37 -55l-36 -47.5l-37 -47.5c-21.333 -28 -37.333 -50.333 -48 -67s-18.334 -30 -23.001 -40s-7 -17.333 -7 -22v-13h93v127h130v-256h-337v76c0 22.667 1 42.834 3 60.501s6 36 12 55
s15 40 27 63s28 51.167 48 84.5l64 106c8.66699 14.667 15.5 27.334 20.5 38.001s8.66699 20 11 28s3.83301 15.333 4.5 22s1 13.334 1 20.001v45c0 22.667 -8.33301 34 -25 34z" />
    <glyph glyph-name="three" unicode="3" horiz-adv-x="350" 
d="M21 515l0.000976562 95.999c0 16.667 2.16699 33.5 6.5 50.5s11.666 32.333 21.999 46s23.833 24.667 40.5 33s37.667 12.5 63 12.5h28c50.667 0 87.667 -13.167 111 -39.5s35 -60.833 35 -103.5v-83c0 -36 -5 -62.167 -15 -78.5s-21 -27.833 -33 -34.5
c36.667 -12 55 -40.333 55 -85v-186c0 -48 -13.167 -85.667 -39.5 -113s-62.5 -41 -108.5 -41h-28c-27.333 0 -50.333 3.83301 -69 11.5s-33.667 17.667 -45 30s-19.333 26.5 -24 42.5s-7 32.667 -7 50v150h130v-118c0 -23.333 9.33301 -35 28 -35c18 0 27 11.667 27 35v145
c0 10.667 -1.33301 18.334 -4 23.001s-9.66699 7 -21 7h-69v133h62c11.333 0 18.833 2.5 22.5 7.5s5.5 13.5 5.5 25.5v102c0 13.333 -2 22.333 -6 27s-10.667 7 -20 7c-8.66699 0 -15 -2.33301 -19 -7s-6 -13.667 -6 -27v-83h-122z" />
    <glyph glyph-name="four" unicode="4" horiz-adv-x="367" 
d="M161 474l-13.501 -41l-15.5 -47l-16 -48c-5.33301 -16 -10.666 -31 -15.999 -45h61v181zM6.99902 279l38 104l47 131l46 131l36 104h117v-456h69v-127h-69v-166h-130v166h-154v113z" />
    <glyph glyph-name="five" unicode="5" horiz-adv-x="353" 
d="M22 331l0.000976562 413h305v-129h-177v-147c10 17.333 22.5 33.333 37.5 48s32.833 22 53.5 22h12c15.333 0 28.333 -2.83301 39 -8.5s19.167 -13.167 25.5 -22.5s11 -19.833 14 -31.5s4.5 -23.167 4.5 -34.5v-307c0 -18.667 -2.83301 -36.667 -8.5 -54
s-14.167 -32.833 -25.5 -46.5s-25.833 -24.5 -43.5 -32.5s-38.834 -12 -63.501 -12h-40c-28 0 -51 4.16699 -69 12.5s-32.333 19 -43 32s-18.167 27.333 -22.5 43s-6.5 30.5 -6.5 44.5v152h133v-123c0 -10.667 1.66699 -19.167 5 -25.5s10 -9.5 20 -9.5
c9.33301 0 15.833 3.33301 19.5 10s5.5 15 5.5 25v225c0 9.33301 -1 17.833 -3 25.5s-8.66699 11.5 -20 11.5c-10 0 -16 -4 -18 -12s-3 -16 -3 -24v-45h-131z" />
    <glyph glyph-name="six" unicode="6" horiz-adv-x="372" 
d="M266 479c16 0 29.834 -2.99707 41.501 -8.99707s21 -13.5 28 -22.5s12.167 -19.167 15.5 -30.5s5 -22 5 -32v-246c0 -18.667 -3.16699 -36.834 -9.5 -54.501s-16 -33.5 -29 -47.5s-29 -25.333 -48 -34s-40.833 -13 -65.5 -13h-30c-26.667 0 -49.834 3.83301 -69.501 11.5
s-35.834 18.167 -48.501 31.5s-22.167 28.833 -28.5 46.5s-9.5 36.167 -9.5 55.5v461c0 46.667 12.333 84.667 37 114s63.667 44 117 44h28c24 0 44.833 -3.33301 62.5 -10s32.334 -15.834 44.001 -27.501s20.5 -24.834 26.5 -39.501s9 -30 9 -46v-112h-137v83
c0 9.33301 -1.5 16.5 -4.5 21.5s-9.5 7.5 -19.5 7.5c-9.33301 0 -15.833 -3 -19.5 -9s-5.5 -12.667 -5.5 -20v-189l16.5 19.5c6.33301 7.66699 13.833 15 22.5 22s18.167 12.833 28.5 17.5s21.833 7 34.5 7h8zM187.001 116.003c13.333 0 21.668 4.16797 25.001 12.501
s5 17.166 5 26.499v171c0 13.333 -2.33301 22.833 -7 28.5s-12.334 8.5 -23.001 8.5c-20.667 0 -31 -12 -31 -36v-172c0 -10 1.83301 -19 5.5 -27s12.167 -12 25.5 -12z" />
    <glyph glyph-name="seven" unicode="7" horiz-adv-x="329" 
d="M319 744l0.00195312 -120.001l-5 -32c-1.33301 -8.66699 -2.83301 -17.167 -4.5 -25.5s-3.33398 -17.333 -5.00098 -27s-3.83398 -21.334 -6.50098 -35.001l-9.5 -50l-13.5 -72.5c-11.333 -64.667 -19.5 -122.5 -24.5 -173.5s-7.5 -90.833 -7.5 -119.5v-89h-160v76
c0 14.667 0.666992 30.167 2 46.5s4 34.833 8 55.5s9.5 44.334 16.5 71.001s16.167 57.334 27.5 92.001l42.5 132c10.333 33.333 18 60 23 80s8.16699 35 9.5 45s2 18.667 2 26h-79v-109h-122v229h306z" />
    <glyph glyph-name="eight" unicode="8" horiz-adv-x="363" 
d="M340 505c0 -26 -5.49805 -47.165 -16.498 -63.498s-22.833 -28.166 -35.5 -35.499c18 -8.66699 32.333 -21.667 43 -39s16 -39.333 16 -66v-158c0 -44.667 -12.333 -81.334 -37 -110.001s-63 -43.334 -115 -44.001h-28c-52 0 -90.167 13.667 -114.5 41
s-36.5 65.333 -36.5 114v157c0 26 5.16699 47.5 15.5 64.5s24.833 30.5 43.5 40.5c-14 7.33301 -26.167 19.166 -36.5 35.499s-15.5 37.5 -15.5 63.5v109c0 17.333 2.5 34.333 7.5 51s13.167 31.5 24.5 44.5s26.166 23.5 44.499 31.5s41.166 12 68.499 12h23
c26 0 48.333 -3.66699 67 -11s34.167 -17.333 46.5 -30s21.333 -27.5 27 -44.5s8.5 -35.5 8.5 -55.5v-107zM209.002 295.002c0 12 -1.99902 21.166 -5.99902 27.499s-11.333 9.5 -22 9.5c-10 0 -17 -2.83301 -21 -8.5s-6 -15.167 -6 -28.5v-146
c0 -9.33301 2.16699 -17.166 6.5 -23.499s11.166 -9.5 20.499 -9.5c18.667 0 28 11 28 33v146zM207.003 604.001c0 21.333 -8.66699 32 -26 32c-9.33301 0 -15.833 -3 -19.5 -9s-5.5 -13.667 -5.5 -23v-117c0 -9.33301 2 -17 6 -23s10.667 -9 20 -9
c16.667 0 25 10.333 25 31v118z" />
    <glyph glyph-name="nine" unicode="9" horiz-adv-x="372" 
d="M109 263c-16 0 -30.0029 3.33301 -42.0029 10s-21.667 15.5 -29 26.5s-12.833 23.167 -16.5 36.5s-5.5 26.666 -5.5 39.999v232c0 17.333 2.66699 34.666 8 51.999s13.833 32.833 25.5 46.5s26.834 24.834 45.501 33.501s41.334 13 68.001 13h30
c28 0 52.167 -3.83301 72.5 -11.5s37 -18 50 -31s22.667 -28.167 29 -45.5s9.5 -35.333 9.5 -54v-480c0 -19.333 -2.83301 -37.666 -8.5 -54.999s-14.5 -32.5 -26.5 -45.5s-27.333 -23.167 -46 -30.5s-41 -11 -67 -11h-30c-52.667 0 -90.167 11 -112.5 33
s-33.5 49.667 -33.5 83v118h137v-83c0 -8.66699 1.5 -15.667 4.5 -21s9.83301 -8 20.5 -8c9.33301 0 15.5 3 18.5 9s4.5 12.667 4.5 20v189c-4 -5.33301 -9.16699 -11.833 -15.5 -19.5s-13.666 -15 -21.999 -22s-17.5 -12.833 -27.5 -17.5s-21 -7 -33 -7h-8zM183.997 627
c-13.333 0 -21.667 -4.33301 -25 -13s-5 -17.667 -5 -27v-171c0 -25.333 10 -38 30 -38c20.667 0 31 12.333 31 37v172c0 10.667 -1.66699 20 -5 28s-12 12 -26 12z" />
    <glyph glyph-name="colon" unicode=":" horiz-adv-x="153" 
d="M136 0h-119v144h119v-144zM136 295h-119v142h119v-142z" />
    <glyph glyph-name="semicolon" unicode=";" horiz-adv-x="153" 
d="M38 -96c4.66699 10.667 9.83203 25 15.499 43s8.83398 35.667 9.50098 53h-46v144h119v-106c0 -32 -3.66699 -59.167 -11 -81.5s-14 -39.833 -20 -52.5h-67zM135.998 295h-119v142h119v-142z" />
    <glyph glyph-name="less" unicode="&#x3c;" horiz-adv-x="290" 
d="M12 344l263 105v-94l-155 -55l155 -53v-95l-263 105v87z" />
    <glyph glyph-name="equal" unicode="=" horiz-adv-x="335" 
d="M318 287v-83h-301v83h301zM318 398v-84h-301v84h301z" />
    <glyph glyph-name="greater" unicode="&#x3e;" horiz-adv-x="289" 
d="M15 449l262 -105v-87l-262 -105v95l154 54l-154 54v94z" />
    <glyph glyph-name="question" unicode="?" horiz-adv-x="333" 
d="M97 167l0.000976562 128.001c0 12 0.333008 22.5 1 31.5s2.33398 17.5 5.00098 25.5s6.16699 16.333 10.5 25s10.166 18.667 17.499 30l35 56c9.33301 15.333 15.166 29.166 17.499 41.499s3.5 26.833 3.5 43.5v49c0 13.333 -1.83301 22.5 -5.5 27.5
s-10.167 7.5 -19.5 7.5c-10 0 -16.667 -2.66699 -20 -8s-5 -14.333 -5 -27v-114h-124v118c0 20.667 1.66699 40.167 5 58.5s10 34.5 20 48.5s23.833 25 41.5 33s40.834 12 69.501 12h27c54 0 91.5 -13.167 112.5 -39.5s31.5 -61.5 31.5 -105.5v-52
c0 -30 -2.83301 -55.667 -8.5 -77s-17.834 -44 -36.501 -68l-49 -67c-5.33301 -7.33301 -9.5 -13.5 -12.5 -18.5s-5.5 -10.5 -7.5 -16.5s-3.33301 -12.833 -4 -20.5s-1 -17.5 -1 -29.5v-92h-104zM209.001 0.000976562h-119v144h119v-144z" />
    <glyph glyph-name="at" unicode="@" horiz-adv-x="583" 
d="M507 -34c-5.33301 -8 -13.4971 -18.0029 -24.4971 -30.0029s-25 -23.667 -42 -35s-37.333 -21 -61 -29s-50.5 -12 -80.5 -12h-10c-18.667 0 -38.334 1.5 -59.001 4.5s-41 9 -61 18s-39.167 22.167 -57.5 39.5s-34.5 40.166 -48.5 68.499s-25.167 63.333 -33.5 105
s-12.5 91.5 -12.5 149.5v111c0 118.667 23.5 210.667 70.5 276s115.833 98 206.5 98h18c84 0 147.333 -24.833 190 -74.5s64 -126.5 64 -230.5v-104c0 -56 -3.5 -102.167 -10.5 -138.5s-16.667 -65.166 -29 -86.499s-26.833 -36.333 -43.5 -45s-34.334 -13 -53.001 -13h-7
c-28 0 -49.833 5.83301 -65.5 17.5s-27.834 28.167 -36.501 49.5c-12.667 -23.333 -26.667 -40.333 -42 -51s-31.666 -16 -48.999 -16h-5c-9.33301 0 -18.833 2.5 -28.5 7.5s-18.334 12.167 -26.001 21.5s-13.667 21.166 -18 35.499s-6.16602 31.166 -5.49902 50.499l13 293
c0.666992 12.667 2.83398 24.834 6.50098 36.501s8.66699 21.834 15 30.501s14.166 15.667 23.499 21s20 8 32 8h6c15.333 0 29.333 -5.16699 42 -15.5s24 -23.166 34 -38.499l2 50h123l-22 -402c0 -5.33301 0.666992 -9.66602 2 -12.999s5 -5 11 -5
c13.333 0 24.333 16.167 33 48.5s13 82.833 13 151.5v105c0 44 -3.83301 80.833 -11.5 110.5s-18.834 53.334 -33.501 71.001s-32.5 30.167 -53.5 37.5s-44.5 11 -70.5 11h-18c-58.667 0 -104.667 -24 -138 -72s-50.333 -123.667 -51 -227v-107
c0 -70.667 6.33301 -126.334 19 -167.001s28.334 -71.5 47.001 -92.5s38.667 -34.333 60 -40s40.666 -8.5 57.999 -8.5h10c22 0 41.667 3.33301 59 10s32.666 14.5 45.999 23.5s24.333 18.333 33 28s15.334 17.834 20.001 24.501zM316.003 414.997
c0.666992 12.667 -0.166992 21.334 -2.5 26.001s-7.16602 7 -14.499 7s-12 -2.83301 -14 -8.5s-3.33301 -13.834 -4 -24.501l-13 -250c-0.666992 -12.667 0 -21.5 2 -26.5s6.66699 -7.5 14 -7.5c11.333 0 17.666 11.667 18.999 35z" />
    <glyph glyph-name="A" unicode="A" horiz-adv-x="349" 
d="M208 125h-80l-12 -125h-118l94 744h158l101 -744h-129zM141 253h54l-28 255z" />
    <glyph glyph-name="B" unicode="B" horiz-adv-x="376" 
d="M21 744h200.998c44.667 0 77.334 -9.83301 98.001 -29.5s31 -54.167 31 -103.5v-99c0 -15.333 -2 -29 -6 -41s-9.16699 -22.333 -15.5 -31s-13.166 -15.667 -20.499 -21s-14.333 -9 -21 -11c9.33301 -2.66699 18.5 -6.5 27.5 -11.5s17 -12 24 -21s12.5 -20.333 16.5 -34
s6 -30.5 6 -50.5v-124c0 -58.667 -10.167 -101.167 -30.5 -127.5s-50.833 -39.5 -91.5 -39.5h-219v744zM153.998 333l-0.000976562 -214.999h37c11.333 0 19.833 2.83301 25.5 8.5s8.5 19.167 8.5 40.5v121c0 15.333 -2.66699 26.666 -8 33.999s-15.666 11 -30.999 11h-32z
M153.997 630.001l0.000976562 -177h30c11.333 0 20.166 3 26.499 9s9.5 17.667 9.5 35v93c0 13.333 -2.5 23.333 -7.5 30s-13.833 10 -26.5 10h-32z" />
    <glyph glyph-name="C" unicode="C" horiz-adv-x="372" 
d="M224 164l0.00195312 164.004h132v-168c0 -22 -2.5 -43.333 -7.5 -64s-13.5 -39 -25.5 -55s-27.833 -28.833 -47.5 -38.5s-44.167 -14.5 -73.5 -14.5h-27c-32 0 -58.167 4.83301 -78.5 14.5s-36.333 22.5 -48 38.5s-19.667 34.667 -24 56s-6.5 43.666 -6.5 66.999v420
c0 22.667 2.66699 44.167 8 64.5s14.166 38.166 26.499 53.499s28.5 27.666 48.5 36.999s44.667 14 74 14h27c32 0 58 -4.5 78 -13.5s35.667 -21.167 47 -36.5s19 -32.833 23 -52.5s6 -40.167 6 -61.5v-125h-132v120c0 14 -2.5 24.667 -7.5 32s-13.833 11 -26.5 11
s-21.334 -3.5 -26.001 -10.5s-7 -17.833 -7 -32.5v-420c0 -30 11.333 -45 34 -45c12 0 20.5 4.16699 25.5 12.5s7.5 19.166 7.5 32.499z" />
    <glyph glyph-name="D" unicode="D" horiz-adv-x="374" 
d="M21 744h189c50 0 86.667 -12.333 110 -37s35 -65.334 35 -122.001v-420c0 -53.333 -10.667 -94.166 -32 -122.499s-59 -42.5 -113 -42.5h-189v744zM154 124h26.001c15.333 0 25.666 4.16699 30.999 12.5s8 21.5 8 39.5v400c0 18 -2.66699 30.833 -8 38.5
s-14.333 11.5 -27 11.5h-30v-502z" />
    <glyph glyph-name="E" unicode="E" horiz-adv-x="315" 
d="M299 744v-131h-145v-162h114v-134h-114v-183h152v-134h-285v744h278z" />
    <glyph glyph-name="F" unicode="F" horiz-adv-x="316" 
d="M21 744h285v-130h-152v-162h112v-134h-112v-318h-133v744z" />
    <glyph glyph-name="G" unicode="G" horiz-adv-x="378" 
d="M139 -10c-19.333 0 -36.5 3.83203 -51.5 11.499s-27.667 18.167 -38 31.5s-18.166 28.833 -23.499 46.5s-8 36.5 -8 56.5v443c0 22.667 2.66699 44.5 8 65.5s14 39.5 26 55.5s27.833 28.833 47.5 38.5s44.167 14.5 73.5 14.5h27c32.667 0 59.167 -4.83301 79.5 -14.5
s36 -22.5 47 -38.5s18.333 -34.5 22 -55.5s5.5 -42.5 5.5 -64.5v-82h-130v83c0 15.333 -2.33301 27 -7 35s-13.667 12 -27 12c-22 0 -33 -15.667 -33 -47v-414c0 -32 12 -48 36 -48c26 0 39 15.333 39 46v160h-49v125h177v-450h-81c-2 8.66699 -4.83301 19.834 -8.5 33.501
s-7.5 26.167 -11.5 37.5c-3.33301 -6 -7.83301 -13.667 -13.5 -23s-12.834 -18.333 -21.501 -27s-19.167 -16 -31.5 -22s-26.833 -9 -43.5 -9h-10z" />
    <glyph glyph-name="H" unicode="H" horiz-adv-x="378" 
d="M154 0h-133v744h133v-284h70v284h133v-744h-133v314h-70v-314z" />
    <glyph glyph-name="I" unicode="I" horiz-adv-x="175" 
d="M154 0h-133v744h133v-744z" />
    <glyph glyph-name="J" unicode="J" horiz-adv-x="354" 
d="M141 327v-171.999c0 -22 8.66699 -33 26 -33h4c9.33301 0 15.833 3.16699 19.5 9.5s5.5 14.166 5.5 23.499v589h138v-593c0 -52 -12.5 -91.5 -37.5 -118.5s-59.5 -40.5 -103.5 -40.5h-44c-44 0 -77.667 11.167 -101 33.5s-35 59.5 -35 111.5v190h128z" />
    <glyph glyph-name="K" unicode="K" horiz-adv-x="376" 
d="M154 0h-133v744h133v-286l87 286h131l-105 -338l116 -406h-140l-89 315v-315z" />
    <glyph glyph-name="L" unicode="L" horiz-adv-x="304" 
d="M154 744v-610h141v-134h-274v744h133z" />
    <glyph glyph-name="M" unicode="M" horiz-adv-x="461" 
d="M21 744h164l51 -376l51 376h153v-744h-120v440l-66 -440h-50l-67 440v-440h-116v744z" />
    <glyph glyph-name="N" unicode="N" horiz-adv-x="376" 
d="M146 744l91 -380v380h118v-744h-113l-103 408v-408h-118v744h125z" />
    <glyph glyph-name="O" unicode="O" horiz-adv-x="385" 
d="M367 170c0 -54.667 -13.8311 -98.5 -41.498 -131.5s-66.5 -49.5 -116.5 -49.5h-30c-52.667 0 -92.667 15.5 -120 46.5s-41 75.833 -41 134.5v393c0 28.667 3 54.667 9 78s15.333 43.333 28 60s29.167 29.5 49.5 38.5s44.833 13.5 73.5 13.5h30
c29.333 0 54.166 -4.5 74.499 -13.5s36.666 -21.833 48.999 -38.5s21.333 -36.5 27 -59.5s8.5 -48.833 8.5 -77.5v-394zM228.002 574c0 32.667 -11.668 49 -35.001 49c-13.333 0 -22.666 -4 -27.999 -12s-8 -20.333 -8 -37v-408c0 -11.333 2.66699 -21.5 8 -30.5
s15 -13.5 29 -13.5c13.333 0 22.333 4.5 27 13.5s7 19.167 7 30.5v408z" />
    <glyph glyph-name="P" unicode="P" horiz-adv-x="361" 
d="M154 298v-297.999h-133v744h189c28 0 51 -3.33301 69 -10s32 -16.334 42 -29.001s16.833 -28.167 20.5 -46.5s5.5 -38.833 5.5 -61.5v-149c0 -46 -10 -82.5 -30 -109.5s-53.333 -40.5 -100 -40.5h-63zM154 419.001l25 0.000976562c15.333 0 24.833 4.16699 28.5 12.5
s5.5 18.166 5.5 29.499v124c0 13.333 -1.83301 24 -5.5 32s-13.167 12 -28.5 12h-25v-210z" />
    <glyph glyph-name="Q" unicode="Q" horiz-adv-x="385" 
d="M367 170c0 -46.667 -9.99805 -85.5 -29.998 -116.5s-49 -50.833 -87 -59.5l64 -149h-166v146c-42.667 6 -75 24.333 -97 55s-33 72 -33 124v393c0 28.667 3 54.667 9 78s15.333 43.333 28 60s29.167 29.5 49.5 38.5s44.833 13.5 73.5 13.5h30
c29.333 0 54.166 -4.5 74.499 -13.5s36.666 -21.833 48.999 -38.5s21.333 -36.5 27 -59.5s8.5 -48.833 8.5 -77.5v-394zM228.002 574c0 32.667 -11.668 49 -35.001 49c-13.333 0 -22.666 -4 -27.999 -12s-8 -20.333 -8 -37v-408c0 -11.333 2.66699 -21.5 8 -30.5
s15 -13.5 29 -13.5c13.333 0 22.333 4.5 27 13.5s7 19.167 7 30.5v408z" />
    <glyph glyph-name="R" unicode="R" horiz-adv-x="369" 
d="M154 441l25.999 0.000976562c13.333 0 22.833 3.16699 28.5 9.5s8.5 18.166 8.5 35.499v101c0 16 -2.16699 27 -6.5 33s-13.166 9 -26.499 9h-30v-188zM153.999 0.000976562l-133.002 -0.00195312v744h210c40.667 0 71.167 -10.667 91.5 -32s30.5 -52 30.5 -92v-119
c0 -15.333 -1.83301 -28.666 -5.5 -39.999s-8.5 -21 -14.5 -29s-12.5 -14.5 -19.5 -19.5s-13.5 -8.83301 -19.5 -11.5c5.33301 -2 11.333 -5.16699 18 -9.5s12.834 -10 18.501 -17s10.5 -15.5 14.5 -25.5s6 -22 6 -36v-253c0 -16 1.16699 -28 3.5 -36
s4.83301 -14.333 7.5 -19v-5h-133c-3.33301 4 -6.16602 10.333 -8.49902 19s-3.5 21.334 -3.5 38.001v217c0 17.333 -2.5 29 -7.5 35s-14.167 9 -27.5 9h-28v-318z" />
    <glyph glyph-name="S" unicode="S" horiz-adv-x="359" 
d="M195 753c52 0 88.8311 -11.834 110.498 -35.501s32.5 -60.5 32.5 -110.5v-100h-128v93c0 12 -1.83301 21.5 -5.5 28.5s-11.5 10.5 -23.5 10.5c-11.333 0 -19 -3.5 -23 -10.5s-6 -16.833 -6 -29.5v-17c0 -17.333 2.66699 -33 8 -47s16.333 -30.333 33 -49l76 -85
c16.667 -18.667 30.334 -36.167 41.001 -52.5s19 -32 25 -47s10 -30 12 -45s3 -30.5 3 -46.5v-35c0 -56 -13.167 -100.667 -39.5 -134s-67.166 -50 -122.499 -50h-26c-50.667 0 -88.667 13.167 -114 39.5s-38 64.5 -38 114.5v134h131v-119c0 -30 11.333 -45 34 -45
c22 0 33 18 33 54v14c0 12.667 -0.333008 24 -1 34s-2.5 19.167 -5.5 27.5s-7.33301 16.833 -13 25.5s-13.5 18.334 -23.5 29.001l-77 85c-28 30 -46.833 60 -56.5 90s-14.5 63 -14.5 99v32c0 48 13.5 84.667 40.5 110s63.833 38 110.5 38h27z" />
    <glyph glyph-name="T" unicode="T" 
d="M331 744v-131h-95v-613h-133v613h-95v131h323z" />
    <glyph glyph-name="U" unicode="U" horiz-adv-x="379" 
d="M20 744h137v-576c0 -30.667 11 -46 33 -46c21.333 0 32 15.333 32 46v576h137v-571c0 -62 -13.667 -108.167 -41 -138.5s-65 -45.5 -113 -45.5h-33c-48.667 0 -86.167 15.167 -112.5 45.5s-39.5 76.5 -39.5 138.5v571z" />
    <glyph glyph-name="V" unicode="V" horiz-adv-x="361" 
d="M-1 744h138l49 -499l49 499h127l-95 -744h-169z" />
    <glyph glyph-name="W" unicode="W" horiz-adv-x="572" 
d="M354 744l47 -472l44 472h128l-95 -744h-151l-39 409l-39 -409h-157l-93 744h138l42 -477l48 477h127z" />
    <glyph glyph-name="X" unicode="X" horiz-adv-x="362" 
d="M10 744h134l41 -223l40 223h126l-79 -346l93 -398h-134l-51 258l-53 -258h-130l94 398z" />
    <glyph glyph-name="Y" unicode="Y" horiz-adv-x="331" 
d="M237 293v-293h-133v288l-110 456h133l45 -264l45 264h120z" />
    <glyph glyph-name="Z" unicode="Z" horiz-adv-x="334" 
d="M314 744v-118l-162 -496h173v-130h-316v120l162 496h-151v128h294z" />
    <glyph glyph-name="bracketleft" unicode="[" horiz-adv-x="200" 
d="M194 713h-54v-748h54v-96h-160v939h160v-95z" />
    <glyph glyph-name="backslash" unicode="\" horiz-adv-x="219" 
d="M2 808h94l131 -939h-94z" />
    <glyph glyph-name="bracketright" unicode="]" horiz-adv-x="200" 
d="M6 -35h54v748h-54v95h160v-939h-160v96z" />
    <glyph glyph-name="asciicircum" unicode="^" horiz-adv-x="237" 
d="M235 433h-89l-29 164l-27 -164h-88l65 311h102z" />
    <glyph glyph-name="underscore" unicode="_" horiz-adv-x="333" 
d="M2 -20h329v-95h-329v95z" />
    <glyph glyph-name="grave" unicode="`" horiz-adv-x="342" 
d="M244 564h-102l-45 136h106z" />
    <glyph glyph-name="a" unicode="a" 
d="M182 265c-3.33301 -2 -8.49902 -5.33203 -15.499 -9.99902s-12.833 -9.66699 -17.5 -15s-7.83398 -10.833 -9.50098 -16.5s-2.5 -13.834 -2.5 -24.501v-65c0 -10 1.5 -17.833 4.5 -23.5s8.5 -8.5 16.5 -8.5c16 0 24 10.667 24 32v131zM14.001 205.001
c0 28 4.50098 50.3369 13.501 67.0039s23.167 31 42.5 43c6 4 14 8.5 24 13.5l30.5 15l29.5 14c9.33301 4.33301 16 7.83301 20 10.5c2.66699 1.33301 4.66699 3.16602 6 5.49902s2 7.16602 2 14.499v29c0 11.333 -1.83301 19 -5.5 23s-9.16699 6 -16.5 6h-4
c-8.66699 0 -14.5 -2.5 -17.5 -7.5s-4.5 -12.167 -4.5 -21.5v-53h-114v74c0 12 1.66699 24.167 5 36.5s9.66602 23.666 18.999 33.999s22.166 18.833 38.499 25.5s37.5 10 63.5 10h23c26.667 0 48.834 -2.83301 66.501 -8.5s31.667 -13.834 42 -24.501
s17.5 -23.167 21.5 -37.5s6 -30.166 6 -47.499v-297c0 -5.33301 1.16699 -9.16602 3.5 -11.499s7.5 -3.5 15.5 -3.5h14v-114h-119c-12.667 0 -22 4.66699 -28 14s-9 25 -9 47c-3.33301 -6.66699 -7.66602 -13.834 -12.999 -21.501s-11.833 -14.834 -19.5 -21.501
s-16.334 -12.167 -26.001 -16.5s-20.5 -6.5 -32.5 -6.5h-4c-12 0 -22.667 2.66699 -32 8s-17 12.333 -23 21s-10.5 18.5 -13.5 29.5s-4.5 22.5 -4.5 34.5v117z" />
    <glyph glyph-name="b" unicode="b" horiz-adv-x="340" 
d="M146 744l-0.000976562 -266c2 4 5.66699 9.66699 11 17s12 14.666 20 21.999s17 13.666 27 18.999s21 8 33 8h6c12.667 0 24 -2.66699 34 -8s18.5 -12.5 25.5 -21.5s12.167 -19.167 15.5 -30.5s5 -23 5 -35v-338c0 -14.667 -2.5 -29.167 -7.5 -43.5
s-11.833 -27.166 -20.5 -38.499s-19 -20.5 -31 -27.5s-25.333 -10.5 -40 -10.5h-2c-14 0 -26 2.5 -36 7.5s-19 11.333 -27 19s-15 16.334 -21 26.001l-17 28.5c-1.33301 -5.33301 -2.66602 -11.833 -3.99902 -19.5l-4 -22.5l-3.5 -19.5
c-1 -5.66699 -1.5 -9.16699 -1.5 -10.5h-90v744h128zM145.999 137c0 -10 1.83105 -18.332 5.49805 -24.999s9.83398 -10 18.501 -10s14.834 3.16699 18.501 9.5s5.5 14.166 5.5 23.499v264c0 14 -2.16699 23.333 -6.5 28s-10.5 7 -18.5 7c-9.33301 0 -15.5 -3.5 -18.5 -10.5
s-4.5 -15.167 -4.5 -24.5v-262z" />
    <glyph glyph-name="c" unicode="c" horiz-adv-x="322" 
d="M309 241l0.000976562 -115.999c0 -18.667 -2.5 -36.167 -7.5 -52.5s-12.833 -30.666 -23.5 -42.999s-24.334 -22.166 -41.001 -29.499s-36.667 -11 -60 -11h-21c-50 0 -86 13.333 -108 40s-33 60 -33 100v271c0 44.667 10.833 80.5 32.5 107.5s57.167 40.5 106.5 40.5h25
c24.667 0 45.334 -3.33301 62.001 -10s30 -15.834 40 -27.501s17.167 -25.334 21.5 -41.001s6.5 -32.834 6.5 -51.501v-89h-118v76c0 11.333 -1.5 20.5 -4.5 27.5s-9.5 10.5 -19.5 10.5c-9.33301 0 -15.5 -3.16699 -18.5 -9.5s-4.5 -15.5 -4.5 -27.5v-271
c0 -10 1.33301 -18 4 -24s8.66699 -9 18 -9s15.666 2.83301 18.999 8.5s5 13.167 5 22.5v108h119z" />
    <glyph glyph-name="d" unicode="d" horiz-adv-x="344" 
d="M326 744l-0.00292969 -743.999h-128v60c-3.33301 -6 -7.66602 -13.167 -12.999 -21.5s-11.666 -16.166 -18.999 -23.499s-15.666 -13.5 -24.999 -18.5s-20 -7.5 -32 -7.5h-2c-13.333 0 -25.5 3 -36.5 9s-20.5 14.333 -28.5 25s-14.167 23 -18.5 37s-6.5 28.667 -6.5 44
v333c0 12.667 1.66699 25.334 5 38.001s8.33301 24.167 15 34.5s15 18.666 25 24.999s21.667 9.5 35 9.5h5c12.667 0 24 -2.33301 34 -7s19 -10.334 27 -17.001s14.833 -13.834 20.5 -21.501s10.5 -14.5 14.5 -20.5v266h128zM197.997 392.001
c0 12.667 -1.83203 22.834 -5.49902 30.501s-10.834 11.5 -21.501 11.5c-16.667 0 -25 -12.333 -25 -37v-259c0 -11.333 1.83301 -20.333 5.5 -27s10.167 -10 19.5 -10c10 0 17 3.66699 21 11s6 17.666 6 30.999v249z" />
    <glyph glyph-name="e" unicode="e" horiz-adv-x="323" 
d="M174 548c90 0 135 -45.6641 135 -136.997v-159h-171v-117c0 -10.667 1.83301 -18.834 5.5 -24.501s10.167 -8.5 19.5 -8.5c8.66699 0 14.667 3 18 9s5 14 5 24v80h123v-98c0 -42 -13 -73.667 -39 -95s-58 -32 -96 -32h-24c-40 0 -72.5 10.667 -97.5 32s-37.5 53 -37.5 95
v296c0 18 2.5 35.167 7.5 51.5s12.833 30.666 23.5 42.999s24.667 22.166 42 29.499s38 11 62 11h24zM138 348.003h52v65c0 11.333 -1.66699 20.166 -5 26.499s-10.333 9.5 -21 9.5c-11.333 0 -18.5 -3.16699 -21.5 -9.5s-4.5 -15.166 -4.5 -26.499v-65z" />
    <glyph glyph-name="f" unicode="f" horiz-adv-x="274" 
d="M265 631h-49c-8.66699 0 -14.167 -1.83301 -16.5 -5.5s-3.5 -9.5 -3.5 -17.5v-70h69v-119h-69v-419h-127v419h-63v119h63v132c0 18 6.33301 34.833 19 50.5s33.667 23.5 63 23.5h114v-113z" />
    <glyph glyph-name="g" unicode="g" horiz-adv-x="342" 
d="M196 60c-10 -18.667 -21.999 -34.999 -35.999 -48.999s-31 -21 -51 -21c-26 0 -47.833 9.5 -65.5 28.5s-26.5 44.5 -26.5 76.5v321c0 38 7.16699 68.333 21.5 91s35.5 34 63.5 34h1c22.667 0 41.334 -6.66699 56.001 -20s27.667 -29.333 39 -48v65h126v-612
c0 -14 -2 -28.167 -6 -42.5s-11.333 -27.333 -22 -39s-25.334 -21.167 -44.001 -28.5s-43 -11 -73 -11h-18c-27.333 0 -50 2.5 -68 7.5s-32.333 12 -43 21s-18 19.333 -22 31s-6 24.5 -6 38.5v72h123v-44c0 -7.33301 1.33301 -13 4 -17s8.66699 -6 18 -6h5
c9.33301 0 15.666 2.16699 18.999 6.5s5 11.166 5 20.499v125zM196.001 399.001c0 8.66699 -1.5 16.5 -4.5 23.5s-9.83301 10.5 -20.5 10.5c-9.33301 0 -15.666 -3.16699 -18.999 -9.5s-5 -14.166 -5 -23.499v-272c0 -9.33301 1.66699 -17 5 -23s9.66602 -9 18.999 -9
c8 0 14.167 3.16699 18.5 9.5s6.5 14.166 6.5 23.499v270z" />
    <glyph glyph-name="h" unicode="h" horiz-adv-x="344" 
d="M18 744h128v-268c9.33301 14.667 22 29 38 43s35.333 21 58 21h5c24.667 0 44 -8 58 -24s21 -36 21 -60v-456h-129v398c0 8 -1.66699 15 -5 21s-10 9 -20 9c-10.667 0 -17.667 -3.16699 -21 -9.5s-5 -14.5 -5 -24.5v-394h-128v744z" />
    <glyph glyph-name="i" unicode="i" horiz-adv-x="164" 
d="M146 0h-128v538h128v-538zM146 564h-128v126h128v-126z" />
    <glyph glyph-name="j" unicode="j" horiz-adv-x="165" 
d="M147 564h-128v126h128v-126zM1 -69c6.66699 0 11.333 1.33105 14 3.99805s4 8.33398 4 17.001v586h128v-654c0 -19.333 -6.5 -36.166 -19.5 -50.499s-31.167 -21.5 -54.5 -21.5h-124v119h52z" />
    <glyph glyph-name="k" unicode="k" horiz-adv-x="346" 
d="M221 538h122l-95 -226l102 -312h-127l-77 239v-239h-128v744h128v-393z" />
    <glyph glyph-name="l" unicode="l" horiz-adv-x="164" 
d="M146 0h-128v744h128v-744z" />
    <glyph glyph-name="m" unicode="m" horiz-adv-x="516" 
d="M18 538l127.001 -0.00488281v-63c4 6 9.16699 13 15.5 21s13.333 15.333 21 22s16.167 12.334 25.5 17.001s19.333 7 30 7h4c22 0 39.667 -6.66699 53 -20s22 -28.666 26 -45.999c4.66699 7.33301 10.334 15 17.001 23s14 15.167 22 21.5s16.667 11.5 26 15.5
s19.666 6 30.999 6h5c25.333 0 44.5 -8.33301 57.5 -25s19.5 -37 19.5 -61v-456h-128v392c0 10.667 -1.33301 19.334 -4 26.001s-9.33398 10 -20.001 10c-9.33301 0 -15.5 -2.5 -18.5 -7.5s-4.83301 -11.833 -5.5 -20.5v-400h-128v392c0 10.667 -1.33301 19.334 -4 26.001
s-9.66699 10 -21 10c-9.33301 0 -15.5 -3.16699 -18.5 -9.5s-4.5 -15.166 -4.5 -26.499v-392h-128v538z" />
    <glyph glyph-name="n" unicode="n" horiz-adv-x="344" 
d="M18 538l127 -0.000976562v-65c12 18 25.667 33.667 41 47s34 20 56 20h7c14.667 0 27 -3.16699 37 -9.5s18 -14 24 -23s10.167 -18.833 12.5 -29.5s3.5 -20 3.5 -28v-450h-129v396c0 9.33301 -1.66699 17 -5 23s-10 9 -20 9c-10.667 0 -17.667 -3.16699 -21 -9.5
s-5 -15.166 -5 -26.499v-392h-128v538z" />
    <glyph glyph-name="o" unicode="o" horiz-adv-x="341" 
d="M15 142l-0.00195312 254.998c0 48.667 12.333 86 37 112s59 39 103 39h30c44 0 78.5 -12.833 103.5 -38.5s37.5 -62.5 37.5 -110.5v-255c0 -22 -3.16699 -42.333 -9.5 -61s-15.666 -35 -27.999 -49s-27.166 -24.833 -44.499 -32.5s-37 -11.5 -59 -11.5h-30
c-24.667 0 -45.834 3.83301 -63.501 11.5s-32.167 18.334 -43.5 32.001s-19.666 29.834 -24.999 48.501s-8 38.667 -8 60zM143.998 399.998l0.00195312 -256c0 -10.667 1.66699 -19.667 5 -27s10.333 -11 21 -11c11.333 0 18.666 3.83301 21.999 11.5s5 16.5 5 26.5v256
c0 11.333 -1.83301 20.333 -5.5 27s-10.834 10 -21.501 10c-10 0 -16.833 -3.33301 -20.5 -10s-5.5 -15.667 -5.5 -27z" />
    <glyph glyph-name="p" unicode="p" horiz-adv-x="344" 
d="M146 538v-59c9.33301 15.333 21.5 30 36.5 44s34.167 21 57.5 21h2c30 0 51.667 -10.667 65 -32s20 -49 20 -83v-321c0 -36 -9 -64.833 -27 -86.5s-39 -32.5 -63 -32.5h-2c-20 0 -37.167 5.66699 -51.5 17s-26.833 25 -37.5 41v-235h-128v726h128zM146 130
c0 -24 8.33301 -36 25 -36c9.33301 0 15.833 3.16699 19.5 9.5s5.5 14.833 5.5 25.5v273c0 10.667 -1.83301 19 -5.5 25s-10.167 9 -19.5 9s-15.833 -3.16699 -19.5 -9.5s-5.5 -14.5 -5.5 -24.5v-272z" />
    <glyph glyph-name="q" unicode="q" horiz-adv-x="344" 
d="M326 538l-0.00195312 -725.999h-128v247c-3.33301 -6.66699 -7.66602 -14 -12.999 -22s-11.833 -15.5 -19.5 -22.5s-16.334 -12.833 -26.001 -17.5s-20.167 -7 -31.5 -7h-6c-13.333 0 -25.166 3.33301 -35.499 10s-19.166 15.167 -26.499 25.5s-13 22.333 -17 36
s-6 27.5 -6 41.5v310c0 16.667 1.66699 32.834 5 48.501s8.66602 29.667 15.999 42s17.333 22.166 30 29.499s28.667 11 48 11h8c12.667 0 23.834 -2.5 33.501 -7.5s18.5 -11.5 26.5 -19.5s15 -17 21 -27s11.667 -20 17 -30c3.33301 8 6.5 19.167 9.5 33.5
s5.16699 29.166 6.5 44.499h88zM197.998 398.001c0 24 -9.00098 36 -27.001 36c-9.33301 0 -15.666 -3.5 -18.999 -10.5s-5 -15.5 -5 -25.5v-267c0 -23.333 8.33301 -35 25 -35c9.33301 0 16 3.5 20 10.5s6 16.5 6 28.5v263z" />
    <glyph glyph-name="r" unicode="r" horiz-adv-x="308" 
d="M145 471c2 5.33301 5.16602 12.001 9.49902 20.001s9.83301 15.667 16.5 23s14.834 13.666 24.501 18.999s21.167 8 34.5 8h6c21.333 0 36.833 -6 46.5 -18s14.5 -28 14.5 -48v-195h-119v123c0 9.33301 -1 16 -3 20s-6.33301 6 -13 6s-11 -2.16699 -13 -6.5
s-3 -10.833 -3 -19.5v-403h-128v538h127v-67z" />
    <glyph glyph-name="s" unicode="s" horiz-adv-x="302" 
d="M289 446v-72.9971h-114v56c0 8.66699 -1.5 15.5 -4.5 20.5s-8.5 7.5 -16.5 7.5c-8.66699 0 -14.334 -2.66699 -17.001 -8s-4 -12 -4 -20v-11c0 -12 1.5 -21.333 4.5 -28s9.16699 -14.667 18.5 -24l71 -70c14 -14 25.333 -26.833 34 -38.5s15.667 -23.334 21 -35.001
s9 -23.667 11 -36s3 -25.5 3 -39.5v-18c0 -18.667 -2.66699 -36.334 -8 -53.001s-13.333 -31.334 -24 -44.001s-24.5 -22.667 -41.5 -30s-36.833 -11 -59.5 -11h-26c-23.333 0 -43.166 3 -59.499 9s-29.833 14.333 -40.5 25s-18.334 23.167 -23.001 37.5s-7 29.5 -7 45.5v88
h118v-72c0 -20 7.66699 -30 23 -30h1c14 0 21 10.333 21 31v12c0 13.333 -1.66699 25 -5 35s-11 20.667 -23 32l-68 65c-24 23.333 -40 45.833 -48 67.5s-12 46.5 -12 74.5v17c0 36 10.333 65 31 87s52.334 33 95.001 33h27c45.333 0 77 -9.5 95 -28.5s27 -43.5 27 -73.5z
" />
    <glyph glyph-name="t" unicode="t" horiz-adv-x="267" 
d="M128 0c-17.333 0 -31.833 6.16797 -43.5 18.501s-17.5 28.166 -17.5 47.499v353h-61v119h61v178h127v-178h62v-119h-62v-276c0 -7.33301 1 -12.833 3 -16.5s7.33301 -5.5 16 -5.5h43v-121h-128z" />
    <glyph glyph-name="u" unicode="u" 
d="M321 0l-123.998 -0.00195312v66c-12 -18 -25.333 -33.833 -40 -47.5s-33.667 -20.5 -57 -20.5h-4c-12.667 0 -23.834 2.83301 -33.501 8.5s-17.834 13 -24.501 22s-11.667 19 -15 30s-5 21.833 -5 32.5v447h129v-395c0 -9.33301 1.5 -17.166 4.5 -23.499
s8.83301 -9.5 17.5 -9.5c10 0 16.667 3.33301 20 10s5 15.334 5 26.001v392h127v-538z" />
    <glyph glyph-name="v" unicode="v" horiz-adv-x="313" 
d="M-2 538h124l35 -343l36 343h122l-88 -538h-147z" />
    <glyph glyph-name="w" unicode="w" horiz-adv-x="498" 
d="M79 0l-81 538h126l35 -333l37 333h113l36 -337l35 337h120l-82 -538h-133l-35 292l-34 -292h-137z" />
    <glyph glyph-name="x" unicode="x" horiz-adv-x="315" 
d="M3 538h122l35 -154l31 154h117l-68 -245l77 -293h-122l-38 170l-40 -170h-119l77 289z" />
    <glyph glyph-name="y" unicode="y" horiz-adv-x="315" 
d="M-2 538l125.999 0.000976562l36 -297l35 297h123l-113 -645c-5.33301 -28 -14.166 -48.5 -26.499 -61.5s-28.166 -19.5 -47.499 -19.5h-116v119h53c8.66699 0 14.167 2.16699 16.5 6.5s4.16602 11.166 5.49902 20.499l2 21c0.666992 5.33301 1 9.83301 1 13.5
s-0.666992 9.16699 -2 16.5z" />
    <glyph glyph-name="z" unicode="z" horiz-adv-x="270" 
d="M257 538v-106l-124 -318h131v-114h-258v107l125 319h-115v112h241z" />
    <glyph glyph-name="braceleft" unicode="{" horiz-adv-x="210" 
d="M172 256c0 -13.333 -1.49902 -31.168 -4.49902 -53.501l-9.5 -69.5l-9.5 -69c-3 -22 -4.5 -39 -4.5 -51c0 -15.333 3 -28 9 -38s17.333 -15 34 -15h17v-91h-44c-40 0 -70.667 10.167 -92 30.5s-32 49.5 -32 87.5c0 12.667 1.66699 30.334 5 53.001l10.5 72.5l10.5 76
c3.33301 25 5 46.5 5 64.5c0 11.333 -2.16699 20.5 -6.5 27.5s-12.166 10.5 -23.499 10.5h-20v100h20c11.333 0 19.166 2.83301 23.499 8.5s6.5 14.167 6.5 25.5c0 18.667 -1.66699 40.5 -5 65.5l-10.5 76l-10.5 73c-3.33301 23 -5 41.5 -5 55.5c0 38 10.667 66.333 32 85
s52 28 92 28h44v-92h-21c-14.667 0 -24.834 -3.83301 -30.501 -11.5s-8.5 -18.167 -8.5 -31.5c0 -11.333 1.5 -28 4.5 -50l9.5 -69l9.5 -69.5c3 -22.333 4.5 -39.833 4.5 -52.5c0 -23.333 -3.33301 -42.333 -10 -57s-20.334 -26 -41.001 -34
c20.667 -8 34.334 -19.167 41.001 -33.5s10 -31.5 10 -51.5z" />
    <glyph glyph-name="bar" unicode="|" horiz-adv-x="171" 
d="M131 -131h-91v939h91v-939z" />
    <glyph glyph-name="braceright" unicode="}" horiz-adv-x="210" 
d="M37 432c0 12.667 1.50098 30.1689 4.50098 52.502s6.33301 45.5 10 69.5s7 47 10 69s4.5 38.667 4.5 50c0 13.333 -2.83301 23.833 -8.5 31.5s-15.834 11.5 -30.501 11.5h-21v92h44c38.667 0 69 -9.33301 91 -28s33 -47 33 -85c0 -14 -1.66699 -32.5 -5 -55.5l-11 -73
c-4 -25.667 -7.66699 -51 -11 -76s-5 -46.833 -5 -65.5c0 -11.333 2.16699 -19.833 6.5 -25.5s12.166 -8.5 23.499 -8.5h21v-100h-21c-11.333 0 -19.166 -3.5 -23.499 -10.5s-6.5 -16.167 -6.5 -27.5c0 -18 1.66699 -39.5 5 -64.5s7 -50.333 11 -76l11 -72.5
c3.33301 -22.667 5 -40.334 5 -53.001c0 -38 -10.667 -67.167 -32 -87.5s-52 -30.5 -92 -30.5h-44v91h16c17.333 0 29 5 35 15s9 22.667 9 38c0 12 -1.5 29 -4.5 51s-6.33301 45 -10 69s-7 47.167 -10 69.5s-4.5 40.166 -4.5 53.499c0 20 3.33301 37.167 10 51.5
s20.334 25.5 41.001 33.5c-20.667 8 -34.334 19.333 -41.001 34s-10 33.667 -10 57z" />
    <glyph glyph-name="asciitilde" unicode="~" horiz-adv-x="284" 
d="M134 345c-9.33301 10.667 -16.1689 18.1689 -20.502 22.502s-8.16602 6.5 -11.499 6.5c-4.66699 0 -7 -3.66699 -7 -11v-62h-84v118c0 18.667 5.33301 35.834 16 51.501s27.667 23.5 51 23.5c14.667 0 27.334 -3.33301 38.001 -10s22.667 -17.334 36 -32.001
c9.33301 -10.667 16 -17.834 20 -21.501s7.33301 -5.5 10 -5.5c4.66699 0 7 3.33301 7 10v63h84v-119c0 -22.667 -6.33301 -40.834 -19 -54.501s-28.334 -20.5 -47.001 -20.5c-14.667 0 -27.167 3 -37.5 9s-22.166 16.667 -35.499 32z" />
    <glyph glyph-name="exclamdown" unicode="&#xa1;" horiz-adv-x="164" 
d="M18 538h119v-144h-119v144zM5 -206l47 577h51l47 -577h-145z" />
    <glyph glyph-name="cent" unicode="&#xa2;" horiz-adv-x="327" 
d="M315 125c0 -18 -2.49902 -34.9971 -7.49902 -50.9971s-12.833 -30.167 -23.5 -42.5s-24.167 -22.333 -40.5 -30s-35.5 -11.834 -57.5 -12.501v-64h-34v64c-48.667 1.33301 -83.667 15.166 -105 41.499s-32 59.166 -32 98.499v271c0 44.667 10.833 80.334 32.5 107.001
s56.5 40.334 104.5 41.001v64h34v-64c47.333 -0.666992 80.666 -13.334 99.999 -38.001s29 -55.334 29 -92.001v-88h-108v77c0 9.33301 -1.5 17.333 -4.5 24s-8.5 11.667 -16.5 15v-350c7.33301 3.33301 12.5 8.5 15.5 15.5s4.5 14.5 4.5 22.5v108h109v-117z
M132.001 408.003v-273.999c0 -8.66699 1.5 -16.5 4.5 -23.5s8.16699 -12.167 15.5 -15.5v351c-8 -2.66699 -13.333 -7.33398 -16 -14.001s-4 -14.667 -4 -24z" />
    <glyph glyph-name="sterling" unicode="&#xa3;" horiz-adv-x="415" 
d="M207 252c0 -32 -5.00098 -58.168 -15.001 -78.501s-23.667 -39.166 -41 -56.499h125v132h124v-249h-392v89c16 11.333 29.167 22.333 39.5 33s18.333 21.834 24 33.501s9.5 24.334 11.5 38.001s3 29.5 3 47.5c0 5.33301 -0.5 14.166 -1.5 26.499l-3.5 42.5h-73v110h62
c-2 22 -3.66699 42 -5 60s-2 31.667 -2 41v69c0 22.667 2.33301 44 7 64s12.834 37.333 24.501 52s27 26.167 46 34.5s43.167 12.5 72.5 12.5h30c27.333 0 49.833 -4.16699 67.5 -12.5s31.667 -19.166 42 -32.499s17.5 -28.5 21.5 -45.5s6 -34.167 6 -51.5v-128h-123v107
c0 13.333 -1.83301 23.666 -5.5 30.999s-11.5 11 -23.5 11s-20 -3.33301 -24 -10s-6 -17.334 -6 -32.001v-82c0 -11.333 0.166992 -24.5 0.5 -39.5s0.833008 -31.167 1.5 -48.5h126v-110h-120c0.666992 -11.333 1 -21.833 1 -31.5v-26.5z" />
    <glyph glyph-name="yen" unicode="&#xa5;" horiz-adv-x="358" 
d="M245 0h-133v218h-99v84h99v26h-99v84h85l-96 332h131l48 -241l45 241h119l-88 -332h88v-84h-100v-26h100v-84h-100v-218z" />
    <glyph glyph-name="brokenbar" unicode="&#xa6;" horiz-adv-x="171" 
d="M131 -131h-91v474h91v-474zM131 382h-91v426h91v-426z" />
    <glyph glyph-name="section" unicode="&#xa7;" horiz-adv-x="405" 
d="M394 251c0 -34 -8.49902 -59.334 -25.499 -76.001s-36.833 -28.334 -59.5 -35.001c20 -20 33 -38.5 39 -55.5s9 -38.5 9 -64.5v-65c0 -46 -12 -82.5 -36 -109.5s-61.333 -40.5 -112 -40.5h-31c-91.333 0 -137 48 -137 144v104h128v-99c0 -22.667 9.33301 -34 28 -34
c9.33301 0 15.833 2.66699 19.5 8s5.5 14.666 5.5 27.999v44c0 18.667 -2.5 33.834 -7.5 45.501s-16.833 25.5 -35.5 41.5l-88 69c-16.667 12.667 -30.167 24.667 -40.5 36s-18.5 22.833 -24.5 34.5s-10 24.334 -12 38.001s-3 29.167 -3 46.5v33c0 30 7.33301 53 22 69
s34.667 27.667 60 35c-16 18 -27 37.5 -33 58.5s-9 47.833 -9 80.5v19c0 20.667 2.5 39.834 7.5 57.501s13.5 33.167 25.5 46.5s27.667 23.833 47 31.5s43.666 11.5 72.999 11.5h18c52 0 88.667 -11.667 110 -35s32 -60.333 32 -111v-79h-126v77c0 14 -2 23.5 -6 28.5
s-11 7.5 -21 7.5c-10.667 0 -17.667 -3.16699 -21 -9.5s-5 -15.166 -5 -26.499v-17c0 -11.333 0.5 -21 1.5 -29s3 -15.167 6 -21.5s7 -12.5 12 -18.5s11.833 -12.667 20.5 -20l16.5 -13l24.5 -19l25.5 -20l19.5 -16c18 -15.333 32.5 -29 43.5 -41s19.333 -23.667 25 -35
s9.5 -23.333 11.5 -36s3 -27.334 3 -44.001v-24zM157.001 378.999c-16 -3.33301 -23.998 -14.332 -23.998 -32.999v-17c-0.666992 -14 1.83301 -25.333 7.5 -34s17.167 -19.667 34.5 -33l68 -53c7.33301 1.33301 13.166 4.5 17.499 9.5s6.5 15.167 6.5 30.5v10
c0 6.66699 -0.666992 12.667 -2 18s-3.5 10.5 -6.5 15.5s-7.33301 10.167 -13 15.5s-12.834 11.666 -21.501 18.999z" />
    <glyph glyph-name="dieresis" unicode="&#xa8;" horiz-adv-x="342" 
d="M159 564h-100v106h100v-106zM283 564h-100v106h100v-106z" />
    <glyph glyph-name="copyright" unicode="&#xa9;" horiz-adv-x="519" 
d="M256 -11c-37.333 0 -70.6689 5.00098 -100.002 15.001s-54.166 25.333 -74.499 46s-35.833 47 -46.5 79s-16 70.333 -16 115v258c0 84 21 147.167 63 189.5s100.333 63.5 175 63.5h12c74.667 0 131.834 -20.667 171.501 -62s59.5 -105 59.5 -191v-258
c0 -45.333 -5.83301 -84 -17.5 -116s-28 -58.333 -49 -79s-45.667 -35.834 -74 -45.501s-59.5 -14.5 -93.5 -14.5h-10zM257.997 56.001l7.99902 -0.000976562c28.667 0 53 4.83301 73 14.5s36.333 23.334 49 41.001s21.834 39 27.501 64s8.5 52.833 8.5 83.5v230
c0 28.667 -2.66699 55.167 -8 79.5s-14 45.333 -26 63s-28 31.5 -48 41.5s-44.667 15 -74 15h-10c-59.333 0 -101 -17.333 -125 -52s-36 -83.667 -36 -147v-230c0 -64 12.5 -113.833 37.5 -149.5s66.167 -53.5 123.5 -53.5zM263.996 207c7.33301 0 12 2.5 14 7.5
s3 11.167 3 18.5v107h104v-117c0 -32.667 -10.167 -59.667 -30.5 -81s-47.5 -32 -81.5 -32h-18c-40 0 -69.5 11.333 -88.5 34s-28.5 52 -28.5 88v276c0 40 9.33301 71.333 28 94s47.334 34 86.001 34h22c15.333 0 29.666 -2 42.999 -6s25 -10.5 35 -19.5
s17.833 -20.833 23.5 -35.5s8.5 -32.667 8.5 -54v-82h-104v75c0 8 -0.833008 14.333 -2.5 19s-6.16699 7 -13.5 7s-12.166 -2.16699 -14.499 -6.5s-3.5 -10.833 -3.5 -19.5v-281c0 -7.33301 1.16699 -13.5 3.5 -18.5s7.16602 -7.5 14.499 -7.5z" />
    <glyph glyph-name="ordfeminine" unicode="&#xaa;" horiz-adv-x="206" 
d="M185 526c0 -5.33301 2.66504 -7.99902 7.99805 -7.99902h11v-67h-71c-7.33301 0 -13 2.66699 -17 8s-6 15 -6 29c-4 -8 -10.667 -16.667 -20 -26s-21 -14 -35 -14c-15.333 0 -26.666 5.66699 -33.999 17s-11 24 -11 38v53c0 15.333 2.83301 27.666 8.5 36.999
s14.167 17.666 25.5 24.999l14 8c6 3.33301 12 6.5 18 9.5l17 8.5l12 6c3.33301 2 5 6 5 12v9c0 10.667 -4 16 -12 16h-1c-5.33301 0 -8.66602 -1.5 -9.99902 -4.5s-2 -7.16699 -2 -12.5v-20h-72v34c0 6.66699 1 13.834 3 21.501s5.83301 14.667 11.5 21
s13.5 11.5 23.5 15.5s22.667 6 38 6h14c32.667 0 54.5 -6.5 65.5 -19.5s16.5 -30.167 16.5 -51.5v-151zM109.998 589.001c-7.33301 -3.33301 -13 -6.99902 -17 -10.999c-4.66699 -4.66699 -7 -12.334 -7 -23.001v-28c0 -11.333 3.66699 -17 11 -17c8.66699 0 13 6 13 18v61z
" />
    <glyph glyph-name="guillemotleft" unicode="&#xab;" horiz-adv-x="273" 
d="M152 119h-92l-48 137v60l48 135h92l-50 -165zM265 119h-93l-48 167l48 165h94l-44 -165z" />
    <glyph glyph-name="registered" unicode="&#xae;" horiz-adv-x="281" 
d="M138 399c-38 0 -68.333 11.333 -91 34s-34 56 -34 100v86c0 40 10.833 71.833 32.5 95.5s52.5 35.5 92.5 35.5h9c38 0 67.667 -11.667 89 -35s32 -55 32 -95v-87c0 -20.667 -3.16699 -39.334 -9.5 -56.001s-15 -30.667 -26 -42s-24 -20.166 -39 -26.499
s-30.833 -9.5 -47.5 -9.5h-8zM138 436h8c30 0 50.833 9.5 62.5 28.5s17.5 43.5 17.5 73.5v77c0 27.333 -5.83301 50.5 -17.5 69.5s-32.167 28.5 -61.5 28.5h-9c-30.667 0 -52.167 -8.33301 -64.5 -25s-18.5 -42 -18.5 -76v-74c0 -30 6 -54.5 18 -73.5s33.667 -28.5 65 -28.5
zM134 467h-51v220h76c26.667 0 40 -13.333 40 -40v-30c0 -14.667 -6.33301 -25.334 -19 -32.001c7.33301 -2 12.333 -5.5 15 -10.5s4 -11.167 4 -18.5v-65c0 -8.66699 1 -15 3 -19v-5h-49c-2 4.66699 -3 11.334 -3 20.001v60c0 4.66699 -0.5 8 -1.5 10s-3.83301 3 -8.5 3h-6
v-93zM134 599h7.00098c3.33301 0 5.66602 0.833008 6.99902 2.5s2 5.16699 2 10.5v26c0 8 -3 12 -9 12h-7v-51z" />
    <glyph glyph-name="macron" unicode="&#xaf;" horiz-adv-x="342" 
d="M76 663h191v-87h-191v87z" />
    <glyph glyph-name="degree" unicode="&#xb0;" horiz-adv-x="210" 
d="M5 649c0 28 9.33301 51.333 28 70s43 28 73 28c28.667 0 52.334 -9.33301 71.001 -28s28 -42 28 -70s-9.33301 -51.167 -28 -69.5s-42.334 -27.5 -71.001 -27.5c-30 0 -54.333 9.16699 -73 27.5s-28 41.5 -28 69.5zM69 650c0 -11.333 3.00195 -20.5 9.00195 -27.5
s15 -10.5 27 -10.5c11.333 0 20.166 3.5 26.499 10.5s9.5 16.167 9.5 27.5c0 10.667 -3.33301 19.5 -10 26.5s-15.334 10.5 -26.001 10.5c-12 0 -21 -3.66699 -27 -11s-9 -16 -9 -26z" />
    <glyph glyph-name="acute" unicode="&#xb4;" horiz-adv-x="342" 
d="M139 700h105l-44 -136h-103z" />
    <glyph glyph-name="paragraph" unicode="&#xb6;" horiz-adv-x="377" 
d="M124 744h249.001v-98h-39v-646h-85v646h-34v-646h-85v342h-6c-34.667 0 -61.834 8.66699 -81.501 26s-29.5 43 -29.5 77v199c0 30.667 10 55 30 73s47 27 81 27z" />
    <glyph glyph-name="periodcentered" unicode="&#xb7;" horiz-adv-x="149" 
d="M134 244h-119v144h119v-144z" />
    <glyph glyph-name="cedilla" unicode="&#xb8;" horiz-adv-x="342" 
d="M154 -188h-61v63h50c14.667 0 22 5.66699 22 17v1c0 10 -7.33301 15 -22 15h-35v92h60v-36h3c52.667 -2 79 -26 79 -72v-3c0 -26 -9 -45.333 -27 -58s-41 -19 -69 -19z" />
    <glyph glyph-name="ordmasculine" unicode="&#xba;" horiz-adv-x="212" 
d="M97 448c-56 0 -84.001 30.667 -84.001 92v115c0 30 7.33301 53 22 69s35.334 24 62.001 24h18c25.333 0 45.666 -7.66699 60.999 -23s23 -38.333 23 -69v-116c0 -28.667 -7.66699 -51.167 -23 -67.5s-35.666 -24.5 -60.999 -24.5h-18zM91.999 535
c0 -12.667 4.66699 -19 14 -19s14 6.33301 14 19v127c0 12.667 -4.66699 19 -14 19s-14 -6.33301 -14 -19v-127z" />
    <glyph glyph-name="guillemotright" unicode="&#xbb;" horiz-adv-x="272" 
d="M170 285l-50 166h93l47 -137v-59l-48 -136h-92zM51 285l-44 166h93l48 -166l-48 -166h-93z" />
    <glyph glyph-name="onequarter" unicode="&#xbc;" horiz-adv-x="379" 
d="M6 638v66c21.333 0 35.5 4 42.5 12s11.167 17.333 12.5 28h72v-340h-84v234h-43zM358 744l-267 -744h-81l267 744h81zM174 117l19.5 48l23.5 60.5l23.5 62.5l19.5 54h83v-211h28v-72h-28v-59h-80v59h-89v58zM263 131v87.001c-1.33301 -5.33301 -3.33301 -12 -6 -20
l-8.5 -24.5l-9 -24c-3 -7.66699 -5.5 -13.834 -7.5 -18.501h31z" />
    <glyph glyph-name="onehalf" unicode="&#xbd;" horiz-adv-x="427" 
d="M6 638v66c21.333 0 35.5 4 42.5 12s11.167 17.333 12.5 28h72v-340h-84v234h-43zM358 744l-267 -744h-81l267 744h81zM210 0l-0.000976562 43.998c0 8.66699 0.833008 17.167 2.5 25.5s5.33398 17.5 11.001 27.5s13.834 21.833 24.501 35.5s24.667 30.167 42 49.5
c8 8.66699 14 15.834 18 21.501s7 11 9 16s3.16699 9.66699 3.5 14s0.5 9.5 0.5 15.5v16c0 11.333 -4.66699 17 -14 17c-8.66699 0 -13 -5.66699 -13 -17v-53h-78v57c0 10 1.33301 19.667 4 29s7.33398 17.833 14.001 25.5s15.167 13.667 25.5 18s23.5 6.5 39.5 6.5h15
c18.667 0 34 -2.16699 46 -6.5s21.5 -10.333 28.5 -18s12 -16.167 15 -25.5s4.5 -19 4.5 -29v-18c0 -23.333 -4.83301 -43.166 -14.5 -59.499s-25.834 -34.833 -48.501 -55.5l-32 -29.5c-7.33301 -7 -12.833 -12.667 -16.5 -17s-5.83398 -8 -6.50098 -11s-1 -6.5 -1 -10.5
h53v54h74v-122h-206z" />
    <glyph glyph-name="threequarters" unicode="&#xbe;" horiz-adv-x="432" 
d="M411 744l-267 -744h-81l267 744h81zM12 630v36.0029c0 26 6.16699 46.5 18.5 61.5s34.5 22.5 66.5 22.5h12c30 0 52.167 -6.33301 66.5 -19s21.5 -33.334 21.5 -62.001v-23c0 -16.667 -3.33301 -29.167 -10 -37.5s-13.334 -13.833 -20.001 -16.5
c9.33301 -3.33301 17.833 -9.33301 25.5 -18s11.5 -20.667 11.5 -36v-55c0 -26 -7.33301 -46.833 -22 -62.5s-38 -23.5 -70 -23.5h-14c-17.333 0 -31.666 2.16699 -42.999 6.5s-20.333 10.166 -27 17.499s-11.167 15.666 -13.5 24.999s-3.5 19.333 -3.5 30v51h80v-46
c0 -11.333 4.33301 -17 13 -17c8 0 12 5.66699 12 17v49c0 6 -1 10 -3 12s-5.33301 3 -10 3h-39v69h37c9.33301 0 14 5.33301 14 16v38c0 12 -4.33301 18 -13 18s-13 -6 -13 -18v-38h-77zM227 117.003l19.5 48l23.5 60.5l23.5 62.5l19.5 54h83v-211h28v-72h-28v-59h-80v59
h-89v58zM316 131.003v87.001c-1.33301 -5.33301 -3.33301 -12 -6 -20l-8.5 -24.5l-9 -24c-3 -7.66699 -5.5 -13.834 -7.5 -18.501h31z" />
    <glyph glyph-name="questiondown" unicode="&#xbf;" horiz-adv-x="333" 
d="M232 371l-0.000976562 -128.001c0 -12 -0.333008 -22.5 -1 -31.5s-2.33398 -17.5 -5.00098 -25.5s-6.16699 -16.333 -10.5 -25s-10.166 -18.667 -17.499 -30l-35 -56c-9.33301 -15.333 -15.166 -29.166 -17.499 -41.499s-3.5 -26.833 -3.5 -43.5v-49
c0 -13.333 1.83301 -22.5 5.5 -27.5s10.167 -7.5 19.5 -7.5c10 0 16.667 2.66699 20 8s5 14.333 5 27v114h124v-118c0 -20.667 -1.66699 -40.167 -5 -58.5s-10 -34.5 -20 -48.5s-23.833 -25 -41.5 -33s-40.834 -12 -69.501 -12h-27c-54 0 -91.5 13.167 -112.5 39.5
s-31.5 61.5 -31.5 105.5v52c0 30 2.83301 55.667 8.5 77s17.834 44 36.501 68l49 67c5.33301 7.33301 9.5 13.5 12.5 18.5s5.5 10.5 7.5 16.5s3.33301 12.833 4 20.5s1 17.5 1 29.5v92h104zM119.999 537.999h119v-144h-119v144z" />
    <glyph glyph-name="Agrave" unicode="&#xc0;" horiz-adv-x="349" 
d="M208 125h-80l-12 -125h-118l94 744h158l101 -744h-129zM141 253h54l-28 255zM225 770h-104l-44 115h105z" />
    <glyph glyph-name="Aacute" unicode="&#xc1;" horiz-adv-x="349" 
d="M208 125h-80l-12 -125h-118l94 744h158l101 -744h-129zM141 253h54l-28 255zM161 885h106l-45 -115h-104z" />
    <glyph glyph-name="Acircumflex" unicode="&#xc2;" horiz-adv-x="349" 
d="M208 125h-80l-12 -125h-118l94 744h158l101 -744h-129zM141 253h54l-28 255zM287 770h-89l-28 47l-27 -47h-89l65 115h102z" />
    <glyph glyph-name="Atilde" unicode="&#xc3;" horiz-adv-x="349" 
d="M208 125h-80l-12 -125h-118l94 744h158l101 -744h-129zM141 253h54l-28 255zM170 787l-14.5 6.5c-3.66699 1.66699 -7.16699 2.5 -10.5 2.5c-5.33301 0 -8 -3.66699 -8 -11v-16h-72v34c0 25.333 5.16699 44.5 15.5 57.5s24.166 19.5 41.499 19.5c10 0 19 -1 27 -3
s17 -5.33301 27 -10c8.66699 -4 14.667 -6.66699 18 -8s6.33301 -2 9 -2c4 0 6 3.33301 6 10v16h72v-34c0 -28 -6.16699 -47.667 -18.5 -59s-25.166 -17 -38.499 -17c-8.66699 0 -17 1 -25 3s-17.667 5.66699 -29 11z" />
    <glyph glyph-name="Adieresis" unicode="&#xc4;" horiz-adv-x="349" 
d="M208 125h-80l-12 -125h-118l94 744h158l101 -744h-129zM141 253h54l-28 255zM282 770h-100v106h100v-106zM157 770h-100v106h100v-106z" />
    <glyph glyph-name="Aring" unicode="&#xc5;" horiz-adv-x="349" 
d="M208 125h-80l-12 -125h-118l94 744h158l101 -744h-129zM141 253h54l-28 255zM169 811c10 0 17.833 3.16699 23.5 9.5s8.5 14.166 8.5 23.499s-2.83301 17.166 -8.5 23.499s-13.5 9.5 -23.5 9.5s-17.833 -3.16699 -23.5 -9.5s-8.5 -14.166 -8.5 -23.499
s2.83301 -17.166 8.5 -23.499s13.5 -9.5 23.5 -9.5zM169 765c-23.333 0 -42.5 7.33301 -57.5 22s-22.5 33.667 -22.5 57s7.5 42.333 22.5 57s34.167 22 57.5 22s42.5 -7.33301 57.5 -22s22.5 -33.667 22.5 -57s-7.5 -42.333 -22.5 -57s-34.167 -22 -57.5 -22z" />
    <glyph glyph-name="AE" unicode="&#xc6;" horiz-adv-x="515" 
d="M225 0v131h-81l-22 -131h-128l140 744h362v-132h-138v-161h107v-135h-107v-182h148v-134h-281zM225 258v344l-59 -344h59z" />
    <glyph glyph-name="Ccedilla" unicode="&#xc7;" horiz-adv-x="372" 
d="M224 164l0.00195312 164.004h132v-168c0 -22 -2.5 -43.333 -7.5 -64s-13.5 -39 -25.5 -55s-27.833 -28.833 -47.5 -38.5s-44.167 -14.5 -73.5 -14.5h-27c-32 0 -58.167 4.83301 -78.5 14.5s-36.333 22.5 -48 38.5s-19.667 34.667 -24 56s-6.5 43.666 -6.5 66.999v420
c0 22.667 2.66699 44.167 8 64.5s14.166 38.166 26.499 53.499s28.5 27.666 48.5 36.999s44.667 14 74 14h27c32 0 58 -4.5 78 -13.5s35.667 -21.167 47 -36.5s19 -32.833 23 -52.5s6 -40.167 6 -61.5v-125h-132v120c0 14 -2.5 24.667 -7.5 32s-13.833 11 -26.5 11
s-21.334 -3.5 -26.001 -10.5s-7 -17.833 -7 -32.5v-420c0 -30 11.333 -45 34 -45c12 0 20.5 4.16699 25.5 12.5s7.5 19.166 7.5 32.499zM180.002 -187.996h-61v63h50c14.667 0 22 5.66699 22 17v1c0 10 -7.33301 15 -22 15h-35v92h60v-36h3c52.667 -2 79 -26 79 -72v-3
c0 -26 -9 -45.333 -27 -58s-41 -19 -69 -19z" />
    <glyph glyph-name="Egrave" unicode="&#xc8;" horiz-adv-x="315" 
d="M299 744v-131h-145v-162h114v-134h-114v-183h152v-134h-285v744h278zM219 770h-104l-44 115h105z" />
    <glyph glyph-name="Eacute" unicode="&#xc9;" horiz-adv-x="315" 
d="M299 744v-131h-145v-162h114v-134h-114v-183h152v-134h-285v744h278zM151 885h106l-45 -115h-104z" />
    <glyph glyph-name="Ecircumflex" unicode="&#xca;" horiz-adv-x="315" 
d="M299 744v-131h-145v-162h114v-134h-114v-183h152v-134h-285v744h278zM279 770h-89l-28 47l-27 -47h-89l65 115h102z" />
    <glyph glyph-name="Edieresis" unicode="&#xcb;" horiz-adv-x="315" 
d="M299 744v-131h-145v-162h114v-134h-114v-183h152v-134h-285v744h278zM275 770h-100v106h100v-106zM150 770h-100v106h100v-106z" />
    <glyph glyph-name="Igrave" unicode="&#xcc;" horiz-adv-x="175" 
d="M154 0h-133v744h133v-744zM140 770h-104l-44 115h105z" />
    <glyph glyph-name="Iacute" unicode="&#xcd;" horiz-adv-x="175" 
d="M154 0h-133v744h133v-744zM78 885h106l-45 -115h-104z" />
    <glyph glyph-name="Icircumflex" unicode="&#xce;" horiz-adv-x="175" 
d="M154 0h-133v744h133v-744zM202 768h-89l-28 47l-27 -47h-89l65 115h102z" />
    <glyph glyph-name="Idieresis" unicode="&#xcf;" horiz-adv-x="175" 
d="M154 0h-133v744h133v-744zM200 770h-100v106h100v-106zM75 770h-100v106h100v-106z" />
    <glyph glyph-name="Eth" unicode="&#xd0;" horiz-adv-x="377" 
d="M25 744h189c50 0 86.667 -12.333 110 -37s35 -65.334 35 -122.001v-420c0 -53.333 -10.667 -94.166 -32 -122.499s-59 -42.5 -113 -42.5h-189v325h-25v118h25v301zM158 124h26.001c15.333 0 25.666 4.16699 30.999 12.5s8 21.5 8 39.5v400c0 18 -2.66699 30.833 -8 38.5
s-14.333 11.5 -27 11.5h-30v-183h43v-118h-43v-201z" />
    <glyph glyph-name="Ntilde" unicode="&#xd1;" horiz-adv-x="376" 
d="M146 744l91 -380v380h118v-744h-113l-103 408v-408h-118v744h125zM195 787l-14.5 6.5c-3.66699 1.66699 -7.16699 2.5 -10.5 2.5c-5.33301 0 -8 -3.66699 -8 -11v-16h-72v34c0 25.333 5.16699 44.5 15.5 57.5s24.166 19.5 41.499 19.5c10 0 19 -1 27 -3
s17 -5.33301 27 -10c8.66699 -4 14.667 -6.66699 18 -8s6.33301 -2 9 -2c4 0 6 3.33301 6 10v16h72v-34c0 -28 -6.16699 -47.667 -18.5 -59s-25.166 -17 -38.499 -17c-8.66699 0 -17 1 -25 3s-17.667 5.66699 -29 11z" />
    <glyph glyph-name="Ograve" unicode="&#xd2;" horiz-adv-x="385" 
d="M367 170c0 -54.667 -13.8311 -98.5 -41.498 -131.5s-66.5 -49.5 -116.5 -49.5h-30c-52.667 0 -92.667 15.5 -120 46.5s-41 75.833 -41 134.5v393c0 28.667 3 54.667 9 78s15.333 43.333 28 60s29.167 29.5 49.5 38.5s44.833 13.5 73.5 13.5h30
c29.333 0 54.166 -4.5 74.499 -13.5s36.666 -21.833 48.999 -38.5s21.333 -36.5 27 -59.5s8.5 -48.833 8.5 -77.5v-394zM228.002 574c0 32.667 -11.668 49 -35.001 49c-13.333 0 -22.666 -4 -27.999 -12s-8 -20.333 -8 -37v-408c0 -11.333 2.66699 -21.5 8 -30.5
s15 -13.5 29 -13.5c13.333 0 22.333 4.5 27 13.5s7 19.167 7 30.5v408zM245.001 771h-104l-44 115h105z" />
    <glyph glyph-name="Oacute" unicode="&#xd3;" horiz-adv-x="385" 
d="M367 170c0 -54.667 -13.8311 -98.5 -41.498 -131.5s-66.5 -49.5 -116.5 -49.5h-30c-52.667 0 -92.667 15.5 -120 46.5s-41 75.833 -41 134.5v393c0 28.667 3 54.667 9 78s15.333 43.333 28 60s29.167 29.5 49.5 38.5s44.833 13.5 73.5 13.5h30
c29.333 0 54.166 -4.5 74.499 -13.5s36.666 -21.833 48.999 -38.5s21.333 -36.5 27 -59.5s8.5 -48.833 8.5 -77.5v-394zM228.002 574c0 32.667 -11.668 49 -35.001 49c-13.333 0 -22.666 -4 -27.999 -12s-8 -20.333 -8 -37v-408c0 -11.333 2.66699 -21.5 8 -30.5
s15 -13.5 29 -13.5c13.333 0 22.333 4.5 27 13.5s7 19.167 7 30.5v408zM183.001 886h106l-45 -115h-104z" />
    <glyph glyph-name="Ocircumflex" unicode="&#xd4;" horiz-adv-x="385" 
d="M367 170c0 -54.667 -13.8311 -98.5 -41.498 -131.5s-66.5 -49.5 -116.5 -49.5h-30c-52.667 0 -92.667 15.5 -120 46.5s-41 75.833 -41 134.5v393c0 28.667 3 54.667 9 78s15.333 43.333 28 60s29.167 29.5 49.5 38.5s44.833 13.5 73.5 13.5h30
c29.333 0 54.166 -4.5 74.499 -13.5s36.666 -21.833 48.999 -38.5s21.333 -36.5 27 -59.5s8.5 -48.833 8.5 -77.5v-394zM228.002 574c0 32.667 -11.668 49 -35.001 49c-13.333 0 -22.666 -4 -27.999 -12s-8 -20.333 -8 -37v-408c0 -11.333 2.66699 -21.5 8 -30.5
s15 -13.5 29 -13.5c13.333 0 22.333 4.5 27 13.5s7 19.167 7 30.5v408zM309.001 771h-89l-28 47l-27 -47h-89l65 115h102z" />
    <glyph glyph-name="Otilde" unicode="&#xd5;" horiz-adv-x="385" 
d="M367 170c0 -54.667 -13.8311 -98.5 -41.498 -131.5s-66.5 -49.5 -116.5 -49.5h-30c-52.667 0 -92.667 15.5 -120 46.5s-41 75.833 -41 134.5v393c0 28.667 3 54.667 9 78s15.333 43.333 28 60s29.167 29.5 49.5 38.5s44.833 13.5 73.5 13.5h30
c29.333 0 54.166 -4.5 74.499 -13.5s36.666 -21.833 48.999 -38.5s21.333 -36.5 27 -59.5s8.5 -48.833 8.5 -77.5v-394zM228.002 574c0 32.667 -11.668 49 -35.001 49c-13.333 0 -22.666 -4 -27.999 -12s-8 -20.333 -8 -37v-408c0 -11.333 2.66699 -21.5 8 -30.5
s15 -13.5 29 -13.5c13.333 0 22.333 4.5 27 13.5s7 19.167 7 30.5v408zM190.001 788l-14.5 6.5c-3.66699 1.66699 -7.16699 2.5 -10.5 2.5c-5.33301 0 -8 -3.66699 -8 -11v-16h-72v34c0 25.333 5.16699 44.5 15.5 57.5s24.166 19.5 41.499 19.5c10 0 19 -1 27 -3
s17 -5.33301 27 -10c8.66699 -4 14.667 -6.66699 18 -8s6.33301 -2 9 -2c4 0 6 3.33301 6 10v16h72v-34c0 -28 -6.16699 -47.667 -18.5 -59s-25.166 -17 -38.499 -17c-8.66699 0 -17 1 -25 3s-17.667 5.66699 -29 11z" />
    <glyph glyph-name="Odieresis" unicode="&#xd6;" horiz-adv-x="385" 
d="M367 170c0 -54.667 -13.8311 -98.5 -41.498 -131.5s-66.5 -49.5 -116.5 -49.5h-30c-52.667 0 -92.667 15.5 -120 46.5s-41 75.833 -41 134.5v393c0 28.667 3 54.667 9 78s15.333 43.333 28 60s29.167 29.5 49.5 38.5s44.833 13.5 73.5 13.5h30
c29.333 0 54.166 -4.5 74.499 -13.5s36.666 -21.833 48.999 -38.5s21.333 -36.5 27 -59.5s8.5 -48.833 8.5 -77.5v-394zM228.002 574c0 32.667 -11.668 49 -35.001 49c-13.333 0 -22.666 -4 -27.999 -12s-8 -20.333 -8 -37v-408c0 -11.333 2.66699 -21.5 8 -30.5
s15 -13.5 29 -13.5c13.333 0 22.333 4.5 27 13.5s7 19.167 7 30.5v408zM305.001 771h-100v106h100v-106zM180.001 771h-100v106h100v-106z" />
    <glyph glyph-name="multiply" unicode="&#xd7;" horiz-adv-x="315" 
d="M157 236l-84 -87l-63 60l85 89l-86 88l65 66l85 -88l84 88l63 -62l-86 -89l86 -87l-63 -65z" />
    <glyph glyph-name="Oslash" unicode="&#xd8;" horiz-adv-x="381" 
d="M363 170c0 -54.667 -13.832 -98.5 -41.499 -131.5s-66.5 -49.5 -116.5 -49.5h-25c-38.667 0 -70.667 11.667 -96 35l-10 -24h-74l33 82c-4.66699 12 -8.33398 25.333 -11.001 40s-4 30.667 -4 48v393c0 28.667 3 54.667 9 78s15.333 43.333 28 60s29.167 29.5 49.5 38.5
s44.833 13.5 73.5 13.5h25c38 0 69 -11 93 -33l10 24h74l-33 -83c10.667 -24 16 -56.333 16 -97v-394zM192.001 122c14.667 0 24.334 4.5 29.001 13.5s7 19.167 7 30.5v228l-75 -206v-22c0 -11.333 2.66699 -21.5 8 -30.5s15.666 -13.5 30.999 -13.5zM191.001 623
c-14 0 -23.833 -4 -29.5 -12s-8.5 -20.333 -8.5 -37v-224l75 209v15c0 32.667 -12.333 49 -37 49z" />
    <glyph glyph-name="Ugrave" unicode="&#xd9;" horiz-adv-x="379" 
d="M20 744h137v-576c0 -30.667 11 -46 33 -46c21.333 0 32 15.333 32 46v576h137v-571c0 -62 -13.667 -108.167 -41 -138.5s-65 -45.5 -113 -45.5h-33c-48.667 0 -86.167 15.167 -112.5 45.5s-39.5 76.5 -39.5 138.5v571zM243 770h-104l-44 115h105z" />
    <glyph glyph-name="Uacute" unicode="&#xda;" horiz-adv-x="379" 
d="M20 744h137v-576c0 -30.667 11 -46 33 -46c21.333 0 32 15.333 32 46v576h137v-571c0 -62 -13.667 -108.167 -41 -138.5s-65 -45.5 -113 -45.5h-33c-48.667 0 -86.167 15.167 -112.5 45.5s-39.5 76.5 -39.5 138.5v571zM179 885h106l-45 -115h-104z" />
    <glyph glyph-name="Ucircumflex" unicode="&#xdb;" horiz-adv-x="379" 
d="M20 744h137v-576c0 -30.667 11 -46 33 -46c21.333 0 32 15.333 32 46v576h137v-571c0 -62 -13.667 -108.167 -41 -138.5s-65 -45.5 -113 -45.5h-33c-48.667 0 -86.167 15.167 -112.5 45.5s-39.5 76.5 -39.5 138.5v571zM306 770h-89l-28 47l-27 -47h-89l65 115h102z" />
    <glyph glyph-name="Udieresis" unicode="&#xdc;" horiz-adv-x="379" 
d="M20 744h137v-576c0 -30.667 11 -46 33 -46c21.333 0 32 15.333 32 46v576h137v-571c0 -62 -13.667 -108.167 -41 -138.5s-65 -45.5 -113 -45.5h-33c-48.667 0 -86.167 15.167 -112.5 45.5s-39.5 76.5 -39.5 138.5v571zM302 770h-100v106h100v-106zM177 770h-100v106h100
v-106z" />
    <glyph glyph-name="Yacute" unicode="&#xdd;" horiz-adv-x="331" 
d="M237 293v-293h-133v288l-110 456h133l45 -264l45 264h120zM159 885h106l-45 -115h-104z" />
    <glyph glyph-name="Thorn" unicode="&#xde;" horiz-adv-x="366" 
d="M154 188v-188h-133v744h133v-150h69c44 0 76.667 -10.167 98 -30.5s32 -54.5 32 -102.5v-131c0 -50 -11.5 -86.167 -34.5 -108.5s-54.833 -33.5 -95.5 -33.5h-69zM154 298h31c12.667 0 21.5 3.16699 26.5 9.5s7.5 16.5 7.5 30.5v106c0 14 -2.33301 24.333 -7 31
s-14 10 -28 10h-30v-187z" />
    <glyph glyph-name="germandbls" unicode="&#xdf;" horiz-adv-x="342" 
d="M267 443c20.667 -7.33301 36.167 -18.5 46.5 -33.5s15.5 -37.5 15.5 -67.5v-212c0 -42.667 -8.5 -75 -25.5 -97s-48.5 -33 -94.5 -33h-47v119h16c12.667 0 19 8.33301 19 25v180c0 8 -1.33301 14 -4 18s-8 6 -16 6h-15v118h14c5.33301 0 9.83301 2 13.5 6
s5.5 11.333 5.5 22v110c0 8 -1.5 15 -4.5 21s-9.16699 9 -18.5 9h-6c-8 0 -13.5 -2.83301 -16.5 -8.5s-4.5 -12.5 -4.5 -20.5v-605h-127v606c0 42 10.833 75.5 32.5 100.5s56.5 37.5 104.5 37.5h27c48.667 0 83.5 -11.167 104.5 -33.5s31.5 -55.5 31.5 -99.5v-86
c0 -22.667 -5.5 -41 -16.5 -55s-22.5 -23 -34.5 -27z" />
    <glyph glyph-name="agrave" unicode="&#xe0;" 
d="M182 265c-3.33301 -2 -8.49902 -5.33203 -15.499 -9.99902s-12.833 -9.66699 -17.5 -15s-7.83398 -10.833 -9.50098 -16.5s-2.5 -13.834 -2.5 -24.501v-65c0 -10 1.5 -17.833 4.5 -23.5s8.5 -8.5 16.5 -8.5c16 0 24 10.667 24 32v131zM14.001 205.001
c0 28 4.50098 50.3369 13.501 67.0039s23.167 31 42.5 43c6 4 14 8.5 24 13.5l30.5 15l29.5 14c9.33301 4.33301 16 7.83301 20 10.5c2.66699 1.33301 4.66699 3.16602 6 5.49902s2 7.16602 2 14.499v29c0 11.333 -1.83301 19 -5.5 23s-9.16699 6 -16.5 6h-4
c-8.66699 0 -14.5 -2.5 -17.5 -7.5s-4.5 -12.167 -4.5 -21.5v-53h-114v74c0 12 1.66699 24.167 5 36.5s9.66602 23.666 18.999 33.999s22.166 18.833 38.499 25.5s37.5 10 63.5 10h23c26.667 0 48.834 -2.83301 66.501 -8.5s31.667 -13.834 42 -24.501
s17.5 -23.167 21.5 -37.5s6 -30.166 6 -47.499v-297c0 -5.33301 1.16699 -9.16602 3.5 -11.499s7.5 -3.5 15.5 -3.5h14v-114h-119c-12.667 0 -22 4.66699 -28 14s-9 25 -9 47c-3.33301 -6.66699 -7.66602 -13.834 -12.999 -21.501s-11.833 -14.834 -19.5 -21.501
s-16.334 -12.167 -26.001 -16.5s-20.5 -6.5 -32.5 -6.5h-4c-12 0 -22.667 2.66699 -32 8s-17 12.333 -23 21s-10.5 18.5 -13.5 29.5s-4.5 22.5 -4.5 34.5v117zM211.002 564.005h-102l-45 136h106z" />
    <glyph glyph-name="aacute" unicode="&#xe1;" 
d="M182 265c-3.33301 -2 -8.49902 -5.33203 -15.499 -9.99902s-12.833 -9.66699 -17.5 -15s-7.83398 -10.833 -9.50098 -16.5s-2.5 -13.834 -2.5 -24.501v-65c0 -10 1.5 -17.833 4.5 -23.5s8.5 -8.5 16.5 -8.5c16 0 24 10.667 24 32v131zM14.001 205.001
c0 28 4.50098 50.3369 13.501 67.0039s23.167 31 42.5 43c6 4 14 8.5 24 13.5l30.5 15l29.5 14c9.33301 4.33301 16 7.83301 20 10.5c2.66699 1.33301 4.66699 3.16602 6 5.49902s2 7.16602 2 14.499v29c0 11.333 -1.83301 19 -5.5 23s-9.16699 6 -16.5 6h-4
c-8.66699 0 -14.5 -2.5 -17.5 -7.5s-4.5 -12.167 -4.5 -21.5v-53h-114v74c0 12 1.66699 24.167 5 36.5s9.66602 23.666 18.999 33.999s22.166 18.833 38.499 25.5s37.5 10 63.5 10h23c26.667 0 48.834 -2.83301 66.501 -8.5s31.667 -13.834 42 -24.501
s17.5 -23.167 21.5 -37.5s6 -30.166 6 -47.499v-297c0 -5.33301 1.16699 -9.16602 3.5 -11.499s7.5 -3.5 15.5 -3.5h14v-114h-119c-12.667 0 -22 4.66699 -28 14s-9 25 -9 47c-3.33301 -6.66699 -7.66602 -13.834 -12.999 -21.501s-11.833 -14.834 -19.5 -21.501
s-16.334 -12.167 -26.001 -16.5s-20.5 -6.5 -32.5 -6.5h-4c-12 0 -22.667 2.66699 -32 8s-17 12.333 -23 21s-10.5 18.5 -13.5 29.5s-4.5 22.5 -4.5 34.5v117zM150.002 700.005h105l-44 -136h-103z" />
    <glyph glyph-name="acircumflex" unicode="&#xe2;" 
d="M182 265c-3.33301 -2 -8.49902 -5.33203 -15.499 -9.99902s-12.833 -9.66699 -17.5 -15s-7.83398 -10.833 -9.50098 -16.5s-2.5 -13.834 -2.5 -24.501v-65c0 -10 1.5 -17.833 4.5 -23.5s8.5 -8.5 16.5 -8.5c16 0 24 10.667 24 32v131zM14.001 205.001
c0 28 4.50098 50.3369 13.501 67.0039s23.167 31 42.5 43c6 4 14 8.5 24 13.5l30.5 15l29.5 14c9.33301 4.33301 16 7.83301 20 10.5c2.66699 1.33301 4.66699 3.16602 6 5.49902s2 7.16602 2 14.499v29c0 11.333 -1.83301 19 -5.5 23s-9.16699 6 -16.5 6h-4
c-8.66699 0 -14.5 -2.5 -17.5 -7.5s-4.5 -12.167 -4.5 -21.5v-53h-114v74c0 12 1.66699 24.167 5 36.5s9.66602 23.666 18.999 33.999s22.166 18.833 38.499 25.5s37.5 10 63.5 10h23c26.667 0 48.834 -2.83301 66.501 -8.5s31.667 -13.834 42 -24.501
s17.5 -23.167 21.5 -37.5s6 -30.166 6 -47.499v-297c0 -5.33301 1.16699 -9.16602 3.5 -11.499s7.5 -3.5 15.5 -3.5h14v-114h-119c-12.667 0 -22 4.66699 -28 14s-9 25 -9 47c-3.33301 -6.66699 -7.66602 -13.834 -12.999 -21.501s-11.833 -14.834 -19.5 -21.501
s-16.334 -12.167 -26.001 -16.5s-20.5 -6.5 -32.5 -6.5h-4c-12 0 -22.667 2.66699 -32 8s-17 12.333 -23 21s-10.5 18.5 -13.5 29.5s-4.5 22.5 -4.5 34.5v117zM276.002 564.005h-91l-24 62l-25 -62h-89l61 136h106z" />
    <glyph glyph-name="atilde" unicode="&#xe3;" 
d="M182 265c-3.33301 -2 -8.49902 -5.33203 -15.499 -9.99902s-12.833 -9.66699 -17.5 -15s-7.83398 -10.833 -9.50098 -16.5s-2.5 -13.834 -2.5 -24.501v-65c0 -10 1.5 -17.833 4.5 -23.5s8.5 -8.5 16.5 -8.5c16 0 24 10.667 24 32v131zM14.001 205.001
c0 28 4.50098 50.3369 13.501 67.0039s23.167 31 42.5 43c6 4 14 8.5 24 13.5l30.5 15l29.5 14c9.33301 4.33301 16 7.83301 20 10.5c2.66699 1.33301 4.66699 3.16602 6 5.49902s2 7.16602 2 14.499v29c0 11.333 -1.83301 19 -5.5 23s-9.16699 6 -16.5 6h-4
c-8.66699 0 -14.5 -2.5 -17.5 -7.5s-4.5 -12.167 -4.5 -21.5v-53h-114v74c0 12 1.66699 24.167 5 36.5s9.66602 23.666 18.999 33.999s22.166 18.833 38.499 25.5s37.5 10 63.5 10h23c26.667 0 48.834 -2.83301 66.501 -8.5s31.667 -13.834 42 -24.501
s17.5 -23.167 21.5 -37.5s6 -30.166 6 -47.499v-297c0 -5.33301 1.16699 -9.16602 3.5 -11.499s7.5 -3.5 15.5 -3.5h14v-114h-119c-12.667 0 -22 4.66699 -28 14s-9 25 -9 47c-3.33301 -6.66699 -7.66602 -13.834 -12.999 -21.501s-11.833 -14.834 -19.5 -21.501
s-16.334 -12.167 -26.001 -16.5s-20.5 -6.5 -32.5 -6.5h-4c-12 0 -22.667 2.66699 -32 8s-17 12.333 -23 21s-10.5 18.5 -13.5 29.5s-4.5 22.5 -4.5 34.5v117zM266.002 678.005l0.00195312 -56c0 -16.667 -4.83301 -30.667 -14.5 -42s-22.834 -17 -39.501 -17
c-11.333 0 -20.666 1.33301 -27.999 4s-18 7.66699 -32 15c-7.33301 3.33301 -12.333 5.66602 -15 6.99902s-5.33398 2 -8.00098 2c-3.33301 0 -5.33301 -1.16699 -6 -3.5s-1 -5.16602 -1 -8.49902v-16h-72v47c0 20 4.83301 36.333 14.5 49s23.167 19 40.5 19
c11.333 0 20.666 -1.5 27.999 -4.5s17.666 -7.5 30.999 -13.5c7.33301 -3.33301 12.333 -5.5 15 -6.5s5.33398 -1.5 8.00098 -1.5c4 0 6 3.33301 6 10v16h73z" />
    <glyph glyph-name="adieresis" unicode="&#xe4;" 
d="M182 265c-3.33301 -2 -8.49902 -5.33203 -15.499 -9.99902s-12.833 -9.66699 -17.5 -15s-7.83398 -10.833 -9.50098 -16.5s-2.5 -13.834 -2.5 -24.501v-65c0 -10 1.5 -17.833 4.5 -23.5s8.5 -8.5 16.5 -8.5c16 0 24 10.667 24 32v131zM14.001 205.001
c0 28 4.50098 50.3369 13.501 67.0039s23.167 31 42.5 43c6 4 14 8.5 24 13.5l30.5 15l29.5 14c9.33301 4.33301 16 7.83301 20 10.5c2.66699 1.33301 4.66699 3.16602 6 5.49902s2 7.16602 2 14.499v29c0 11.333 -1.83301 19 -5.5 23s-9.16699 6 -16.5 6h-4
c-8.66699 0 -14.5 -2.5 -17.5 -7.5s-4.5 -12.167 -4.5 -21.5v-53h-114v74c0 12 1.66699 24.167 5 36.5s9.66602 23.666 18.999 33.999s22.166 18.833 38.499 25.5s37.5 10 63.5 10h23c26.667 0 48.834 -2.83301 66.501 -8.5s31.667 -13.834 42 -24.501
s17.5 -23.167 21.5 -37.5s6 -30.166 6 -47.499v-297c0 -5.33301 1.16699 -9.16602 3.5 -11.499s7.5 -3.5 15.5 -3.5h14v-114h-119c-12.667 0 -22 4.66699 -28 14s-9 25 -9 47c-3.33301 -6.66699 -7.66602 -13.834 -12.999 -21.501s-11.833 -14.834 -19.5 -21.501
s-16.334 -12.167 -26.001 -16.5s-20.5 -6.5 -32.5 -6.5h-4c-12 0 -22.667 2.66699 -32 8s-17 12.333 -23 21s-10.5 18.5 -13.5 29.5s-4.5 22.5 -4.5 34.5v117zM146.002 564.005h-100v106h100v-106zM270.002 564.005h-100v106h100v-106z" />
    <glyph glyph-name="aring" unicode="&#xe5;" 
d="M182 265c-3.33301 -2 -8.49902 -5.33203 -15.499 -9.99902s-12.833 -9.66699 -17.5 -15s-7.83398 -10.833 -9.50098 -16.5s-2.5 -13.834 -2.5 -24.501v-65c0 -10 1.5 -17.833 4.5 -23.5s8.5 -8.5 16.5 -8.5c16 0 24 10.667 24 32v131zM14.001 205.001
c0 28 4.50098 50.3369 13.501 67.0039s23.167 31 42.5 43c6 4 14 8.5 24 13.5l30.5 15l29.5 14c9.33301 4.33301 16 7.83301 20 10.5c2.66699 1.33301 4.66699 3.16602 6 5.49902s2 7.16602 2 14.499v29c0 11.333 -1.83301 19 -5.5 23s-9.16699 6 -16.5 6h-4
c-8.66699 0 -14.5 -2.5 -17.5 -7.5s-4.5 -12.167 -4.5 -21.5v-53h-114v74c0 12 1.66699 24.167 5 36.5s9.66602 23.666 18.999 33.999s22.166 18.833 38.499 25.5s37.5 10 63.5 10h23c26.667 0 48.834 -2.83301 66.501 -8.5s31.667 -13.834 42 -24.501
s17.5 -23.167 21.5 -37.5s6 -30.166 6 -47.499v-297c0 -5.33301 1.16699 -9.16602 3.5 -11.499s7.5 -3.5 15.5 -3.5h14v-114h-119c-12.667 0 -22 4.66699 -28 14s-9 25 -9 47c-3.33301 -6.66699 -7.66602 -13.834 -12.999 -21.501s-11.833 -14.834 -19.5 -21.501
s-16.334 -12.167 -26.001 -16.5s-20.5 -6.5 -32.5 -6.5h-4c-12 0 -22.667 2.66699 -32 8s-17 12.333 -23 21s-10.5 18.5 -13.5 29.5s-4.5 22.5 -4.5 34.5v117zM157.002 608.005c10 0 17.833 3.16699 23.5 9.5s8.5 14.166 8.5 23.499s-2.83301 17.166 -8.5 23.499
s-13.5 9.5 -23.5 9.5s-17.833 -3.16699 -23.5 -9.5s-8.5 -14.166 -8.5 -23.499s2.83301 -17.166 8.5 -23.499s13.5 -9.5 23.5 -9.5zM157.002 562.005c-23.333 0 -42.5 7.33301 -57.5 22s-22.5 33.667 -22.5 57s7.5 42.333 22.5 57s34.167 22 57.5 22s42.5 -7.33301 57.5 -22
s22.5 -33.667 22.5 -57s-7.5 -42.333 -22.5 -57s-34.167 -22 -57.5 -22z" />
    <glyph glyph-name="ae" unicode="&#xe6;" horiz-adv-x="489" 
d="M193 63c-10.667 -18 -24.3242 -33.832 -40.9912 -47.499s-36.667 -20.5 -60 -20.5h-4c-12.667 0 -23.667 2.66699 -33 8s-17 12.333 -23 21s-10.5 18.5 -13.5 29.5s-4.5 22.5 -4.5 34.5v98c0 28 4.5 50.333 13.5 67s23.167 31 42.5 43c6 4 14 8.5 24 13.5l30.5 15
l29.5 14c9.33301 4.33301 16 7.83301 20 10.5c2.66699 1.33301 4.66699 3.16602 6 5.49902s2 7.16602 2 14.499v48c0 11.333 -1.83301 19 -5.5 23s-9.16699 6 -16.5 6h-4c-8.66699 0 -14.5 -2.5 -17.5 -7.5s-4.5 -12.167 -4.5 -21.5v-72h-114v93c0 12 1.66699 24.167 5 36.5
s9.66602 23.666 18.999 33.999s22.166 18.833 38.499 25.5s37.5 10 63.5 10h23c25.333 0 43.666 -3.16699 54.999 -9.5s19.666 -12.166 24.999 -17.499c4 5.33301 12.167 11.833 24.5 19.5s30.833 11.5 55.5 11.5h15c42 0 74.5 -11.167 97.5 -33.5
s34.5 -60.166 34.5 -113.499v-150h-171v-117c0 -11.333 1.66699 -19.5 5 -24.5s9.66602 -7.5 18.999 -7.5c10 0 16.667 3 20 9s5 13.667 5 23v80h122v-90c0 -40.667 -11.333 -73.167 -34 -97.5s-57 -36.5 -103 -36.5h-21c-20.667 0 -38.334 2.33301 -53.001 7
s-26.834 10.5 -36.501 17.5s-17.334 14.833 -23.001 23.5s-9.83398 17 -12.501 25zM182.01 246.001c-3.33301 -2 -8.49902 -5.33203 -15.499 -9.99902s-12.833 -9.66699 -17.5 -15s-7.83398 -10.833 -9.50098 -16.5s-2.5 -13.834 -2.5 -24.501v-46
c0 -10 1.5 -17.833 4.5 -23.5s8.5 -8.5 16.5 -8.5c16 0 24 10.667 24 32v112zM305.011 347.002h52v69c0 9.33301 -1.83301 17 -5.5 23s-10.5 9 -20.5 9c-17.333 0 -26 -10.333 -26 -31v-70z" />
    <glyph glyph-name="ccedilla" unicode="&#xe7;" horiz-adv-x="322" 
d="M309 241l0.000976562 -115.999c0 -18.667 -2.5 -36.167 -7.5 -52.5s-12.833 -30.666 -23.5 -42.999s-24.334 -22.166 -41.001 -29.499s-36.667 -11 -60 -11h-21c-50 0 -86 13.333 -108 40s-33 60 -33 100v271c0 44.667 10.833 80.5 32.5 107.5s57.167 40.5 106.5 40.5h25
c24.667 0 45.334 -3.33301 62.001 -10s30 -15.834 40 -27.501s17.167 -25.334 21.5 -41.001s6.5 -32.834 6.5 -51.501v-89h-118v76c0 11.333 -1.5 20.5 -4.5 27.5s-9.5 10.5 -19.5 10.5c-9.33301 0 -15.5 -3.16699 -18.5 -9.5s-4.5 -15.5 -4.5 -27.5v-271
c0 -10 1.33301 -18 4 -24s8.66699 -9 18 -9s15.666 2.83301 18.999 8.5s5 13.167 5 22.5v108h119zM158.001 -187.999h-61v63h50c14.667 0 22 5.66699 22 17v1c0 10 -7.33301 15 -22 15h-35v92h60v-36h3c52.667 -2 79 -26 79 -72v-3c0 -26 -9 -45.333 -27 -58
s-41 -19 -69 -19z" />
    <glyph glyph-name="egrave" unicode="&#xe8;" horiz-adv-x="323" 
d="M174 548c90 0 135 -45.6641 135 -136.997v-159h-171v-117c0 -10.667 1.83301 -18.834 5.5 -24.501s10.167 -8.5 19.5 -8.5c8.66699 0 14.667 3 18 9s5 14 5 24v80h123v-98c0 -42 -13 -73.667 -39 -95s-58 -32 -96 -32h-24c-40 0 -72.5 10.667 -97.5 32s-37.5 53 -37.5 95
v296c0 18 2.5 35.167 7.5 51.5s12.833 30.666 23.5 42.999s24.667 22.166 42 29.499s38 11 62 11h24zM138 348.003h52v65c0 11.333 -1.66699 20.166 -5 26.499s-10.333 9.5 -21 9.5c-11.333 0 -18.5 -3.16699 -21.5 -9.5s-4.5 -15.166 -4.5 -26.499v-65zM213 566.003h-102
l-45 136h106z" />
    <glyph glyph-name="eacute" unicode="&#xe9;" horiz-adv-x="323" 
d="M174 548c90 0 135 -45.6641 135 -136.997v-159h-171v-117c0 -10.667 1.83301 -18.834 5.5 -24.501s10.167 -8.5 19.5 -8.5c8.66699 0 14.667 3 18 9s5 14 5 24v80h123v-98c0 -42 -13 -73.667 -39 -95s-58 -32 -96 -32h-24c-40 0 -72.5 10.667 -97.5 32s-37.5 53 -37.5 95
v296c0 18 2.5 35.167 7.5 51.5s12.833 30.666 23.5 42.999s24.667 22.166 42 29.499s38 11 62 11h24zM138 348.003h52v65c0 11.333 -1.66699 20.166 -5 26.499s-10.333 9.5 -21 9.5c-11.333 0 -18.5 -3.16699 -21.5 -9.5s-4.5 -15.166 -4.5 -26.499v-65zM153 702.003h105
l-44 -136h-103z" />
    <glyph glyph-name="ecircumflex" unicode="&#xea;" horiz-adv-x="323" 
d="M174 548c90 0 135 -45.6641 135 -136.997v-159h-171v-117c0 -10.667 1.83301 -18.834 5.5 -24.501s10.167 -8.5 19.5 -8.5c8.66699 0 14.667 3 18 9s5 14 5 24v80h123v-98c0 -42 -13 -73.667 -39 -95s-58 -32 -96 -32h-24c-40 0 -72.5 10.667 -97.5 32s-37.5 53 -37.5 95
v296c0 18 2.5 35.167 7.5 51.5s12.833 30.666 23.5 42.999s24.667 22.166 42 29.499s38 11 62 11h24zM138 348.003h52v65c0 11.333 -1.66699 20.166 -5 26.499s-10.333 9.5 -21 9.5c-11.333 0 -18.5 -3.16699 -21.5 -9.5s-4.5 -15.166 -4.5 -26.499v-65zM278 566.003h-91
l-24 62l-25 -62h-89l61 136h106z" />
    <glyph glyph-name="edieresis" unicode="&#xeb;" horiz-adv-x="323" 
d="M174 548c90 0 135 -45.6641 135 -136.997v-159h-171v-117c0 -10.667 1.83301 -18.834 5.5 -24.501s10.167 -8.5 19.5 -8.5c8.66699 0 14.667 3 18 9s5 14 5 24v80h123v-98c0 -42 -13 -73.667 -39 -95s-58 -32 -96 -32h-24c-40 0 -72.5 10.667 -97.5 32s-37.5 53 -37.5 95
v296c0 18 2.5 35.167 7.5 51.5s12.833 30.666 23.5 42.999s24.667 22.166 42 29.499s38 11 62 11h24zM138 348.003h52v65c0 11.333 -1.66699 20.166 -5 26.499s-10.333 9.5 -21 9.5c-11.333 0 -18.5 -3.16699 -21.5 -9.5s-4.5 -15.166 -4.5 -26.499v-65zM151 566.003h-100
v106h100v-106zM275 566.003h-100v106h100v-106z" />
    <glyph glyph-name="igrave" unicode="&#xec;" horiz-adv-x="164" 
d="M146 0h-128v538h128v-538zM134 564h-102l-45 136h106z" />
    <glyph glyph-name="iacute" unicode="&#xed;" horiz-adv-x="164" 
d="M146 0h-128v538h128v-538zM73 700h105l-44 -136h-103z" />
    <glyph glyph-name="icircumflex" unicode="&#xee;" horiz-adv-x="164" 
d="M187 564h-86l-19 66l-20 -66h-85l52 136h106zM146 0h-128v538h128v-538z" />
    <glyph glyph-name="idieresis" unicode="&#xef;" horiz-adv-x="164" 
d="M71 564h-93v106h93v-106zM186 564h-93v106h93v-106zM146 0h-128v538h128v-538z" />
    <glyph glyph-name="eth" unicode="&#xf0;" horiz-adv-x="341" 
d="M57 635l57.999 25.998l-41 83h118l20 -39l73 33v-86l-38 -17l35 -68c8.66699 -16.667 15.834 -31.667 21.501 -45s10.167 -26.5 13.5 -39.5s5.66602 -26.5 6.99902 -40.5s2 -30.333 2 -49v-249c0 -22 -3.16699 -42.333 -9.5 -61s-15.5 -35 -27.5 -49
s-26.667 -24.833 -44 -32.5s-37 -11.5 -59 -11.5h-32c-24 0 -44.833 3.83301 -62.5 11.5s-32.167 18.334 -43.5 32.001s-19.666 29.834 -24.999 48.501s-8 38.667 -8 60v287c0 34 8.5 61 25.5 81s36.833 30 59.5 30h2c21.333 0 40 -5.66699 56 -17s31.667 -26 47 -44
l-56 112l-92 -42v86zM196.999 399.998c0 11.333 -1.83105 20.333 -5.49805 27s-10.834 10 -21.501 10c-10 0 -16.833 -3.33301 -20.5 -10s-5.5 -15.667 -5.5 -27v-256c0 -10.667 1.66699 -19.667 5 -27s10.333 -11 21 -11c11.333 0 18.666 3.83301 21.999 11.5
s5 16.5 5 26.5v256z" />
    <glyph glyph-name="ntilde" unicode="&#xf1;" horiz-adv-x="344" 
d="M18 538l127 -0.000976562v-65c12 18 25.667 33.667 41 47s34 20 56 20h7c14.667 0 27 -3.16699 37 -9.5s18 -14 24 -23s10.167 -18.833 12.5 -29.5s3.5 -20 3.5 -28v-450h-129v396c0 9.33301 -1.66699 17 -5 23s-10 9 -20 9c-10.667 0 -17.667 -3.16699 -21 -9.5
s-5 -15.166 -5 -26.499v-392h-128v538zM280 677.999l0.00195312 -56c0 -16.667 -4.83301 -30.667 -14.5 -42s-22.834 -17 -39.501 -17c-11.333 0 -20.666 1.33301 -27.999 4s-18 7.66699 -32 15c-7.33301 3.33301 -12.333 5.66602 -15 6.99902s-5.33398 2 -8.00098 2
c-3.33301 0 -5.33301 -1.16699 -6 -3.5s-1 -5.16602 -1 -8.49902v-16h-72v47c0 20 4.83301 36.333 14.5 49s23.167 19 40.5 19c11.333 0 20.666 -1.5 27.999 -4.5s17.666 -7.5 30.999 -13.5c7.33301 -3.33301 12.333 -5.5 15 -6.5s5.33398 -1.5 8.00098 -1.5
c4 0 6 3.33301 6 10v16h73z" />
    <glyph glyph-name="ograve" unicode="&#xf2;" horiz-adv-x="341" 
d="M15 142l-0.00195312 254.998c0 48.667 12.333 86 37 112s59 39 103 39h30c44 0 78.5 -12.833 103.5 -38.5s37.5 -62.5 37.5 -110.5v-255c0 -22 -3.16699 -42.333 -9.5 -61s-15.666 -35 -27.999 -49s-27.166 -24.833 -44.499 -32.5s-37 -11.5 -59 -11.5h-30
c-24.667 0 -45.834 3.83301 -63.501 11.5s-32.167 18.334 -43.5 32.001s-19.666 29.834 -24.999 48.501s-8 38.667 -8 60zM143.998 399.998l0.00195312 -256c0 -10.667 1.66699 -19.667 5 -27s10.333 -11 21 -11c11.333 0 18.666 3.83301 21.999 11.5s5 16.5 5 26.5v256
c0 11.333 -1.83301 20.333 -5.5 27s-10.834 10 -21.501 10c-10 0 -16.833 -3.33301 -20.5 -10s-5.5 -15.667 -5.5 -27zM221 565.998h-102l-45 136h106z" />
    <glyph glyph-name="oacute" unicode="&#xf3;" horiz-adv-x="341" 
d="M15 142l-0.00195312 254.998c0 48.667 12.333 86 37 112s59 39 103 39h30c44 0 78.5 -12.833 103.5 -38.5s37.5 -62.5 37.5 -110.5v-255c0 -22 -3.16699 -42.333 -9.5 -61s-15.666 -35 -27.999 -49s-27.166 -24.833 -44.499 -32.5s-37 -11.5 -59 -11.5h-30
c-24.667 0 -45.834 3.83301 -63.501 11.5s-32.167 18.334 -43.5 32.001s-19.666 29.834 -24.999 48.501s-8 38.667 -8 60zM143.998 399.998l0.00195312 -256c0 -10.667 1.66699 -19.667 5 -27s10.333 -11 21 -11c11.333 0 18.666 3.83301 21.999 11.5s5 16.5 5 26.5v256
c0 11.333 -1.83301 20.333 -5.5 27s-10.834 10 -21.501 10c-10 0 -16.833 -3.33301 -20.5 -10s-5.5 -15.667 -5.5 -27zM161 701.998h105l-44 -136h-103z" />
    <glyph glyph-name="ocircumflex" unicode="&#xf4;" horiz-adv-x="341" 
d="M15 142l-0.00195312 254.998c0 48.667 12.333 86 37 112s59 39 103 39h30c44 0 78.5 -12.833 103.5 -38.5s37.5 -62.5 37.5 -110.5v-255c0 -22 -3.16699 -42.333 -9.5 -61s-15.666 -35 -27.999 -49s-27.166 -24.833 -44.499 -32.5s-37 -11.5 -59 -11.5h-30
c-24.667 0 -45.834 3.83301 -63.501 11.5s-32.167 18.334 -43.5 32.001s-19.666 29.834 -24.999 48.501s-8 38.667 -8 60zM143.998 399.998l0.00195312 -256c0 -10.667 1.66699 -19.667 5 -27s10.333 -11 21 -11c11.333 0 18.666 3.83301 21.999 11.5s5 16.5 5 26.5v256
c0 11.333 -1.83301 20.333 -5.5 27s-10.834 10 -21.501 10c-10 0 -16.833 -3.33301 -20.5 -10s-5.5 -15.667 -5.5 -27zM285 565.998h-91l-24 62l-25 -62h-89l61 136h106z" />
    <glyph glyph-name="otilde" unicode="&#xf5;" horiz-adv-x="341" 
d="M15 142l-0.00195312 254.998c0 48.667 12.333 86 37 112s59 39 103 39h30c44 0 78.5 -12.833 103.5 -38.5s37.5 -62.5 37.5 -110.5v-255c0 -22 -3.16699 -42.333 -9.5 -61s-15.666 -35 -27.999 -49s-27.166 -24.833 -44.499 -32.5s-37 -11.5 -59 -11.5h-30
c-24.667 0 -45.834 3.83301 -63.501 11.5s-32.167 18.334 -43.5 32.001s-19.666 29.834 -24.999 48.501s-8 38.667 -8 60zM143.998 399.998l0.00195312 -256c0 -10.667 1.66699 -19.667 5 -27s10.333 -11 21 -11c11.333 0 18.666 3.83301 21.999 11.5s5 16.5 5 26.5v256
c0 11.333 -1.83301 20.333 -5.5 27s-10.834 10 -21.501 10c-10 0 -16.833 -3.33301 -20.5 -10s-5.5 -15.667 -5.5 -27zM278 679.998l0.00195312 -56c0 -16.667 -4.83301 -30.667 -14.5 -42s-22.834 -17 -39.501 -17c-11.333 0 -20.666 1.33301 -27.999 4s-18 7.66699 -32 15
c-7.33301 3.33301 -12.333 5.66602 -15 6.99902s-5.33398 2 -8.00098 2c-3.33301 0 -5.33301 -1.16699 -6 -3.5s-1 -5.16602 -1 -8.49902v-16h-72v47c0 20 4.83301 36.333 14.5 49s23.167 19 40.5 19c11.333 0 20.666 -1.5 27.999 -4.5s17.666 -7.5 30.999 -13.5
c7.33301 -3.33301 12.333 -5.5 15 -6.5s5.33398 -1.5 8.00098 -1.5c4 0 6 3.33301 6 10v16h73z" />
    <glyph glyph-name="odieresis" unicode="&#xf6;" horiz-adv-x="341" 
d="M15 142l-0.00195312 254.998c0 48.667 12.333 86 37 112s59 39 103 39h30c44 0 78.5 -12.833 103.5 -38.5s37.5 -62.5 37.5 -110.5v-255c0 -22 -3.16699 -42.333 -9.5 -61s-15.666 -35 -27.999 -49s-27.166 -24.833 -44.499 -32.5s-37 -11.5 -59 -11.5h-30
c-24.667 0 -45.834 3.83301 -63.501 11.5s-32.167 18.334 -43.5 32.001s-19.666 29.834 -24.999 48.501s-8 38.667 -8 60zM143.998 399.998l0.00195312 -256c0 -10.667 1.66699 -19.667 5 -27s10.333 -11 21 -11c11.333 0 18.666 3.83301 21.999 11.5s5 16.5 5 26.5v256
c0 11.333 -1.83301 20.333 -5.5 27s-10.834 10 -21.501 10c-10 0 -16.833 -3.33301 -20.5 -10s-5.5 -15.667 -5.5 -27zM159 565.998h-100v106h100v-106zM283 565.998h-100v106h100v-106z" />
    <glyph glyph-name="divide" unicode="&#xf7;" horiz-adv-x="343" 
d="M328 346v-91h-313v91h313zM223 375h-103v103h103v-103zM223 120h-103v103h103v-103z" />
    <glyph glyph-name="oslash" unicode="&#xf8;" horiz-adv-x="336" 
d="M15 142v255c0 48.667 12.333 86 37 112s59 39 103 39h26c19.333 0 36 -2.66699 50 -8s26.333 -12.333 37 -21l10 19h66l-35 -69c3.33301 -9.33301 6.16602 -20 8.49902 -32s3.5 -24.667 3.5 -38v-255c0 -22 -3.16699 -42.333 -9.5 -61s-15.5 -35 -27.5 -49
s-26.667 -24.833 -44 -32.5s-37 -11.5 -59 -11.5h-26c-18.667 0 -35.167 3 -49.5 9s-26.166 13 -35.499 21l-10 -20h-67l36 70c-5.33301 10.667 -9 22 -11 34s-3 24.667 -3 38zM196 401c0 11.333 -1.83301 20.333 -5.5 27s-11.167 10 -22.5 10
c-10.667 0 -18 -3.33301 -22 -10s-6 -15.667 -6 -27v-137l56 123v14zM168 105c11.333 0 18.833 3.83301 22.5 11.5s5.5 16.5 5.5 26.5v129l-56 -121v-8c0 -10.667 1.83301 -19.667 5.5 -27s11.167 -11 22.5 -11z" />
    <glyph glyph-name="ugrave" unicode="&#xf9;" 
d="M321 0l-123.998 -0.00195312v66c-12 -18 -25.333 -33.833 -40 -47.5s-33.667 -20.5 -57 -20.5h-4c-12.667 0 -23.834 2.83301 -33.501 8.5s-17.834 13 -24.501 22s-11.667 19 -15 30s-5 21.833 -5 32.5v447h129v-395c0 -9.33301 1.5 -17.166 4.5 -23.499
s8.83301 -9.5 17.5 -9.5c10 0 16.667 3.33301 20 10s5 15.334 5 26.001v392h127v-538zM224.002 563.998h-102l-45 136h106z" />
    <glyph glyph-name="uacute" unicode="&#xfa;" 
d="M321 0l-123.998 -0.00195312v66c-12 -18 -25.333 -33.833 -40 -47.5s-33.667 -20.5 -57 -20.5h-4c-12.667 0 -23.834 2.83301 -33.501 8.5s-17.834 13 -24.501 22s-11.667 19 -15 30s-5 21.833 -5 32.5v447h129v-395c0 -9.33301 1.5 -17.166 4.5 -23.499
s8.83301 -9.5 17.5 -9.5c10 0 16.667 3.33301 20 10s5 15.334 5 26.001v392h127v-538zM161.002 699.998h105l-44 -136h-103z" />
    <glyph glyph-name="ucircumflex" unicode="&#xfb;" 
d="M321 0l-123.998 -0.00195312v66c-12 -18 -25.333 -33.833 -40 -47.5s-33.667 -20.5 -57 -20.5h-4c-12.667 0 -23.834 2.83301 -33.501 8.5s-17.834 13 -24.501 22s-11.667 19 -15 30s-5 21.833 -5 32.5v447h129v-395c0 -9.33301 1.5 -17.166 4.5 -23.499
s8.83301 -9.5 17.5 -9.5c10 0 16.667 3.33301 20 10s5 15.334 5 26.001v392h127v-538zM284.002 563.998h-91l-24 62l-25 -62h-89l61 136h106z" />
    <glyph glyph-name="udieresis" unicode="&#xfc;" 
d="M321 0l-123.998 -0.00195312v66c-12 -18 -25.333 -33.833 -40 -47.5s-33.667 -20.5 -57 -20.5h-4c-12.667 0 -23.834 2.83301 -33.501 8.5s-17.834 13 -24.501 22s-11.667 19 -15 30s-5 21.833 -5 32.5v447h129v-395c0 -9.33301 1.5 -17.166 4.5 -23.499
s8.83301 -9.5 17.5 -9.5c10 0 16.667 3.33301 20 10s5 15.334 5 26.001v392h127v-538zM158.002 563.998h-100v106h100v-106zM282.002 563.998h-100v106h100v-106z" />
    <glyph glyph-name="yacute" unicode="&#xfd;" horiz-adv-x="315" 
d="M-2 538l125.999 0.000976562l36 -297l35 297h123l-113 -645c-5.33301 -28 -14.166 -48.5 -26.499 -61.5s-28.166 -19.5 -47.499 -19.5h-116v119h53c8.66699 0 14.167 2.16699 16.5 6.5s4.16602 11.166 5.49902 20.499l2 21c0.666992 5.33301 1 9.83301 1 13.5
s-0.666992 9.16699 -2 16.5zM146.999 700.001h105l-44 -136h-103z" />
    <glyph glyph-name="thorn" unicode="&#xfe;" horiz-adv-x="344" 
d="M146 744v-266.001c9.33301 16.667 21.833 31.834 37.5 45.501s35.5 20.5 59.5 20.5h2c28 0 48.667 -10.667 62 -32s20 -49 20 -83v-321c0 -36 -9 -64.833 -27 -86.5s-39 -32.5 -63 -32.5h-2c-20 0 -37.167 5.66699 -51.5 17s-26.833 25 -37.5 41v-235h-128v932h128z
M146 129.999c0 -24 8.33301 -36 25 -36c9.33301 0 15.833 3.16699 19.5 9.5s5.5 14.833 5.5 25.5v273c0 10.667 -1.83301 19 -5.5 25s-10.167 9 -19.5 9s-15.833 -3.16699 -19.5 -9.5s-5.5 -14.5 -5.5 -24.5v-272z" />
    <glyph glyph-name="ydieresis" unicode="&#xff;" horiz-adv-x="315" 
d="M-2 538l125.999 0.000976562l36 -297l35 297h123l-113 -645c-5.33301 -28 -14.166 -48.5 -26.499 -61.5s-28.166 -19.5 -47.499 -19.5h-116v119h53c8.66699 0 14.167 2.16699 16.5 6.5s4.16602 11.166 5.49902 20.499l2 21c0.666992 5.33301 1 9.83301 1 13.5
s-0.666992 9.16699 -2 16.5zM146.999 564.001h-100v106h100v-106zM270.999 564.001h-100v106h100v-106z" />
    <glyph glyph-name="Amacron" unicode="&#x100;" horiz-adv-x="349" 
d="M208 125h-80l-12 -125h-118l94 744h158l101 -744h-129zM141 253h54l-28 255zM74 865h193v-88h-193v88z" />
    <glyph glyph-name="amacron" unicode="&#x101;" 
d="M182 265c-3.33301 -2 -8.49902 -5.33203 -15.499 -9.99902s-12.833 -9.66699 -17.5 -15s-7.83398 -10.833 -9.50098 -16.5s-2.5 -13.834 -2.5 -24.501v-65c0 -10 1.5 -17.833 4.5 -23.5s8.5 -8.5 16.5 -8.5c16 0 24 10.667 24 32v131zM14.001 205.001
c0 28 4.50098 50.3369 13.501 67.0039s23.167 31 42.5 43c6 4 14 8.5 24 13.5l30.5 15l29.5 14c9.33301 4.33301 16 7.83301 20 10.5c2.66699 1.33301 4.66699 3.16602 6 5.49902s2 7.16602 2 14.499v29c0 11.333 -1.83301 19 -5.5 23s-9.16699 6 -16.5 6h-4
c-8.66699 0 -14.5 -2.5 -17.5 -7.5s-4.5 -12.167 -4.5 -21.5v-53h-114v74c0 12 1.66699 24.167 5 36.5s9.66602 23.666 18.999 33.999s22.166 18.833 38.499 25.5s37.5 10 63.5 10h23c26.667 0 48.834 -2.83301 66.501 -8.5s31.667 -13.834 42 -24.501
s17.5 -23.167 21.5 -37.5s6 -30.166 6 -47.499v-297c0 -5.33301 1.16699 -9.16602 3.5 -11.499s7.5 -3.5 15.5 -3.5h14v-114h-119c-12.667 0 -22 4.66699 -28 14s-9 25 -9 47c-3.33301 -6.66699 -7.66602 -13.834 -12.999 -21.501s-11.833 -14.834 -19.5 -21.501
s-16.334 -12.167 -26.001 -16.5s-20.5 -6.5 -32.5 -6.5h-4c-12 0 -22.667 2.66699 -32 8s-17 12.333 -23 21s-10.5 18.5 -13.5 29.5s-4.5 22.5 -4.5 34.5v117zM63.002 663.005h191v-87h-191v87z" />
    <glyph glyph-name="Abreve" unicode="&#x102;" horiz-adv-x="349" 
d="M208 125h-80l-12 -125h-118l94 744h158l101 -744h-129zM141 253h54l-28 255zM172 767h-4c-30.667 0 -56.167 9.16699 -76.5 27.5s-30.5 43.5 -30.5 75.5v5h85v-3c0 -7.33301 2 -13.5 6 -18.5s9.66699 -7.5 17 -7.5h2c7.33301 0 13 2.5 17 7.5s6 11.167 6 18.5v3h84v-5
c0 -32 -10.5 -57.167 -31.5 -75.5s-45.833 -27.5 -74.5 -27.5z" />
    <glyph glyph-name="abreve" unicode="&#x103;" 
d="M182 265c-3.33301 -2 -8.49902 -5.33203 -15.499 -9.99902s-12.833 -9.66699 -17.5 -15s-7.83398 -10.833 -9.50098 -16.5s-2.5 -13.834 -2.5 -24.501v-65c0 -10 1.5 -17.833 4.5 -23.5s8.5 -8.5 16.5 -8.5c16 0 24 10.667 24 32v131zM14.001 205.001
c0 28 4.50098 50.3369 13.501 67.0039s23.167 31 42.5 43c6 4 14 8.5 24 13.5l30.5 15l29.5 14c9.33301 4.33301 16 7.83301 20 10.5c2.66699 1.33301 4.66699 3.16602 6 5.49902s2 7.16602 2 14.499v29c0 11.333 -1.83301 19 -5.5 23s-9.16699 6 -16.5 6h-4
c-8.66699 0 -14.5 -2.5 -17.5 -7.5s-4.5 -12.167 -4.5 -21.5v-53h-114v74c0 12 1.66699 24.167 5 36.5s9.66602 23.666 18.999 33.999s22.166 18.833 38.499 25.5s37.5 10 63.5 10h23c26.667 0 48.834 -2.83301 66.501 -8.5s31.667 -13.834 42 -24.501
s17.5 -23.167 21.5 -37.5s6 -30.166 6 -47.499v-297c0 -5.33301 1.16699 -9.16602 3.5 -11.499s7.5 -3.5 15.5 -3.5h14v-114h-119c-12.667 0 -22 4.66699 -28 14s-9 25 -9 47c-3.33301 -6.66699 -7.66602 -13.834 -12.999 -21.501s-11.833 -14.834 -19.5 -21.501
s-16.334 -12.167 -26.001 -16.5s-20.5 -6.5 -32.5 -6.5h-4c-12 0 -22.667 2.66699 -32 8s-17 12.333 -23 21s-10.5 18.5 -13.5 29.5s-4.5 22.5 -4.5 34.5v117zM154.002 563.005h-3c-32 0 -58 9.16699 -78 27.5s-30 45.5 -30 81.5v8h85v-6c0 -22 8 -33 24 -33h1
c16 0 24 11 24 33v6h83v-8c0 -36 -10.5 -63.167 -31.5 -81.5s-45.833 -27.5 -74.5 -27.5z" />
    <glyph glyph-name="Aogonek" unicode="&#x104;" horiz-adv-x="349" 
d="M208 125h-80l-12 -125h-118l94 744h158l101 -744h-129zM141 253h54l-28 255zM215 -109c0 18.667 6.83203 36.6689 20.499 54.002s31.5 35.666 53.5 54.999h62c-16.667 -20.667 -28.167 -36.834 -34.5 -48.501s-9.5 -23.5 -9.5 -35.5v-4c0 -13.333 8.66699 -20 26 -20h18
v-80h-58c-21.333 0 -39.666 5.33301 -54.999 16s-23 26.667 -23 48v15z" />
    <glyph glyph-name="aogonek" unicode="&#x105;" 
d="M182 265c-3.33301 -2 -8.49902 -5.33203 -15.499 -9.99902s-12.833 -9.66699 -17.5 -15s-7.83398 -10.833 -9.50098 -16.5s-2.5 -13.834 -2.5 -24.501v-65c0 -10 1.5 -17.833 4.5 -23.5s8.5 -8.5 16.5 -8.5c16 0 24 10.667 24 32v131zM14.001 205.001
c0 28 4.50098 50.3369 13.501 67.0039s23.167 31 42.5 43c6 4 14 8.5 24 13.5l30.5 15l29.5 14c9.33301 4.33301 16 7.83301 20 10.5c2.66699 1.33301 4.66699 3.16602 6 5.49902s2 7.16602 2 14.499v29c0 11.333 -1.83301 19 -5.5 23s-9.16699 6 -16.5 6h-4
c-8.66699 0 -14.5 -2.5 -17.5 -7.5s-4.5 -12.167 -4.5 -21.5v-53h-114v74c0 12 1.66699 24.167 5 36.5s9.66602 23.666 18.999 33.999s22.166 18.833 38.499 25.5s37.5 10 63.5 10h23c26.667 0 48.834 -2.83301 66.501 -8.5s31.667 -13.834 42 -24.501
s17.5 -23.167 21.5 -37.5s6 -30.166 6 -47.499v-297c0 -5.33301 1.16699 -9.16602 3.5 -11.499s7.5 -3.5 15.5 -3.5h14v-114h-119c-12.667 0 -22 4.66699 -28 14s-9 25 -9 47c-3.33301 -6.66699 -7.66602 -13.834 -12.999 -21.501s-11.833 -14.834 -19.5 -21.501
s-16.334 -12.167 -26.001 -16.5s-20.5 -6.5 -32.5 -6.5h-4c-12 0 -22.667 2.66699 -32 8s-17 12.333 -23 21s-10.5 18.5 -13.5 29.5s-4.5 22.5 -4.5 34.5v117zM202.002 -108.995c0 18.667 6.83203 36.6689 20.499 54.002s31.5 35.666 53.5 54.999h62
c-16.667 -20.667 -28.167 -36.834 -34.5 -48.501s-9.5 -23.5 -9.5 -35.5v-4c0 -13.333 8.66699 -20 26 -20h18v-80h-58c-21.333 0 -39.666 5.33301 -54.999 16s-23 26.667 -23 48v15z" />
    <glyph glyph-name="Cacute" unicode="&#x106;" horiz-adv-x="372" 
d="M183 885h106l-45 -114h-104zM224 164l0.00195312 164.004h132v-168c0 -22 -2.5 -43.333 -7.5 -64s-13.5 -39 -25.5 -55s-27.833 -28.833 -47.5 -38.5s-44.167 -14.5 -73.5 -14.5h-27c-32 0 -58.167 4.83301 -78.5 14.5s-36.333 22.5 -48 38.5s-19.667 34.667 -24 56
s-6.5 43.666 -6.5 66.999v420c0 22.667 2.66699 44.167 8 64.5s14.166 38.166 26.499 53.499s28.5 27.666 48.5 36.999s44.667 14 74 14h27c32 0 58 -4.5 78 -13.5s35.667 -21.167 47 -36.5s19 -32.833 23 -52.5s6 -40.167 6 -61.5v-125h-132v120c0 14 -2.5 24.667 -7.5 32
s-13.833 11 -26.5 11s-21.334 -3.5 -26.001 -10.5s-7 -17.833 -7 -32.5v-420c0 -30 11.333 -45 34 -45c12 0 20.5 4.16699 25.5 12.5s7.5 19.166 7.5 32.499z" />
    <glyph glyph-name="cacute" unicode="&#x107;" horiz-adv-x="322" 
d="M156 700h105l-44 -134h-103zM309 241l0.000976562 -115.999c0 -18.667 -2.5 -36.167 -7.5 -52.5s-12.833 -30.666 -23.5 -42.999s-24.334 -22.166 -41.001 -29.499s-36.667 -11 -60 -11h-21c-50 0 -86 13.333 -108 40s-33 60 -33 100v271
c0 44.667 10.833 80.5 32.5 107.5s57.167 40.5 106.5 40.5h25c24.667 0 45.334 -3.33301 62.001 -10s30 -15.834 40 -27.501s17.167 -25.334 21.5 -41.001s6.5 -32.834 6.5 -51.501v-89h-118v76c0 11.333 -1.5 20.5 -4.5 27.5s-9.5 10.5 -19.5 10.5
c-9.33301 0 -15.5 -3.16699 -18.5 -9.5s-4.5 -15.5 -4.5 -27.5v-271c0 -10 1.33301 -18 4 -24s8.66699 -9 18 -9s15.666 2.83301 18.999 8.5s5 13.167 5 22.5v108h119z" />
    <glyph glyph-name="Ccircumflex" unicode="&#x108;" horiz-adv-x="372" 
d="M307 771h-89l-28 46l-27 -46h-89l65 114h102zM224 164l0.00195312 164.004h132v-168c0 -22 -2.5 -43.333 -7.5 -64s-13.5 -39 -25.5 -55s-27.833 -28.833 -47.5 -38.5s-44.167 -14.5 -73.5 -14.5h-27c-32 0 -58.167 4.83301 -78.5 14.5s-36.333 22.5 -48 38.5
s-19.667 34.667 -24 56s-6.5 43.666 -6.5 66.999v420c0 22.667 2.66699 44.167 8 64.5s14.166 38.166 26.499 53.499s28.5 27.666 48.5 36.999s44.667 14 74 14h27c32 0 58 -4.5 78 -13.5s35.667 -21.167 47 -36.5s19 -32.833 23 -52.5s6 -40.167 6 -61.5v-125h-132v120
c0 14 -2.5 24.667 -7.5 32s-13.833 11 -26.5 11s-21.334 -3.5 -26.001 -10.5s-7 -17.833 -7 -32.5v-420c0 -30 11.333 -45 34 -45c12 0 20.5 4.16699 25.5 12.5s7.5 19.166 7.5 32.499z" />
    <glyph glyph-name="ccircumflex" unicode="&#x109;" horiz-adv-x="322" 
d="M281 566h-91l-24 60l-25 -60h-89l61 134h106zM309 241l0.000976562 -115.999c0 -18.667 -2.5 -36.167 -7.5 -52.5s-12.833 -30.666 -23.5 -42.999s-24.334 -22.166 -41.001 -29.499s-36.667 -11 -60 -11h-21c-50 0 -86 13.333 -108 40s-33 60 -33 100v271
c0 44.667 10.833 80.5 32.5 107.5s57.167 40.5 106.5 40.5h25c24.667 0 45.334 -3.33301 62.001 -10s30 -15.834 40 -27.501s17.167 -25.334 21.5 -41.001s6.5 -32.834 6.5 -51.501v-89h-118v76c0 11.333 -1.5 20.5 -4.5 27.5s-9.5 10.5 -19.5 10.5
c-9.33301 0 -15.5 -3.16699 -18.5 -9.5s-4.5 -15.5 -4.5 -27.5v-271c0 -10 1.33301 -18 4 -24s8.66699 -9 18 -9s15.666 2.83301 18.999 8.5s5 13.167 5 22.5v108h119z" />
    <glyph glyph-name="Cdotaccent" unicode="&#x10a;" horiz-adv-x="372" 
d="M254 771h-128v125h128v-125zM224 164l0.00195312 164.004h132v-168c0 -22 -2.5 -43.333 -7.5 -64s-13.5 -39 -25.5 -55s-27.833 -28.833 -47.5 -38.5s-44.167 -14.5 -73.5 -14.5h-27c-32 0 -58.167 4.83301 -78.5 14.5s-36.333 22.5 -48 38.5s-19.667 34.667 -24 56
s-6.5 43.666 -6.5 66.999v420c0 22.667 2.66699 44.167 8 64.5s14.166 38.166 26.499 53.499s28.5 27.666 48.5 36.999s44.667 14 74 14h27c32 0 58 -4.5 78 -13.5s35.667 -21.167 47 -36.5s19 -32.833 23 -52.5s6 -40.167 6 -61.5v-125h-132v120c0 14 -2.5 24.667 -7.5 32
s-13.833 11 -26.5 11s-21.334 -3.5 -26.001 -10.5s-7 -17.833 -7 -32.5v-420c0 -30 11.333 -45 34 -45c12 0 20.5 4.16699 25.5 12.5s7.5 19.166 7.5 32.499z" />
    <glyph glyph-name="cdotaccent" unicode="&#x10b;" horiz-adv-x="322" 
d="M230 566h-128v124h128v-124zM309 241l0.000976562 -115.999c0 -18.667 -2.5 -36.167 -7.5 -52.5s-12.833 -30.666 -23.5 -42.999s-24.334 -22.166 -41.001 -29.499s-36.667 -11 -60 -11h-21c-50 0 -86 13.333 -108 40s-33 60 -33 100v271
c0 44.667 10.833 80.5 32.5 107.5s57.167 40.5 106.5 40.5h25c24.667 0 45.334 -3.33301 62.001 -10s30 -15.834 40 -27.501s17.167 -25.334 21.5 -41.001s6.5 -32.834 6.5 -51.501v-89h-118v76c0 11.333 -1.5 20.5 -4.5 27.5s-9.5 10.5 -19.5 10.5
c-9.33301 0 -15.5 -3.16699 -18.5 -9.5s-4.5 -15.5 -4.5 -27.5v-271c0 -10 1.33301 -18 4 -24s8.66699 -9 18 -9s15.666 2.83301 18.999 8.5s5 13.167 5 22.5v108h119z" />
    <glyph glyph-name="Ccaron" unicode="&#x10c;" horiz-adv-x="372" 
d="M73 885h90l27 -48l27 48h89l-66 -114h-101zM224 164l0.00195312 164.004h132v-168c0 -22 -2.5 -43.333 -7.5 -64s-13.5 -39 -25.5 -55s-27.833 -28.833 -47.5 -38.5s-44.167 -14.5 -73.5 -14.5h-27c-32 0 -58.167 4.83301 -78.5 14.5s-36.333 22.5 -48 38.5
s-19.667 34.667 -24 56s-6.5 43.666 -6.5 66.999v420c0 22.667 2.66699 44.167 8 64.5s14.166 38.166 26.499 53.499s28.5 27.666 48.5 36.999s44.667 14 74 14h27c32 0 58 -4.5 78 -13.5s35.667 -21.167 47 -36.5s19 -32.833 23 -52.5s6 -40.167 6 -61.5v-125h-132v120
c0 14 -2.5 24.667 -7.5 32s-13.833 11 -26.5 11s-21.334 -3.5 -26.001 -10.5s-7 -17.833 -7 -32.5v-420c0 -30 11.333 -45 34 -45c12 0 20.5 4.16699 25.5 12.5s7.5 19.166 7.5 32.499z" />
    <glyph glyph-name="ccaron" unicode="&#x10d;" horiz-adv-x="322" 
d="M53 700h91l24 -62l25 62h89l-61 -134h-107zM309 241l0.000976562 -115.999c0 -18.667 -2.5 -36.167 -7.5 -52.5s-12.833 -30.666 -23.5 -42.999s-24.334 -22.166 -41.001 -29.499s-36.667 -11 -60 -11h-21c-50 0 -86 13.333 -108 40s-33 60 -33 100v271
c0 44.667 10.833 80.5 32.5 107.5s57.167 40.5 106.5 40.5h25c24.667 0 45.334 -3.33301 62.001 -10s30 -15.834 40 -27.501s17.167 -25.334 21.5 -41.001s6.5 -32.834 6.5 -51.501v-89h-118v76c0 11.333 -1.5 20.5 -4.5 27.5s-9.5 10.5 -19.5 10.5
c-9.33301 0 -15.5 -3.16699 -18.5 -9.5s-4.5 -15.5 -4.5 -27.5v-271c0 -10 1.33301 -18 4 -24s8.66699 -9 18 -9s15.666 2.83301 18.999 8.5s5 13.167 5 22.5v108h119z" />
    <glyph glyph-name="Dcaron" unicode="&#x10e;" horiz-adv-x="374" 
d="M21 744h189c50 0 86.667 -12.333 110 -37s35 -65.334 35 -122.001v-420c0 -53.333 -10.667 -94.166 -32 -122.499s-59 -42.5 -113 -42.5h-189v744zM154 124h26.001c15.333 0 25.666 4.16699 30.999 12.5s8 21.5 8 39.5v400c0 18 -2.66699 30.833 -8 38.5
s-14.333 11.5 -27 11.5h-30v-502zM56.001 885h90l27 -48l27 48h89l-66 -115h-101z" />
    <glyph glyph-name="dcaron" unicode="&#x10f;" horiz-adv-x="344" 
d="M349 744h87l-12 -150h-81zM326 744l-0.00292969 -743.999h-128v60c-3.33301 -6 -7.66602 -13.167 -12.999 -21.5s-11.666 -16.166 -18.999 -23.499s-15.666 -13.5 -24.999 -18.5s-20 -7.5 -32 -7.5h-2c-13.333 0 -25.5 3 -36.5 9s-20.5 14.333 -28.5 25
s-14.167 23 -18.5 37s-6.5 28.667 -6.5 44v333c0 12.667 1.66699 25.334 5 38.001s8.33301 24.167 15 34.5s15 18.666 25 24.999s21.667 9.5 35 9.5h5c12.667 0 24 -2.33301 34 -7s19 -10.334 27 -17.001s14.833 -13.834 20.5 -21.501s10.5 -14.5 14.5 -20.5v266h128z
M197.997 392.001c0 12.667 -1.83203 22.834 -5.49902 30.501s-10.834 11.5 -21.501 11.5c-16.667 0 -25 -12.333 -25 -37v-259c0 -11.333 1.83301 -20.333 5.5 -27s10.167 -10 19.5 -10c10 0 17 3.66699 21 11s6 17.666 6 30.999v249z" />
    <glyph glyph-name="Dcroat" unicode="&#x110;" horiz-adv-x="377" 
d="M25 744h189c50 0 86.667 -12.333 110 -37s35 -65.334 35 -122.001v-420c0 -53.333 -10.667 -94.166 -32 -122.499s-59 -42.5 -113 -42.5h-189v325h-25v118h25v301zM158 124h26.001c15.333 0 25.666 4.16699 30.999 12.5s8 21.5 8 39.5v400c0 18 -2.66699 30.833 -8 38.5
s-14.333 11.5 -27 11.5h-30v-183h43v-118h-43v-201z" />
    <glyph glyph-name="dcroat" unicode="&#x111;" horiz-adv-x="344" 
d="M123 674h235v-91h-235v91zM326 744l-0.00292969 -743.999h-128v60c-3.33301 -6 -7.66602 -13.167 -12.999 -21.5s-11.666 -16.166 -18.999 -23.499s-15.666 -13.5 -24.999 -18.5s-20 -7.5 -32 -7.5h-2c-13.333 0 -25.5 3 -36.5 9s-20.5 14.333 -28.5 25
s-14.167 23 -18.5 37s-6.5 28.667 -6.5 44v333c0 12.667 1.66699 25.334 5 38.001s8.33301 24.167 15 34.5s15 18.666 25 24.999s21.667 9.5 35 9.5h5c12.667 0 24 -2.33301 34 -7s19 -10.334 27 -17.001s14.833 -13.834 20.5 -21.501s10.5 -14.5 14.5 -20.5v266h128z
M197.997 392.001c0 12.667 -1.83203 22.834 -5.49902 30.501s-10.834 11.5 -21.501 11.5c-16.667 0 -25 -12.333 -25 -37v-259c0 -11.333 1.83301 -20.333 5.5 -27s10.167 -10 19.5 -10c10 0 17 3.66699 21 11s6 17.666 6 30.999v249z" />
    <glyph glyph-name="Emacron" unicode="&#x112;" horiz-adv-x="315" 
d="M299 744v-131h-145v-162h114v-134h-114v-183h152v-134h-285v744h278zM66 865h193v-88h-193v88z" />
    <glyph glyph-name="emacron" unicode="&#x113;" horiz-adv-x="323" 
d="M174 548c90 0 135 -45.6641 135 -136.997v-159h-171v-117c0 -10.667 1.83301 -18.834 5.5 -24.501s10.167 -8.5 19.5 -8.5c8.66699 0 14.667 3 18 9s5 14 5 24v80h123v-98c0 -42 -13 -73.667 -39 -95s-58 -32 -96 -32h-24c-40 0 -72.5 10.667 -97.5 32s-37.5 53 -37.5 95
v296c0 18 2.5 35.167 7.5 51.5s12.833 30.666 23.5 42.999s24.667 22.166 42 29.499s38 11 62 11h24zM138 348.003h52v65c0 11.333 -1.66699 20.166 -5 26.499s-10.333 9.5 -21 9.5c-11.333 0 -18.5 -3.16699 -21.5 -9.5s-4.5 -15.166 -4.5 -26.499v-65zM67 665.003h191v-87
h-191v87z" />
    <glyph glyph-name="Ebreve" unicode="&#x114;" horiz-adv-x="315" 
d="M299 744v-131h-145v-162h114v-134h-114v-183h152v-134h-285v744h278zM167 767h-4c-30.667 0 -56.167 9.16699 -76.5 27.5s-30.5 43.5 -30.5 75.5v5h85v-3c0 -7.33301 2 -13.5 6 -18.5s9.66699 -7.5 17 -7.5h2c7.33301 0 13 2.5 17 7.5s6 11.167 6 18.5v3h84v-5
c0 -32 -10.5 -57.167 -31.5 -75.5s-45.833 -27.5 -74.5 -27.5z" />
    <glyph glyph-name="ebreve" unicode="&#x115;" horiz-adv-x="323" 
d="M174 548c90 0 135 -45.6641 135 -136.997v-159h-171v-117c0 -10.667 1.83301 -18.834 5.5 -24.501s10.167 -8.5 19.5 -8.5c8.66699 0 14.667 3 18 9s5 14 5 24v80h123v-98c0 -42 -13 -73.667 -39 -95s-58 -32 -96 -32h-24c-40 0 -72.5 10.667 -97.5 32s-37.5 53 -37.5 95
v296c0 18 2.5 35.167 7.5 51.5s12.833 30.666 23.5 42.999s24.667 22.166 42 29.499s38 11 62 11h24zM138 348.003h52v65c0 11.333 -1.66699 20.166 -5 26.499s-10.333 9.5 -21 9.5c-11.333 0 -18.5 -3.16699 -21.5 -9.5s-4.5 -15.166 -4.5 -26.499v-65zM165 565.003h-3
c-32 0 -58 9.16699 -78 27.5s-30 45.5 -30 81.5v8h85v-6c0 -22 8 -33 24 -33h1c16 0 24 11 24 33v6h83v-8c0 -36 -10.5 -63.167 -31.5 -81.5s-45.833 -27.5 -74.5 -27.5z" />
    <glyph glyph-name="Edotaccent" unicode="&#x116;" horiz-adv-x="315" 
d="M299 744v-131h-145v-162h114v-134h-114v-183h152v-134h-285v744h278zM229 770h-128v126h128v-126z" />
    <glyph glyph-name="edotaccent" unicode="&#x117;" horiz-adv-x="323" 
d="M226 566h-128v124h128v-124zM174 548c90 0 135 -45.6641 135 -136.997v-159h-171v-117c0 -10.667 1.83301 -18.834 5.5 -24.501s10.167 -8.5 19.5 -8.5c8.66699 0 14.667 3 18 9s5 14 5 24v80h123v-98c0 -42 -13 -73.667 -39 -95s-58 -32 -96 -32h-24
c-40 0 -72.5 10.667 -97.5 32s-37.5 53 -37.5 95v296c0 18 2.5 35.167 7.5 51.5s12.833 30.666 23.5 42.999s24.667 22.166 42 29.499s38 11 62 11h24zM138 348.003h52v65c0 11.333 -1.66699 20.166 -5 26.499s-10.333 9.5 -21 9.5c-11.333 0 -18.5 -3.16699 -21.5 -9.5
s-4.5 -15.166 -4.5 -26.499v-65z" />
    <glyph glyph-name="Eogonek" unicode="&#x118;" horiz-adv-x="315" 
d="M299 744v-131h-145v-162h114v-134h-114v-183h152v-134h-285v744h278zM125 -109c0 18.667 6.83203 36.6689 20.499 54.002s31.5 35.666 53.5 54.999h62c-16.667 -20.667 -28.167 -36.834 -34.5 -48.501s-9.5 -23.5 -9.5 -35.5v-4c0 -13.333 8.66699 -20 26 -20h18v-80h-58
c-21.333 0 -39.666 5.33301 -54.999 16s-23 26.667 -23 48v15z" />
    <glyph glyph-name="eogonek" unicode="&#x119;" horiz-adv-x="323" 
d="M256 -1c-15.333 -19.333 -26.334 -34.8291 -33.001 -46.4961s-10 -23.834 -10 -36.501v-4c0 -13.333 8.66699 -20 26 -20h18v-80h-58c-21.333 0 -39.666 5.33301 -54.999 16s-23 26.667 -23 48v15c0 17.333 5.83301 34 17.5 50s27.5 32.667 47.5 50
c-2.66699 -0.666992 -6.66699 -1 -12 -1h-24c-40 0 -72.5 10.667 -97.5 32s-37.5 53 -37.5 95v296c0 18 2.5 35.167 7.5 51.5s12.833 30.666 23.5 42.999s24.667 22.166 42 29.499s38 11 62 11h24c90 0 135 -45.667 135 -137v-159h-171v-117
c0 -10.667 1.83301 -18.834 5.5 -24.501s10.167 -8.5 19.5 -8.5c8.66699 0 14.667 3 18 9s5 14 5 24v80h123v-94c0 -14.667 -1.33301 -27.5 -4 -38.5s-6.16699 -21 -10.5 -30s-9.83301 -17.667 -16.5 -26zM137.999 348.004h52v65c0 11.333 -1.66699 20.166 -5 26.499
s-10.333 9.5 -21 9.5c-11.333 0 -18.5 -3.16699 -21.5 -9.5s-4.5 -15.166 -4.5 -26.499v-65z" />
    <glyph glyph-name="Ecaron" unicode="&#x11a;" horiz-adv-x="315" 
d="M299 744v-131h-145v-162h114v-134h-114v-183h152v-134h-285v744h278zM48 885h90l27 -48l27 48h89l-66 -115h-101z" />
    <glyph glyph-name="ecaron" unicode="&#x11b;" horiz-adv-x="323" 
d="M49 700h91l24 -62l25 62h89l-61 -134h-107zM174 548c90 0 135 -45.6641 135 -136.997v-159h-171v-117c0 -10.667 1.83301 -18.834 5.5 -24.501s10.167 -8.5 19.5 -8.5c8.66699 0 14.667 3 18 9s5 14 5 24v80h123v-98c0 -42 -13 -73.667 -39 -95s-58 -32 -96 -32h-24
c-40 0 -72.5 10.667 -97.5 32s-37.5 53 -37.5 95v296c0 18 2.5 35.167 7.5 51.5s12.833 30.666 23.5 42.999s24.667 22.166 42 29.499s38 11 62 11h24zM138 348.003h52v65c0 11.333 -1.66699 20.166 -5 26.499s-10.333 9.5 -21 9.5c-11.333 0 -18.5 -3.16699 -21.5 -9.5
s-4.5 -15.166 -4.5 -26.499v-65z" />
    <glyph glyph-name="Gcircumflex" unicode="&#x11c;" horiz-adv-x="378" 
d="M306 771h-89l-28 46l-27 -46h-89l65 114h102zM139 -10c-19.333 0 -36.5 3.83203 -51.5 11.499s-27.667 18.167 -38 31.5s-18.166 28.833 -23.499 46.5s-8 36.5 -8 56.5v443c0 22.667 2.66699 44.5 8 65.5s14 39.5 26 55.5s27.833 28.833 47.5 38.5s44.167 14.5 73.5 14.5
h27c32.667 0 59.167 -4.83301 79.5 -14.5s36 -22.5 47 -38.5s18.333 -34.5 22 -55.5s5.5 -42.5 5.5 -64.5v-82h-130v83c0 15.333 -2.33301 27 -7 35s-13.667 12 -27 12c-22 0 -33 -15.667 -33 -47v-414c0 -32 12 -48 36 -48c26 0 39 15.333 39 46v160h-49v125h177v-450h-81
c-2 8.66699 -4.83301 19.834 -8.5 33.501s-7.5 26.167 -11.5 37.5c-3.33301 -6 -7.83301 -13.667 -13.5 -23s-12.834 -18.333 -21.501 -27s-19.167 -16 -31.5 -22s-26.833 -9 -43.5 -9h-10z" />
    <glyph glyph-name="gcircumflex" unicode="&#x11d;" horiz-adv-x="342" 
d="M196 60c-10 -18.667 -21.999 -34.999 -35.999 -48.999s-31 -21 -51 -21c-26 0 -47.833 9.5 -65.5 28.5s-26.5 44.5 -26.5 76.5v321c0 38 7.16699 68.333 21.5 91s35.5 34 63.5 34h1c22.667 0 41.334 -6.66699 56.001 -20s27.667 -29.333 39 -48v65h126v-612
c0 -14 -2 -28.167 -6 -42.5s-11.333 -27.333 -22 -39s-25.334 -21.167 -44.001 -28.5s-43 -11 -73 -11h-18c-27.333 0 -50 2.5 -68 7.5s-32.333 12 -43 21s-18 19.333 -22 31s-6 24.5 -6 38.5v72h123v-44c0 -7.33301 1.33301 -13 4 -17s8.66699 -6 18 -6h5
c9.33301 0 15.666 2.16699 18.999 6.5s5 11.166 5 20.499v125zM196.001 399.001c0 8.66699 -1.5 16.5 -4.5 23.5s-9.83301 10.5 -20.5 10.5c-9.33301 0 -15.666 -3.16699 -18.999 -9.5s-5 -14.166 -5 -23.499v-272c0 -9.33301 1.66699 -17 5 -23s9.66602 -9 18.999 -9
c8 0 14.167 3.16699 18.5 9.5s6.5 14.166 6.5 23.499v270zM284.001 564.001h-91l-24 62l-25 -62h-89l61 136h106z" />
    <glyph glyph-name="Gbreve" unicode="&#x11e;" horiz-adv-x="378" 
d="M139 -10c-19.333 0 -36.5 3.83203 -51.5 11.499s-27.667 18.167 -38 31.5s-18.166 28.833 -23.499 46.5s-8 36.5 -8 56.5v443c0 22.667 2.66699 44.5 8 65.5s14 39.5 26 55.5s27.833 28.833 47.5 38.5s44.167 14.5 73.5 14.5h27c32.667 0 59.167 -4.83301 79.5 -14.5
s36 -22.5 47 -38.5s18.333 -34.5 22 -55.5s5.5 -42.5 5.5 -64.5v-82h-130v83c0 15.333 -2.33301 27 -7 35s-13.667 12 -27 12c-22 0 -33 -15.667 -33 -47v-414c0 -32 12 -48 36 -48c26 0 39 15.333 39 46v160h-49v125h177v-450h-81c-2 8.66699 -4.83301 19.834 -8.5 33.501
s-7.5 26.167 -11.5 37.5c-3.33301 -6 -7.83301 -13.667 -13.5 -23s-12.834 -18.333 -21.501 -27s-19.167 -16 -31.5 -22s-26.833 -9 -43.5 -9h-10zM190 767.999h-4c-30.667 0 -56.167 9.16699 -76.5 27.5s-30.5 43.5 -30.5 75.5v5h85v-3c0 -7.33301 2 -13.5 6 -18.5
s9.66699 -7.5 17 -7.5h2c7.33301 0 13 2.5 17 7.5s6 11.167 6 18.5v3h84v-5c0 -32 -10.5 -57.167 -31.5 -75.5s-45.833 -27.5 -74.5 -27.5z" />
    <glyph glyph-name="gbreve" unicode="&#x11f;" horiz-adv-x="342" 
d="M196 60c-10 -18.667 -21.999 -34.999 -35.999 -48.999s-31 -21 -51 -21c-26 0 -47.833 9.5 -65.5 28.5s-26.5 44.5 -26.5 76.5v321c0 38 7.16699 68.333 21.5 91s35.5 34 63.5 34h1c22.667 0 41.334 -6.66699 56.001 -20s27.667 -29.333 39 -48v65h126v-612
c0 -14 -2 -28.167 -6 -42.5s-11.333 -27.333 -22 -39s-25.334 -21.167 -44.001 -28.5s-43 -11 -73 -11h-18c-27.333 0 -50 2.5 -68 7.5s-32.333 12 -43 21s-18 19.333 -22 31s-6 24.5 -6 38.5v72h123v-44c0 -7.33301 1.33301 -13 4 -17s8.66699 -6 18 -6h5
c9.33301 0 15.666 2.16699 18.999 6.5s5 11.166 5 20.499v125zM196.001 399.001c0 8.66699 -1.5 16.5 -4.5 23.5s-9.83301 10.5 -20.5 10.5c-9.33301 0 -15.666 -3.16699 -18.999 -9.5s-5 -14.166 -5 -23.499v-272c0 -9.33301 1.66699 -17 5 -23s9.66602 -9 18.999 -9
c8 0 14.167 3.16699 18.5 9.5s6.5 14.166 6.5 23.499v270zM172.001 563.001h-3c-32 0 -58 9.16699 -78 27.5s-30 45.5 -30 81.5v8h85v-6c0 -22 8 -33 24 -33h1c16 0 24 11 24 33v6h83v-8c0 -36 -10.5 -63.167 -31.5 -81.5s-45.833 -27.5 -74.5 -27.5z" />
    <glyph glyph-name="Gdotaccent" unicode="&#x120;" horiz-adv-x="378" 
d="M256 771h-128v125h128v-125zM139 -10c-19.333 0 -36.5 3.83203 -51.5 11.499s-27.667 18.167 -38 31.5s-18.166 28.833 -23.499 46.5s-8 36.5 -8 56.5v443c0 22.667 2.66699 44.5 8 65.5s14 39.5 26 55.5s27.833 28.833 47.5 38.5s44.167 14.5 73.5 14.5h27
c32.667 0 59.167 -4.83301 79.5 -14.5s36 -22.5 47 -38.5s18.333 -34.5 22 -55.5s5.5 -42.5 5.5 -64.5v-82h-130v83c0 15.333 -2.33301 27 -7 35s-13.667 12 -27 12c-22 0 -33 -15.667 -33 -47v-414c0 -32 12 -48 36 -48c26 0 39 15.333 39 46v160h-49v125h177v-450h-81
c-2 8.66699 -4.83301 19.834 -8.5 33.501s-7.5 26.167 -11.5 37.5c-3.33301 -6 -7.83301 -13.667 -13.5 -23s-12.834 -18.333 -21.501 -27s-19.167 -16 -31.5 -22s-26.833 -9 -43.5 -9h-10z" />
    <glyph glyph-name="gdotaccent" unicode="&#x121;" horiz-adv-x="342" 
d="M196 60c-10 -18.667 -21.999 -34.999 -35.999 -48.999s-31 -21 -51 -21c-26 0 -47.833 9.5 -65.5 28.5s-26.5 44.5 -26.5 76.5v321c0 38 7.16699 68.333 21.5 91s35.5 34 63.5 34h1c22.667 0 41.334 -6.66699 56.001 -20s27.667 -29.333 39 -48v65h126v-612
c0 -14 -2 -28.167 -6 -42.5s-11.333 -27.333 -22 -39s-25.334 -21.167 -44.001 -28.5s-43 -11 -73 -11h-18c-27.333 0 -50 2.5 -68 7.5s-32.333 12 -43 21s-18 19.333 -22 31s-6 24.5 -6 38.5v72h123v-44c0 -7.33301 1.33301 -13 4 -17s8.66699 -6 18 -6h5
c9.33301 0 15.666 2.16699 18.999 6.5s5 11.166 5 20.499v125zM196.001 399.001c0 8.66699 -1.5 16.5 -4.5 23.5s-9.83301 10.5 -20.5 10.5c-9.33301 0 -15.666 -3.16699 -18.999 -9.5s-5 -14.166 -5 -23.499v-272c0 -9.33301 1.66699 -17 5 -23s9.66602 -9 18.999 -9
c8 0 14.167 3.16699 18.5 9.5s6.5 14.166 6.5 23.499v270zM234.001 564.001h-128v126h128v-126z" />
    <glyph glyph-name="uni0122" unicode="&#x122;" horiz-adv-x="378" 
d="M139 -10c-19.333 0 -36.5 3.83203 -51.5 11.499s-27.667 18.167 -38 31.5s-18.166 28.833 -23.499 46.5s-8 36.5 -8 56.5v443c0 22.667 2.66699 44.5 8 65.5s14 39.5 26 55.5s27.833 28.833 47.5 38.5s44.167 14.5 73.5 14.5h27c32.667 0 59.167 -4.83301 79.5 -14.5
s36 -22.5 47 -38.5s18.333 -34.5 22 -55.5s5.5 -42.5 5.5 -64.5v-82h-130v83c0 15.333 -2.33301 27 -7 35s-13.667 12 -27 12c-22 0 -33 -15.667 -33 -47v-414c0 -32 12 -48 36 -48c26 0 39 15.333 39 46v160h-49v125h177v-450h-81c-2 8.66699 -4.83301 19.834 -8.5 33.501
s-7.5 26.167 -11.5 37.5c-3.33301 -6 -7.83301 -13.667 -13.5 -23s-12.834 -18.333 -21.501 -27s-19.167 -16 -31.5 -22s-26.833 -9 -43.5 -9h-10zM170 -203.001c3.33301 8 6.16797 17.5 8.50098 28.5s4.16602 23.833 5.49902 38.5h-43v110h102v-70
c0 -28 -2.83301 -51 -8.5 -69s-10.167 -30.667 -13.5 -38h-51z" />
    <glyph glyph-name="uni0123" unicode="&#x123;" horiz-adv-x="342" 
d="M196 60c-10 -18.667 -21.999 -34.999 -35.999 -48.999s-31 -21 -51 -21c-26 0 -47.833 9.5 -65.5 28.5s-26.5 44.5 -26.5 76.5v321c0 38 7.16699 68.333 21.5 91s35.5 34 63.5 34h1c22.667 0 41.334 -6.66699 56.001 -20s27.667 -29.333 39 -48v65h126v-612
c0 -14 -2 -28.167 -6 -42.5s-11.333 -27.333 -22 -39s-25.334 -21.167 -44.001 -28.5s-43 -11 -73 -11h-18c-27.333 0 -50 2.5 -68 7.5s-32.333 12 -43 21s-18 19.333 -22 31s-6 24.5 -6 38.5v72h123v-44c0 -7.33301 1.33301 -13 4 -17s8.66699 -6 18 -6h5
c9.33301 0 15.666 2.16699 18.999 6.5s5 11.166 5 20.499v125zM196.001 399.001c0 8.66699 -1.5 16.5 -4.5 23.5s-9.83301 10.5 -20.5 10.5c-9.33301 0 -15.666 -3.16699 -18.999 -9.5s-5 -14.166 -5 -23.499v-272c0 -9.33301 1.66699 -17 5 -23s9.66602 -9 18.999 -9
c8 0 14.167 3.16699 18.5 9.5s6.5 14.166 6.5 23.499v270zM192.001 742.001c-2.66699 -8.66699 -5.33301 -18.667 -8 -30s-4.66699 -24.333 -6 -39h42v-109h-103v69c0 28 2.83301 51.333 8.5 70s10.167 31.667 13.5 39h53z" />
    <glyph glyph-name="Hcircumflex" unicode="&#x124;" horiz-adv-x="378" 
d="M154 0h-133v744h133v-284h70v284h133v-744h-133v314h-70v-314zM306 770h-89l-28 47l-27 -47h-89l65 115h102z" />
    <glyph glyph-name="hcircumflex" unicode="&#x125;" horiz-adv-x="344" 
d="M18 744h128v-268c9.33301 14.667 22 29 38 43s35.333 21 58 21h5c24.667 0 44 -8 58 -24s21 -36 21 -60v-456h-129v398c0 8 -1.66699 15 -5 21s-10 9 -20 9c-10.667 0 -17.667 -3.16699 -21 -9.5s-5 -14.5 -5 -24.5v-394h-128v744zM277 770h-89l-28 47l-27 -47h-89
l65 115h102z" />
    <glyph glyph-name="Hbar" unicode="&#x126;" horiz-adv-x="378" 
d="M-4 651h387v-101h-387v101zM154 0h-133v744h133v-284h70v284h133v-744h-133v314h-70v-314z" />
    <glyph glyph-name="hbar" unicode="&#x127;" horiz-adv-x="344" 
d="M-14 674h235v-91h-235v91zM18 744h128v-268c9.33301 14.667 22 29 38 43s35.333 21 58 21h5c24.667 0 44 -8 58 -24s21 -36 21 -60v-456h-129v398c0 8 -1.66699 15 -5 21s-10 9 -20 9c-10.667 0 -17.667 -3.16699 -21 -9.5s-5 -14.5 -5 -24.5v-394h-128v744z" />
    <glyph glyph-name="Itilde" unicode="&#x128;" horiz-adv-x="175" 
d="M154 0h-133v744h133v-744zM85 787l-14.5 6.5c-3.66699 1.66699 -7.16699 2.5 -10.5 2.5c-5.33301 0 -8 -3.66699 -8 -11v-16h-72v34c0 25.333 5.16699 44.5 15.5 57.5s24.166 19.5 41.499 19.5c10 0 19 -1 27 -3s17 -5.33301 27 -10c8.66699 -4 14.667 -6.66699 18 -8
s6.33301 -2 9 -2c4 0 6 3.33301 6 10v16h72v-34c0 -28 -6.16699 -47.667 -18.5 -59s-25.166 -17 -38.499 -17c-8.66699 0 -17 1 -25 3s-17.667 5.66699 -29 11z" />
    <glyph glyph-name="itilde" unicode="&#x129;" horiz-adv-x="164" 
d="M180 678l0.000976562 -66.001c0 -15.333 -4.33301 -27.166 -13 -35.499s-18.667 -12.5 -30 -12.5c-10.667 0 -20 1.66699 -28 5s-18.333 8.33301 -31 15c-6 3.33301 -10.167 5.5 -12.5 6.5s-4.5 1.5 -6.5 1.5c-3.33301 0 -5 -3.66699 -5 -11v-18h-68v57
c0 20 4.33301 34.333 13 43s19 13 31 13c10 0 19.333 -1.5 28 -4.5s19 -7.5 31 -13.5c6 -3.33301 10.167 -5.33301 12.5 -6s4.16602 -1 5.49902 -1c3.33301 0 5 3.33301 5 10v17h68zM147.001 -0.000976562h-128v538h128v-538z" />
    <glyph glyph-name="Imacron" unicode="&#x12a;" horiz-adv-x="175" 
d="M154 0h-133v744h133v-744zM-9 865h193v-88h-193v88z" />
    <glyph glyph-name="imacron" unicode="&#x12b;" horiz-adv-x="164" 
d="M-4 664h172v-88h-172v88zM146 0h-128v538h128v-538z" />
    <glyph glyph-name="Ibreve" unicode="&#x12c;" horiz-adv-x="175" 
d="M154 0h-133v744h133v-744zM90 767h-4c-30.667 0 -56.167 9.16699 -76.5 27.5s-30.5 43.5 -30.5 75.5v5h85v-3c0 -7.33301 2 -13.5 6 -18.5s9.66699 -7.5 17 -7.5h2c7.33301 0 13 2.5 17 7.5s6 11.167 6 18.5v3h84v-5c0 -32 -10.5 -57.167 -31.5 -75.5
s-45.833 -27.5 -74.5 -27.5z" />
    <glyph glyph-name="ibreve" unicode="&#x12d;" horiz-adv-x="164" 
d="M85 563h-4.00098c-36 0 -60.833 9 -74.5 27s-20.5 40.333 -20.5 67v23h80v-16c0 -15.333 5.66699 -23 17 -23s17 7.66699 17 23v16h78v-23c0 -26.667 -7.16699 -49 -21.5 -67s-38.166 -27 -71.499 -27zM145.999 0h-128v538h128v-538z" />
    <glyph glyph-name="Iogonek" unicode="&#x12e;" horiz-adv-x="175" 
d="M154 0h-133v744h133v-744zM18 -109c0 18.667 6.83203 36.6689 20.499 54.002s31.5 35.666 53.5 54.999h62c-16.667 -20.667 -28.167 -36.834 -34.5 -48.501s-9.5 -23.5 -9.5 -35.5v-4c0 -13.333 8.66699 -20 26 -20h18v-80h-58c-21.333 0 -39.666 5.33301 -54.999 16
s-23 26.667 -23 48v15z" />
    <glyph glyph-name="iogonek" unicode="&#x12f;" horiz-adv-x="164" 
d="M146 0h-128v538h128v-538zM146 564h-128v126h128v-126zM10 -109c0 18.667 6.83203 36.6689 20.499 54.002s31.5 35.666 53.5 54.999h62c-16.667 -20.667 -28.167 -36.834 -34.5 -48.501s-9.5 -23.5 -9.5 -35.5v-4c0 -13.333 8.66699 -20 26 -20h18v-80h-58
c-21.333 0 -39.666 5.33301 -54.999 16s-23 26.667 -23 48v15z" />
    <glyph glyph-name="Idotaccent" unicode="&#x130;" horiz-adv-x="175" 
d="M154 0h-133v744h133v-744zM152 770h-128v126h128v-126z" />
    <glyph glyph-name="dotlessi" unicode="&#x131;" horiz-adv-x="164" 
d="M146 0h-128v538h128v-538z" />
    <glyph glyph-name="IJ" unicode="&#x132;" horiz-adv-x="525" 
d="M154 0h-133v744h133v-744zM312 327v-171.999c0 -22 8.66699 -33 26 -33h4c9.33301 0 15.833 3.16699 19.5 9.5s5.5 14.166 5.5 23.499v589h138v-593c0 -52 -12.5 -91.5 -37.5 -118.5s-59.5 -40.5 -103.5 -40.5h-44c-44 0 -77.667 11.167 -101 33.5s-35 59.5 -35 111.5
v190h128z" />
    <glyph glyph-name="ij" unicode="&#x133;" horiz-adv-x="325" 
d="M146 0h-128v538h128v-538zM146 564h-128v126h128v-126zM307 564h-128v126h128v-126zM161 -69c6.66699 0 11.333 1.33105 14 3.99805s4 8.33398 4 17.001v586h128v-654c0 -19.333 -6.5 -36.166 -19.5 -50.499s-31.167 -21.5 -54.5 -21.5h-124v119h52z" />
    <glyph glyph-name="Jcircumflex" unicode="&#x134;" horiz-adv-x="354" 
d="M141 327v-171.999c0 -22 8.66699 -33 26 -33h4c9.33301 0 15.833 3.16699 19.5 9.5s5.5 14.166 5.5 23.499v589h138v-593c0 -52 -12.5 -91.5 -37.5 -118.5s-59.5 -40.5 -103.5 -40.5h-44c-44 0 -77.667 11.167 -101 33.5s-35 59.5 -35 111.5v190h128zM378 770.001h-89
l-28 47l-27 -47h-89l65 115h102z" />
    <glyph glyph-name="jcircumflex" unicode="&#x135;" horiz-adv-x="165" 
d="M186 564h-86l-19 66l-20 -66h-85l52 136h106zM1 -69c6.66699 0 11.333 1.33105 14 3.99805s4 8.33398 4 17.001v586h128v-654c0 -19.333 -6.5 -36.166 -19.5 -50.499s-31.167 -21.5 -54.5 -21.5h-124v119h52z" />
    <glyph glyph-name="uni0136" unicode="&#x136;" horiz-adv-x="376" 
d="M154 0h-133v744h133v-286l87 286h131l-105 -338l116 -406h-140l-89 315v-315zM178 -203c3.33301 8 6.16797 17.5 8.50098 28.5s4.16602 23.833 5.49902 38.5h-43v110h102v-70c0 -28 -2.83301 -51 -8.5 -69s-10.167 -30.667 -13.5 -38h-51z" />
    <glyph glyph-name="uni0137" unicode="&#x137;" horiz-adv-x="346" 
d="M221 538h122l-95 -226l102 -312h-127l-77 239v-239h-128v744h128v-393zM162 -203c3.33301 8 6.16797 17.5 8.50098 28.5s4.16602 23.833 5.49902 38.5h-43v110h102v-70c0 -28 -2.83301 -51 -8.5 -69s-10.167 -30.667 -13.5 -38h-51z" />
    <glyph glyph-name="Lacute" unicode="&#x139;" horiz-adv-x="304" 
d="M154 744v-610h141v-134h-274v744h133zM79 885h106l-45 -115h-104z" />
    <glyph glyph-name="lacute" unicode="&#x13a;" horiz-adv-x="164" 
d="M146 0h-128v744h128v-744zM73 885h106l-45 -115h-104z" />
    <glyph glyph-name="uni013B" unicode="&#x13b;" horiz-adv-x="304" 
d="M154 744v-610h141v-134h-274v744h133zM139 -203c3.33301 8 6.16797 17.5 8.50098 28.5s4.16602 23.833 5.49902 38.5h-43v110h102v-70c0 -28 -2.83301 -51 -8.5 -69s-10.167 -30.667 -13.5 -38h-51z" />
    <glyph glyph-name="uni013C" unicode="&#x13c;" horiz-adv-x="164" 
d="M146 0h-128v744h128v-744zM63 -203c3.33301 8 6.16797 17.5 8.50098 28.5s4.16602 23.833 5.49902 38.5h-43v110h102v-70c0 -28 -2.83301 -51 -8.5 -69s-10.167 -30.667 -13.5 -38h-51z" />
    <glyph glyph-name="Lcaron" unicode="&#x13d;" horiz-adv-x="304" 
d="M177 744h87l-12 -150h-81zM154 744v-610h141v-134h-274v744h133z" />
    <glyph glyph-name="lcaron" unicode="&#x13e;" horiz-adv-x="164" 
d="M146 0h-128v744h128v-744zM169 744h87l-12 -150h-81z" />
    <glyph glyph-name="Ldot" unicode="&#x13f;" horiz-adv-x="311" 
d="M299 314h-118v144h118v-144zM154 744v-610h141v-134h-274v744h133z" />
    <glyph glyph-name="ldot" unicode="&#x140;" horiz-adv-x="291" 
d="M285 314h-118v144h118v-144zM146 0h-128v744h128v-744z" />
    <glyph glyph-name="Lslash" unicode="&#x141;" horiz-adv-x="320" 
d="M169 744v-304l95 67v-110l-95 -65v-198h141v-134h-274v241l-33 -22v106l33 23v396h133z" />
    <glyph glyph-name="lslash" unicode="&#x142;" horiz-adv-x="189" 
d="M158 0h-128v331l-27 -19v100l27 19v313h128v-222l28 20v-102l-28 -20v-420z" />
    <glyph glyph-name="Nacute" unicode="&#x143;" horiz-adv-x="376" 
d="M146 744l91 -380v380h118v-744h-113l-103 408v-408h-118v744h125zM180 885h106l-45 -115h-104z" />
    <glyph glyph-name="nacute" unicode="&#x144;" horiz-adv-x="344" 
d="M18 538l127 -0.000976562v-65c12 18 25.667 33.667 41 47s34 20 56 20h7c14.667 0 27 -3.16699 37 -9.5s18 -14 24 -23s10.167 -18.833 12.5 -29.5s3.5 -20 3.5 -28v-450h-129v396c0 9.33301 -1.66699 17 -5 23s-10 9 -20 9c-10.667 0 -17.667 -3.16699 -21 -9.5
s-5 -15.166 -5 -26.499v-392h-128v538zM162 699.999h105l-44 -136h-103z" />
    <glyph glyph-name="uni0145" unicode="&#x145;" horiz-adv-x="376" 
d="M146 744l91 -380v380h118v-744h-113l-103 408v-408h-118v744h125zM167 -203c3.33301 8 6.16797 17.5 8.50098 28.5s4.16602 23.833 5.49902 38.5h-43v110h102v-70c0 -28 -2.83301 -51 -8.5 -69s-10.167 -30.667 -13.5 -38h-51z" />
    <glyph glyph-name="uni0146" unicode="&#x146;" horiz-adv-x="344" 
d="M18 538l127 -0.000976562v-65c12 18 25.667 33.667 41 47s34 20 56 20h7c14.667 0 27 -3.16699 37 -9.5s18 -14 24 -23s10.167 -18.833 12.5 -29.5s3.5 -20 3.5 -28v-450h-129v396c0 9.33301 -1.66699 17 -5 23s-10 9 -20 9c-10.667 0 -17.667 -3.16699 -21 -9.5
s-5 -15.166 -5 -26.499v-392h-128v538zM152 -203.001c3.33301 8 6.16797 17.5 8.50098 28.5s4.16602 23.833 5.49902 38.5h-43v110h102v-70c0 -28 -2.83301 -51 -8.5 -69s-10.167 -30.667 -13.5 -38h-51z" />
    <glyph glyph-name="Ncaron" unicode="&#x147;" horiz-adv-x="376" 
d="M146 744l91 -380v380h118v-744h-113l-103 408v-408h-118v744h125zM73 885h90l27 -48l27 48h89l-66 -115h-101z" />
    <glyph glyph-name="ncaron" unicode="&#x148;" horiz-adv-x="344" 
d="M18 538l127 -0.000976562v-65c12 18 25.667 33.667 41 47s34 20 56 20h7c14.667 0 27 -3.16699 37 -9.5s18 -14 24 -23s10.167 -18.833 12.5 -29.5s3.5 -20 3.5 -28v-450h-129v396c0 9.33301 -1.66699 17 -5 23s-10 9 -20 9c-10.667 0 -17.667 -3.16699 -21 -9.5
s-5 -15.166 -5 -26.499v-392h-128v538zM57 699.999h91l24 -62l25 62h89l-62 -136h-105z" />
    <glyph glyph-name="napostrophe" unicode="&#x149;" horiz-adv-x="436" 
d="M110 538l127 -0.000976562v-65c12 18 25.667 33.667 41 47s34 20 56 20h7c14.667 0 27 -3.16699 37 -9.5s18 -14 24 -23s10.167 -18.833 12.5 -29.5s3.5 -20 3.5 -28v-450h-129v396c0 9.33301 -1.66699 17 -5 23s-10 9 -20 9c-10.667 0 -17.667 -3.16699 -21 -9.5
s-5 -15.166 -5 -26.499v-392h-128v538zM26 523.999c4.66699 14 8.83301 29.5 12.5 46.5s5.83398 32.167 6.50098 45.5h-43v128h111v-103c0 -25.333 -2.83301 -48.5 -8.5 -69.5s-10.834 -36.833 -15.501 -47.5h-63z" />
    <glyph glyph-name="Eng" unicode="&#x14a;" horiz-adv-x="376" 
d="M276 -188h-96v117h39c15.333 0 23 9 23 27v44l-103 412v-412h-118v744h125l93 -404v404h116v-845c0 -30 -7.16699 -52 -21.5 -66s-33.5 -21 -57.5 -21z" />
    <glyph glyph-name="eng" unicode="&#x14b;" horiz-adv-x="344" 
d="M197 396c0 9.33301 -1.66895 16.9971 -5.00195 22.9971s-10 9 -20 9c-10.667 0 -17.667 -3.16699 -21 -9.5s-5 -15.166 -5 -26.499v-392h-128v538h124v-68c13.333 20 27.666 36.667 42.999 50s33.333 20 54 20h12c14.667 0 26.834 -3.16699 36.501 -9.5
s17.334 -14 23.001 -23s9.66699 -18.833 12 -29.5s3.5 -20 3.5 -28v-566c0 -19.333 -6.5 -36.166 -19.5 -50.499s-31.167 -21.5 -54.5 -21.5h-95v119h22c6.66699 0 11.334 1.33301 14.001 4s4 8.33398 4 17.001v444z" />
    <glyph glyph-name="Omacron" unicode="&#x14c;" horiz-adv-x="385" 
d="M367 170c0 -54.667 -13.8311 -98.5 -41.498 -131.5s-66.5 -49.5 -116.5 -49.5h-30c-52.667 0 -92.667 15.5 -120 46.5s-41 75.833 -41 134.5v393c0 28.667 3 54.667 9 78s15.333 43.333 28 60s29.167 29.5 49.5 38.5s44.833 13.5 73.5 13.5h30
c29.333 0 54.166 -4.5 74.499 -13.5s36.666 -21.833 48.999 -38.5s21.333 -36.5 27 -59.5s8.5 -48.833 8.5 -77.5v-394zM228.002 574c0 32.667 -11.668 49 -35.001 49c-13.333 0 -22.666 -4 -27.999 -12s-8 -20.333 -8 -37v-408c0 -11.333 2.66699 -21.5 8 -30.5
s15 -13.5 29 -13.5c13.333 0 22.333 4.5 27 13.5s7 19.167 7 30.5v408zM96.001 866h193v-88h-193v88z" />
    <glyph glyph-name="omacron" unicode="&#x14d;" horiz-adv-x="341" 
d="M15 142l-0.00195312 254.998c0 48.667 12.333 86 37 112s59 39 103 39h30c44 0 78.5 -12.833 103.5 -38.5s37.5 -62.5 37.5 -110.5v-255c0 -22 -3.16699 -42.333 -9.5 -61s-15.666 -35 -27.999 -49s-27.166 -24.833 -44.499 -32.5s-37 -11.5 -59 -11.5h-30
c-24.667 0 -45.834 3.83301 -63.501 11.5s-32.167 18.334 -43.5 32.001s-19.666 29.834 -24.999 48.501s-8 38.667 -8 60zM143.998 399.998l0.00195312 -256c0 -10.667 1.66699 -19.667 5 -27s10.333 -11 21 -11c11.333 0 18.666 3.83301 21.999 11.5s5 16.5 5 26.5v256
c0 11.333 -1.83301 20.333 -5.5 27s-10.834 10 -21.501 10c-10 0 -16.833 -3.33301 -20.5 -10s-5.5 -15.667 -5.5 -27zM75 664.998h191v-87h-191v87z" />
    <glyph glyph-name="Obreve" unicode="&#x14e;" horiz-adv-x="385" 
d="M367 170c0 -54.667 -13.8311 -98.5 -41.498 -131.5s-66.5 -49.5 -116.5 -49.5h-30c-52.667 0 -92.667 15.5 -120 46.5s-41 75.833 -41 134.5v393c0 28.667 3 54.667 9 78s15.333 43.333 28 60s29.167 29.5 49.5 38.5s44.833 13.5 73.5 13.5h30
c29.333 0 54.166 -4.5 74.499 -13.5s36.666 -21.833 48.999 -38.5s21.333 -36.5 27 -59.5s8.5 -48.833 8.5 -77.5v-394zM228.002 574c0 32.667 -11.668 49 -35.001 49c-13.333 0 -22.666 -4 -27.999 -12s-8 -20.333 -8 -37v-408c0 -11.333 2.66699 -21.5 8 -30.5
s15 -13.5 29 -13.5c13.333 0 22.333 4.5 27 13.5s7 19.167 7 30.5v408zM195.001 768h-4c-30.667 0 -56.167 9.16699 -76.5 27.5s-30.5 43.5 -30.5 75.5v5h85v-3c0 -7.33301 2 -13.5 6 -18.5s9.66699 -7.5 17 -7.5h2c7.33301 0 13 2.5 17 7.5s6 11.167 6 18.5v3h84v-5
c0 -32 -10.5 -57.167 -31.5 -75.5s-45.833 -27.5 -74.5 -27.5z" />
    <glyph glyph-name="obreve" unicode="&#x14f;" horiz-adv-x="341" 
d="M15 142l-0.00195312 254.998c0 48.667 12.333 86 37 112s59 39 103 39h30c44 0 78.5 -12.833 103.5 -38.5s37.5 -62.5 37.5 -110.5v-255c0 -22 -3.16699 -42.333 -9.5 -61s-15.666 -35 -27.999 -49s-27.166 -24.833 -44.499 -32.5s-37 -11.5 -59 -11.5h-30
c-24.667 0 -45.834 3.83301 -63.501 11.5s-32.167 18.334 -43.5 32.001s-19.666 29.834 -24.999 48.501s-8 38.667 -8 60zM143.998 399.998l0.00195312 -256c0 -10.667 1.66699 -19.667 5 -27s10.333 -11 21 -11c11.333 0 18.666 3.83301 21.999 11.5s5 16.5 5 26.5v256
c0 11.333 -1.83301 20.333 -5.5 27s-10.834 10 -21.501 10c-10 0 -16.833 -3.33301 -20.5 -10s-5.5 -15.667 -5.5 -27zM173 564.998h-3c-32 0 -58 9.16699 -78 27.5s-30 45.5 -30 81.5v8h85v-6c0 -22 8 -33 24 -33h1c16 0 24 11 24 33v6h83v-8
c0 -36 -10.5 -63.167 -31.5 -81.5s-45.833 -27.5 -74.5 -27.5z" />
    <glyph glyph-name="Ohungarumlaut" unicode="&#x150;" horiz-adv-x="385" 
d="M119 885h90l-27 -114h-87zM232 885h89l-29 -114h-86zM367 170c0 -54.667 -13.8311 -98.5 -41.498 -131.5s-66.5 -49.5 -116.5 -49.5h-30c-52.667 0 -92.667 15.5 -120 46.5s-41 75.833 -41 134.5v393c0 28.667 3 54.667 9 78s15.333 43.333 28 60s29.167 29.5 49.5 38.5
s44.833 13.5 73.5 13.5h30c29.333 0 54.166 -4.5 74.499 -13.5s36.666 -21.833 48.999 -38.5s21.333 -36.5 27 -59.5s8.5 -48.833 8.5 -77.5v-394zM228.002 574c0 32.667 -11.668 49 -35.001 49c-13.333 0 -22.666 -4 -27.999 -12s-8 -20.333 -8 -37v-408
c0 -11.333 2.66699 -21.5 8 -30.5s15 -13.5 29 -13.5c13.333 0 22.333 4.5 27 13.5s7 19.167 7 30.5v408z" />
    <glyph glyph-name="ohungarumlaut" unicode="&#x151;" horiz-adv-x="341" 
d="M104 700h88l-26 -134h-86zM214 700h88l-28 -134h-85zM15 142l-0.00195312 254.998c0 48.667 12.333 86 37 112s59 39 103 39h30c44 0 78.5 -12.833 103.5 -38.5s37.5 -62.5 37.5 -110.5v-255c0 -22 -3.16699 -42.333 -9.5 -61s-15.666 -35 -27.999 -49
s-27.166 -24.833 -44.499 -32.5s-37 -11.5 -59 -11.5h-30c-24.667 0 -45.834 3.83301 -63.501 11.5s-32.167 18.334 -43.5 32.001s-19.666 29.834 -24.999 48.501s-8 38.667 -8 60zM143.998 399.998l0.00195312 -256c0 -10.667 1.66699 -19.667 5 -27s10.333 -11 21 -11
c11.333 0 18.666 3.83301 21.999 11.5s5 16.5 5 26.5v256c0 11.333 -1.83301 20.333 -5.5 27s-10.834 10 -21.501 10c-10 0 -16.833 -3.33301 -20.5 -10s-5.5 -15.667 -5.5 -27z" />
    <glyph glyph-name="OE" unicode="&#x152;" horiz-adv-x="518" 
d="M18 571c0 26 2.33398 50 7.00098 72s12 41 22 57s22.667 28.5 38 37.5s33.666 13.5 54.999 13.5c14 0 26 -1.66699 36 -5s18.667 -7.5 26 -12.5s13.5 -10.5 18.5 -16.5s9.16699 -11.333 12.5 -16v43h266v-132h-138v-161h107v-135h-107v-182h148v-134h-276v45
c-8 -14.667 -19.833 -27.5 -35.5 -38.5s-36.167 -16.5 -61.5 -16.5c-36 0 -64.667 14.667 -86 44s-32 75.333 -32 138v399zM228.001 569c0 16.667 -2.5 29.832 -7.5 39.499s-14.167 14.5 -27.5 14.5s-22.666 -4.83301 -27.999 -14.5s-8 -22.834 -8 -39.501v-393
c0 -17.333 2.66699 -30.666 8 -39.999s14.666 -14 27.999 -14s22.5 4.83301 27.5 14.5s7.5 22.834 7.5 39.501v393z" />
    <glyph glyph-name="oe" unicode="&#x153;" horiz-adv-x="505" 
d="M320 252v-118.001c0 -10.667 1.83301 -18.667 5.5 -24s10.167 -8 19.5 -8c16 0 24 10.667 24 32v81h122v-99c0 -42 -13 -73.833 -39 -95.5s-58 -32.5 -96 -32.5h-27c-16 0 -31.333 3.66699 -46 11s-25 14.666 -31 21.999c-6.66699 -6.66699 -16 -13.5 -28 -20.5
s-27.667 -10.5 -47 -10.5h-24c-24 0 -44.833 3.83301 -62.5 11.5s-32 18.334 -43 32.001s-19.167 29.834 -24.5 48.501s-8 38.667 -8 60v255c0 48.667 11.833 86 35.5 112s57.5 39 101.5 39h26c18 0 34.167 -3.33301 48.5 -10s24.5 -13.667 30.5 -21
c6 7.33301 15.833 14.333 29.5 21s29.167 10 46.5 10h27c42 0 74.333 -11.5 97 -34.5s34 -57.5 34 -103.5v-158h-171zM144 143.999c0 -10.667 1.66895 -19.667 5.00195 -27s10.333 -11 21 -11c11.333 0 18.666 3.83301 21.999 11.5s5 16.5 5 26.5v256
c0 11.333 -1.83301 20.333 -5.5 27s-10.834 10 -21.501 10c-10 0 -16.833 -3.33301 -20.5 -10s-5.5 -15.667 -5.5 -27v-256zM320.002 347.999h52v64c0 11.333 -1.5 20.166 -4.5 26.499s-10.167 9.5 -21.5 9.5s-18.5 -3.16699 -21.5 -9.5s-4.5 -15.166 -4.5 -26.499v-64z" />
    <glyph glyph-name="Racute" unicode="&#x154;" horiz-adv-x="369" 
d="M154 441l25.999 0.000976562c13.333 0 22.833 3.16699 28.5 9.5s8.5 18.166 8.5 35.499v101c0 16 -2.16699 27 -6.5 33s-13.166 9 -26.499 9h-30v-188zM153.999 0.000976562l-133.002 -0.00195312v744h210c40.667 0 71.167 -10.667 91.5 -32s30.5 -52 30.5 -92v-119
c0 -15.333 -1.83301 -28.666 -5.5 -39.999s-8.5 -21 -14.5 -29s-12.5 -14.5 -19.5 -19.5s-13.5 -8.83301 -19.5 -11.5c5.33301 -2 11.333 -5.16699 18 -9.5s12.834 -10 18.501 -17s10.5 -15.5 14.5 -25.5s6 -22 6 -36v-253c0 -16 1.16699 -28 3.5 -36
s4.83301 -14.333 7.5 -19v-5h-133c-3.33301 4 -6.16602 10.333 -8.49902 19s-3.5 21.334 -3.5 38.001v217c0 17.333 -2.5 29 -7.5 35s-14.167 9 -27.5 9h-28v-318zM168.997 884.999h106l-45 -115h-104z" />
    <glyph glyph-name="racute" unicode="&#x155;" horiz-adv-x="308" 
d="M145 471c2 5.33301 5.16602 12.001 9.49902 20.001s9.83301 15.667 16.5 23s14.834 13.666 24.501 18.999s21.167 8 34.5 8h6c21.333 0 36.833 -6 46.5 -18s14.5 -28 14.5 -48v-195h-119v123c0 9.33301 -1 16 -3 20s-6.33301 6 -13 6s-11 -2.16699 -13 -6.5
s-3 -10.833 -3 -19.5v-403h-128v538h127v-67zM153.999 700.001h105l-44 -136h-103z" />
    <glyph glyph-name="uni0156" unicode="&#x156;" horiz-adv-x="369" 
d="M154 441l25.999 0.000976562c13.333 0 22.833 3.16699 28.5 9.5s8.5 18.166 8.5 35.499v101c0 16 -2.16699 27 -6.5 33s-13.166 9 -26.499 9h-30v-188zM153.999 0.000976562l-133.002 -0.00195312v744h210c40.667 0 71.167 -10.667 91.5 -32s30.5 -52 30.5 -92v-119
c0 -15.333 -1.83301 -28.666 -5.5 -39.999s-8.5 -21 -14.5 -29s-12.5 -14.5 -19.5 -19.5s-13.5 -8.83301 -19.5 -11.5c5.33301 -2 11.333 -5.16699 18 -9.5s12.834 -10 18.501 -17s10.5 -15.5 14.5 -25.5s6 -22 6 -36v-253c0 -16 1.16699 -28 3.5 -36
s4.83301 -14.333 7.5 -19v-5h-133c-3.33301 4 -6.16602 10.333 -8.49902 19s-3.5 21.334 -3.5 38.001v217c0 17.333 -2.5 29 -7.5 35s-14.167 9 -27.5 9h-28v-318zM166.997 -203.001c3.33301 8 6.16797 17.5 8.50098 28.5s4.16602 23.833 5.49902 38.5h-43v110h102v-70
c0 -28 -2.83301 -51 -8.5 -69s-10.167 -30.667 -13.5 -38h-51z" />
    <glyph glyph-name="uni0157" unicode="&#x157;" horiz-adv-x="308" 
d="M145 471c2 5.33301 5.16602 12.001 9.49902 20.001s9.83301 15.667 16.5 23s14.834 13.666 24.501 18.999s21.167 8 34.5 8h6c21.333 0 36.833 -6 46.5 -18s14.5 -28 14.5 -48v-195h-119v123c0 9.33301 -1 16 -3 20s-6.33301 6 -13 6s-11 -2.16699 -13 -6.5
s-3 -10.833 -3 -19.5v-403h-128v538h127v-67zM58.999 -202.999c3.33301 8 6.16797 17.5 8.50098 28.5s4.16602 23.833 5.49902 38.5h-43v110h102v-70c0 -28 -2.83301 -51 -8.5 -69s-10.167 -30.667 -13.5 -38h-51z" />
    <glyph glyph-name="Rcaron" unicode="&#x158;" horiz-adv-x="369" 
d="M154 441l25.999 0.000976562c13.333 0 22.833 3.16699 28.5 9.5s8.5 18.166 8.5 35.499v101c0 16 -2.16699 27 -6.5 33s-13.166 9 -26.499 9h-30v-188zM153.999 0.000976562l-133.002 -0.00195312v744h210c40.667 0 71.167 -10.667 91.5 -32s30.5 -52 30.5 -92v-119
c0 -15.333 -1.83301 -28.666 -5.5 -39.999s-8.5 -21 -14.5 -29s-12.5 -14.5 -19.5 -19.5s-13.5 -8.83301 -19.5 -11.5c5.33301 -2 11.333 -5.16699 18 -9.5s12.834 -10 18.501 -17s10.5 -15.5 14.5 -25.5s6 -22 6 -36v-253c0 -16 1.16699 -28 3.5 -36
s4.83301 -14.333 7.5 -19v-5h-133c-3.33301 4 -6.16602 10.333 -8.49902 19s-3.5 21.334 -3.5 38.001v217c0 17.333 -2.5 29 -7.5 35s-14.167 9 -27.5 9h-28v-318zM60.9971 884.999h90l27 -48l27 48h89l-66 -115h-101z" />
    <glyph glyph-name="rcaron" unicode="&#x159;" horiz-adv-x="308" 
d="M145 471c2 5.33301 5.16602 12.001 9.49902 20.001s9.83301 15.667 16.5 23s14.834 13.666 24.501 18.999s21.167 8 34.5 8h6c21.333 0 36.833 -6 46.5 -18s14.5 -28 14.5 -48v-195h-119v123c0 9.33301 -1 16 -3 20s-6.33301 6 -13 6s-11 -2.16699 -13 -6.5
s-3 -10.833 -3 -19.5v-403h-128v538h127v-67zM49.999 700.001h91l24 -62l25 62h89l-62 -136h-105z" />
    <glyph glyph-name="Sacute" unicode="&#x15a;" horiz-adv-x="359" 
d="M173 885h106l-45 -114h-104zM195 753c52 0 88.8311 -11.834 110.498 -35.501s32.5 -60.5 32.5 -110.5v-100h-128v93c0 12 -1.83301 21.5 -5.5 28.5s-11.5 10.5 -23.5 10.5c-11.333 0 -19 -3.5 -23 -10.5s-6 -16.833 -6 -29.5v-17c0 -17.333 2.66699 -33 8 -47
s16.333 -30.333 33 -49l76 -85c16.667 -18.667 30.334 -36.167 41.001 -52.5s19 -32 25 -47s10 -30 12 -45s3 -30.5 3 -46.5v-35c0 -56 -13.167 -100.667 -39.5 -134s-67.166 -50 -122.499 -50h-26c-50.667 0 -88.667 13.167 -114 39.5s-38 64.5 -38 114.5v134h131v-119
c0 -30 11.333 -45 34 -45c22 0 33 18 33 54v14c0 12.667 -0.333008 24 -1 34s-2.5 19.167 -5.5 27.5s-7.33301 16.833 -13 25.5s-13.5 18.334 -23.5 29.001l-77 85c-28 30 -46.833 60 -56.5 90s-14.5 63 -14.5 99v32c0 48 13.5 84.667 40.5 110s63.833 38 110.5 38h27z" />
    <glyph glyph-name="sacute" unicode="&#x15b;" horiz-adv-x="302" 
d="M145 700h105l-44 -134h-103zM289 446v-72.9971h-114v56c0 8.66699 -1.5 15.5 -4.5 20.5s-8.5 7.5 -16.5 7.5c-8.66699 0 -14.334 -2.66699 -17.001 -8s-4 -12 -4 -20v-11c0 -12 1.5 -21.333 4.5 -28s9.16699 -14.667 18.5 -24l71 -70c14 -14 25.333 -26.833 34 -38.5
s15.667 -23.334 21 -35.001s9 -23.667 11 -36s3 -25.5 3 -39.5v-18c0 -18.667 -2.66699 -36.334 -8 -53.001s-13.333 -31.334 -24 -44.001s-24.5 -22.667 -41.5 -30s-36.833 -11 -59.5 -11h-26c-23.333 0 -43.166 3 -59.499 9s-29.833 14.333 -40.5 25
s-18.334 23.167 -23.001 37.5s-7 29.5 -7 45.5v88h118v-72c0 -20 7.66699 -30 23 -30h1c14 0 21 10.333 21 31v12c0 13.333 -1.66699 25 -5 35s-11 20.667 -23 32l-68 65c-24 23.333 -40 45.833 -48 67.5s-12 46.5 -12 74.5v17c0 36 10.333 65 31 87s52.334 33 95.001 33h27
c45.333 0 77 -9.5 95 -28.5s27 -43.5 27 -73.5z" />
    <glyph glyph-name="Scircumflex" unicode="&#x15c;" horiz-adv-x="359" 
d="M300 771h-89l-28 46l-27 -46h-89l65 114h102zM195 753c52 0 88.8311 -11.834 110.498 -35.501s32.5 -60.5 32.5 -110.5v-100h-128v93c0 12 -1.83301 21.5 -5.5 28.5s-11.5 10.5 -23.5 10.5c-11.333 0 -19 -3.5 -23 -10.5s-6 -16.833 -6 -29.5v-17
c0 -17.333 2.66699 -33 8 -47s16.333 -30.333 33 -49l76 -85c16.667 -18.667 30.334 -36.167 41.001 -52.5s19 -32 25 -47s10 -30 12 -45s3 -30.5 3 -46.5v-35c0 -56 -13.167 -100.667 -39.5 -134s-67.166 -50 -122.499 -50h-26c-50.667 0 -88.667 13.167 -114 39.5
s-38 64.5 -38 114.5v134h131v-119c0 -30 11.333 -45 34 -45c22 0 33 18 33 54v14c0 12.667 -0.333008 24 -1 34s-2.5 19.167 -5.5 27.5s-7.33301 16.833 -13 25.5s-13.5 18.334 -23.5 29.001l-77 85c-28 30 -46.833 60 -56.5 90s-14.5 63 -14.5 99v32
c0 48 13.5 84.667 40.5 110s63.833 38 110.5 38h27z" />
    <glyph glyph-name="scircumflex" unicode="&#x15d;" horiz-adv-x="302" 
d="M270 566h-91l-24 60l-25 -60h-89l61 134h106zM289 446v-72.9971h-114v56c0 8.66699 -1.5 15.5 -4.5 20.5s-8.5 7.5 -16.5 7.5c-8.66699 0 -14.334 -2.66699 -17.001 -8s-4 -12 -4 -20v-11c0 -12 1.5 -21.333 4.5 -28s9.16699 -14.667 18.5 -24l71 -70
c14 -14 25.333 -26.833 34 -38.5s15.667 -23.334 21 -35.001s9 -23.667 11 -36s3 -25.5 3 -39.5v-18c0 -18.667 -2.66699 -36.334 -8 -53.001s-13.333 -31.334 -24 -44.001s-24.5 -22.667 -41.5 -30s-36.833 -11 -59.5 -11h-26c-23.333 0 -43.166 3 -59.499 9
s-29.833 14.333 -40.5 25s-18.334 23.167 -23.001 37.5s-7 29.5 -7 45.5v88h118v-72c0 -20 7.66699 -30 23 -30h1c14 0 21 10.333 21 31v12c0 13.333 -1.66699 25 -5 35s-11 20.667 -23 32l-68 65c-24 23.333 -40 45.833 -48 67.5s-12 46.5 -12 74.5v17
c0 36 10.333 65 31 87s52.334 33 95.001 33h27c45.333 0 77 -9.5 95 -28.5s27 -43.5 27 -73.5z" />
    <glyph glyph-name="uni015E" unicode="&#x15e;" horiz-adv-x="359" 
d="M195 753c52 0 88.8311 -11.834 110.498 -35.501s32.5 -60.5 32.5 -110.5v-100h-128v93c0 12 -1.83301 21.5 -5.5 28.5s-11.5 10.5 -23.5 10.5c-11.333 0 -19 -3.5 -23 -10.5s-6 -16.833 -6 -29.5v-17c0 -17.333 2.66699 -33 8 -47s16.333 -30.333 33 -49l76 -85
c16.667 -18.667 30.334 -36.167 41.001 -52.5s19 -32 25 -47s10 -30 12 -45s3 -30.5 3 -46.5v-35c0 -56 -13.167 -100.667 -39.5 -134s-67.166 -50 -122.499 -50h-26c-50.667 0 -88.667 13.167 -114 39.5s-38 64.5 -38 114.5v134h131v-119c0 -30 11.333 -45 34 -45
c22 0 33 18 33 54v14c0 12.667 -0.333008 24 -1 34s-2.5 19.167 -5.5 27.5s-7.33301 16.833 -13 25.5s-13.5 18.334 -23.5 29.001l-77 85c-28 30 -46.833 60 -56.5 90s-14.5 63 -14.5 99v32c0 48 13.5 84.667 40.5 110s63.833 38 110.5 38h27zM164.998 -188.001h-61v63h50
c14.667 0 22 5.66699 22 17v1c0 10 -7.33301 15 -22 15h-35v92h60v-36h3c52.667 -2 79 -26 79 -72v-3c0 -26 -9 -45.333 -27 -58s-41 -19 -69 -19z" />
    <glyph glyph-name="uni015F" unicode="&#x15f;" horiz-adv-x="302" 
d="M289 446v-72.9971h-114v56c0 8.66699 -1.5 15.5 -4.5 20.5s-8.5 7.5 -16.5 7.5c-8.66699 0 -14.334 -2.66699 -17.001 -8s-4 -12 -4 -20v-11c0 -12 1.5 -21.333 4.5 -28s9.16699 -14.667 18.5 -24l71 -70c14 -14 25.333 -26.833 34 -38.5s15.667 -23.334 21 -35.001
s9 -23.667 11 -36s3 -25.5 3 -39.5v-18c0 -18.667 -2.66699 -36.334 -8 -53.001s-13.333 -31.334 -24 -44.001s-24.5 -22.667 -41.5 -30s-36.833 -11 -59.5 -11h-26c-23.333 0 -43.166 3 -59.499 9s-29.833 14.333 -40.5 25s-18.334 23.167 -23.001 37.5s-7 29.5 -7 45.5v88
h118v-72c0 -20 7.66699 -30 23 -30h1c14 0 21 10.333 21 31v12c0 13.333 -1.66699 25 -5 35s-11 20.667 -23 32l-68 65c-24 23.333 -40 45.833 -48 67.5s-12 46.5 -12 74.5v17c0 36 10.333 65 31 87s52.334 33 95.001 33h27c45.333 0 77 -9.5 95 -28.5s27 -43.5 27 -73.5z
M138 -187.997h-61v63h50c14.667 0 22 5.66699 22 17v1c0 10 -7.33301 15 -22 15h-35v92h60v-36h3c52.667 -2 79 -26 79 -72v-3c0 -26 -9 -45.333 -27 -58s-41 -19 -69 -19z" />
    <glyph glyph-name="Scaron" unicode="&#x160;" horiz-adv-x="359" 
d="M195 753c52 0 88.8311 -11.834 110.498 -35.501s32.5 -60.5 32.5 -110.5v-100h-128v93c0 12 -1.83301 21.5 -5.5 28.5s-11.5 10.5 -23.5 10.5c-11.333 0 -19 -3.5 -23 -10.5s-6 -16.833 -6 -29.5v-17c0 -17.333 2.66699 -33 8 -47s16.333 -30.333 33 -49l76 -85
c16.667 -18.667 30.334 -36.167 41.001 -52.5s19 -32 25 -47s10 -30 12 -45s3 -30.5 3 -46.5v-35c0 -56 -13.167 -100.667 -39.5 -134s-67.166 -50 -122.499 -50h-26c-50.667 0 -88.667 13.167 -114 39.5s-38 64.5 -38 114.5v134h131v-119c0 -30 11.333 -45 34 -45
c22 0 33 18 33 54v14c0 12.667 -0.333008 24 -1 34s-2.5 19.167 -5.5 27.5s-7.33301 16.833 -13 25.5s-13.5 18.334 -23.5 29.001l-77 85c-28 30 -46.833 60 -56.5 90s-14.5 63 -14.5 99v32c0 48 13.5 84.667 40.5 110s63.833 38 110.5 38h27zM64.998 885.999h90l27 -48
l27 48h89l-66 -115h-101z" />
    <glyph glyph-name="scaron" unicode="&#x161;" horiz-adv-x="302" 
d="M289 446v-72.9971h-114v56c0 8.66699 -1.5 15.5 -4.5 20.5s-8.5 7.5 -16.5 7.5c-8.66699 0 -14.334 -2.66699 -17.001 -8s-4 -12 -4 -20v-11c0 -12 1.5 -21.333 4.5 -28s9.16699 -14.667 18.5 -24l71 -70c14 -14 25.333 -26.833 34 -38.5s15.667 -23.334 21 -35.001
s9 -23.667 11 -36s3 -25.5 3 -39.5v-18c0 -18.667 -2.66699 -36.334 -8 -53.001s-13.333 -31.334 -24 -44.001s-24.5 -22.667 -41.5 -30s-36.833 -11 -59.5 -11h-26c-23.333 0 -43.166 3 -59.499 9s-29.833 14.333 -40.5 25s-18.334 23.167 -23.001 37.5s-7 29.5 -7 45.5v88
h118v-72c0 -20 7.66699 -30 23 -30h1c14 0 21 10.333 21 31v12c0 13.333 -1.66699 25 -5 35s-11 20.667 -23 32l-68 65c-24 23.333 -40 45.833 -48 67.5s-12 46.5 -12 74.5v17c0 36 10.333 65 31 87s52.334 33 95.001 33h27c45.333 0 77 -9.5 95 -28.5s27 -43.5 27 -73.5z
M40 702.003h91l24 -62l25 62h89l-62 -136h-105z" />
    <glyph glyph-name="Tcommaaccent" unicode="&#x162;" 
d="M148 -203c3.33301 8 6.16797 17.5 8.50098 28.5s4.16602 23.833 5.49902 38.5h-43v110h102v-70c0 -28 -2.83301 -51 -8.5 -69s-10.167 -30.667 -13.5 -38h-51zM331.002 744v-131h-95v-613h-133v613h-95v131h323z" />
    <glyph glyph-name="tcommaaccent" unicode="&#x163;" horiz-adv-x="267" 
d="M128 0c-17.333 0 -31.833 6.16797 -43.5 18.501s-17.5 28.166 -17.5 47.499v353h-61v119h61v178h127v-178h62v-119h-62v-276c0 -7.33301 1 -12.833 3 -16.5s7.33301 -5.5 16 -5.5h43v-121h-128zM149 -202.999c3.33301 8 6.16797 17.5 8.50098 28.5
s4.16602 23.833 5.49902 38.5h-43v110h102v-70c0 -28 -2.83301 -51 -8.5 -69s-10.167 -30.667 -13.5 -38h-51z" />
    <glyph glyph-name="Tcaron" unicode="&#x164;" 
d="M331 744v-131h-95v-613h-133v613h-95v131h323zM53 885h90l27 -48l27 48h89l-66 -115h-101z" />
    <glyph glyph-name="tcaron" unicode="&#x165;" horiz-adv-x="267" 
d="M217 744h87l-12 -150h-81zM128 0c-17.333 0 -31.833 6.16797 -43.5 18.501s-17.5 28.166 -17.5 47.499v353h-61v119h61v178h127v-178h62v-119h-62v-276c0 -7.33301 1 -12.833 3 -16.5s7.33301 -5.5 16 -5.5h43v-121h-128z" />
    <glyph glyph-name="Tbar" unicode="&#x166;" 
d="M35 349v114h269v-114h-269zM331 744v-131h-95v-613h-133v613h-95v131h323z" />
    <glyph glyph-name="tbar" unicode="&#x167;" horiz-adv-x="267" 
d="M128 0c-17.333 0 -31.833 6.16797 -43.5 18.501s-17.5 28.166 -17.5 47.499v169h-61v104h61v80h-61v119h61v178h127v-178h62v-119h-62v-80h62v-104h-62v-92c0 -7.33301 1 -12.833 3 -16.5s7.33301 -5.5 16 -5.5h43v-121h-128z" />
    <glyph glyph-name="Utilde" unicode="&#x168;" horiz-adv-x="379" 
d="M20 744h137v-576c0 -30.667 11 -46 33 -46c21.333 0 32 15.333 32 46v576h137v-571c0 -62 -13.667 -108.167 -41 -138.5s-65 -45.5 -113 -45.5h-33c-48.667 0 -86.167 15.167 -112.5 45.5s-39.5 76.5 -39.5 138.5v571zM190 787l-14.5 6.5
c-3.66699 1.66699 -7.16699 2.5 -10.5 2.5c-5.33301 0 -8 -3.66699 -8 -11v-16h-72v34c0 25.333 5.16699 44.5 15.5 57.5s24.166 19.5 41.499 19.5c10 0 19 -1 27 -3s17 -5.33301 27 -10c8.66699 -4 14.667 -6.66699 18 -8s6.33301 -2 9 -2c4 0 6 3.33301 6 10v16h72v-34
c0 -28 -6.16699 -47.667 -18.5 -59s-25.166 -17 -38.499 -17c-8.66699 0 -17 1 -25 3s-17.667 5.66699 -29 11z" />
    <glyph glyph-name="utilde" unicode="&#x169;" 
d="M321 0l-123.998 -0.00195312v66c-12 -18 -25.333 -33.833 -40 -47.5s-33.667 -20.5 -57 -20.5h-4c-12.667 0 -23.834 2.83301 -33.501 8.5s-17.834 13 -24.501 22s-11.667 19 -15 30s-5 21.833 -5 32.5v447h129v-395c0 -9.33301 1.5 -17.166 4.5 -23.499
s8.83301 -9.5 17.5 -9.5c10 0 16.667 3.33301 20 10s5 15.334 5 26.001v392h127v-538zM281.002 677.998l0.00195312 -56c0 -16.667 -4.83301 -30.667 -14.5 -42s-22.834 -17 -39.501 -17c-11.333 0 -20.666 1.33301 -27.999 4s-18 7.66699 -32 15
c-7.33301 3.33301 -12.333 5.66602 -15 6.99902s-5.33398 2 -8.00098 2c-3.33301 0 -5.33301 -1.16699 -6 -3.5s-1 -5.16602 -1 -8.49902v-16h-72v47c0 20 4.83301 36.333 14.5 49s23.167 19 40.5 19c11.333 0 20.666 -1.5 27.999 -4.5s17.666 -7.5 30.999 -13.5
c7.33301 -3.33301 12.333 -5.5 15 -6.5s5.33398 -1.5 8.00098 -1.5c4 0 6 3.33301 6 10v16h73z" />
    <glyph glyph-name="Umacron" unicode="&#x16a;" horiz-adv-x="379" 
d="M20 744h137v-576c0 -30.667 11 -46 33 -46c21.333 0 32 15.333 32 46v576h137v-571c0 -62 -13.667 -108.167 -41 -138.5s-65 -45.5 -113 -45.5h-33c-48.667 0 -86.167 15.167 -112.5 45.5s-39.5 76.5 -39.5 138.5v571zM93 865h193v-88h-193v88z" />
    <glyph glyph-name="umacron" unicode="&#x16b;" 
d="M321 0l-123.998 -0.00195312v66c-12 -18 -25.333 -33.833 -40 -47.5s-33.667 -20.5 -57 -20.5h-4c-12.667 0 -23.834 2.83301 -33.501 8.5s-17.834 13 -24.501 22s-11.667 19 -15 30s-5 21.833 -5 32.5v447h129v-395c0 -9.33301 1.5 -17.166 4.5 -23.499
s8.83301 -9.5 17.5 -9.5c10 0 16.667 3.33301 20 10s5 15.334 5 26.001v392h127v-538zM75.002 662.998h191v-87h-191v87z" />
    <glyph glyph-name="Ubreve" unicode="&#x16c;" horiz-adv-x="379" 
d="M20 744h137v-576c0 -30.667 11 -46 33 -46c21.333 0 32 15.333 32 46v576h137v-571c0 -62 -13.667 -108.167 -41 -138.5s-65 -45.5 -113 -45.5h-33c-48.667 0 -86.167 15.167 -112.5 45.5s-39.5 76.5 -39.5 138.5v571zM192 767h-4c-30.667 0 -56.167 9.16699 -76.5 27.5
s-30.5 43.5 -30.5 75.5v5h85v-3c0 -7.33301 2 -13.5 6 -18.5s9.66699 -7.5 17 -7.5h2c7.33301 0 13 2.5 17 7.5s6 11.167 6 18.5v3h84v-5c0 -32 -10.5 -57.167 -31.5 -75.5s-45.833 -27.5 -74.5 -27.5z" />
    <glyph glyph-name="ubreve" unicode="&#x16d;" 
d="M321 0l-123.998 -0.00195312v66c-12 -18 -25.333 -33.833 -40 -47.5s-33.667 -20.5 -57 -20.5h-4c-12.667 0 -23.834 2.83301 -33.501 8.5s-17.834 13 -24.501 22s-11.667 19 -15 30s-5 21.833 -5 32.5v447h129v-395c0 -9.33301 1.5 -17.166 4.5 -23.499
s8.83301 -9.5 17.5 -9.5c10 0 16.667 3.33301 20 10s5 15.334 5 26.001v392h127v-538zM172.002 562.998h-3c-32 0 -58 9.16699 -78 27.5s-30 45.5 -30 81.5v8h85v-6c0 -22 8 -33 24 -33h1c16 0 24 11 24 33v6h83v-8c0 -36 -10.5 -63.167 -31.5 -81.5
s-45.833 -27.5 -74.5 -27.5z" />
    <glyph glyph-name="Uring" unicode="&#x16e;" horiz-adv-x="379" 
d="M20 744h137v-576c0 -30.667 11 -46 33 -46c21.333 0 32 15.333 32 46v576h137v-571c0 -62 -13.667 -108.167 -41 -138.5s-65 -45.5 -113 -45.5h-33c-48.667 0 -86.167 15.167 -112.5 45.5s-39.5 76.5 -39.5 138.5v571zM189 811c10 0 17.833 3.16699 23.5 9.5
s8.5 14.166 8.5 23.499s-2.83301 17.166 -8.5 23.499s-13.5 9.5 -23.5 9.5s-17.833 -3.16699 -23.5 -9.5s-8.5 -14.166 -8.5 -23.499s2.83301 -17.166 8.5 -23.499s13.5 -9.5 23.5 -9.5zM189 765c-23.333 0 -42.5 7.33301 -57.5 22s-22.5 33.667 -22.5 57
s7.5 42.333 22.5 57s34.167 22 57.5 22s42.5 -7.33301 57.5 -22s22.5 -33.667 22.5 -57s-7.5 -42.333 -22.5 -57s-34.167 -22 -57.5 -22z" />
    <glyph glyph-name="uring" unicode="&#x16f;" 
d="M321 0l-123.998 -0.00195312v66c-12 -18 -25.333 -33.833 -40 -47.5s-33.667 -20.5 -57 -20.5h-4c-12.667 0 -23.834 2.83301 -33.501 8.5s-17.834 13 -24.501 22s-11.667 19 -15 30s-5 21.833 -5 32.5v447h129v-395c0 -9.33301 1.5 -17.166 4.5 -23.499
s8.83301 -9.5 17.5 -9.5c10 0 16.667 3.33301 20 10s5 15.334 5 26.001v392h127v-538zM169.002 607.998c10 0 17.833 3.16699 23.5 9.5s8.5 14.166 8.5 23.499s-2.83301 17.166 -8.5 23.499s-13.5 9.5 -23.5 9.5s-17.833 -3.16699 -23.5 -9.5s-8.5 -14.166 -8.5 -23.499
s2.83301 -17.166 8.5 -23.499s13.5 -9.5 23.5 -9.5zM169.002 561.998c-23.333 0 -42.5 7.33301 -57.5 22s-22.5 33.667 -22.5 57s7.5 42.333 22.5 57s34.167 22 57.5 22s42.5 -7.33301 57.5 -22s22.5 -33.667 22.5 -57s-7.5 -42.333 -22.5 -57s-34.167 -22 -57.5 -22z" />
    <glyph glyph-name="Uhungarumlaut" unicode="&#x170;" horiz-adv-x="379" 
d="M20 744h137v-576c0 -30.667 11 -46 33 -46c21.333 0 32 15.333 32 46v576h137v-571c0 -62 -13.667 -108.167 -41 -138.5s-65 -45.5 -113 -45.5h-33c-48.667 0 -86.167 15.167 -112.5 45.5s-39.5 76.5 -39.5 138.5v571zM115 885h90l-27 -115h-87zM228 885h89l-29 -115h-86
z" />
    <glyph glyph-name="uhungarumlaut" unicode="&#x171;" 
d="M321 0l-123.998 -0.00195312v66c-12 -18 -25.333 -33.833 -40 -47.5s-33.667 -20.5 -57 -20.5h-4c-12.667 0 -23.834 2.83301 -33.501 8.5s-17.834 13 -24.501 22s-11.667 19 -15 30s-5 21.833 -5 32.5v447h129v-395c0 -9.33301 1.5 -17.166 4.5 -23.499
s8.83301 -9.5 17.5 -9.5c10 0 16.667 3.33301 20 10s5 15.334 5 26.001v392h127v-538zM99.002 699.998h88l-26 -136h-86zM209.002 699.998h88l-28 -136h-85z" />
    <glyph glyph-name="Uogonek" unicode="&#x172;" horiz-adv-x="379" 
d="M153 -109c0 17.333 5.83105 34.168 17.498 50.501s27.167 32.166 46.5 47.499h-12h-33c-48.667 0 -86.167 15.333 -112.5 46s-39.5 76.667 -39.5 138v571h137v-576c0 -30.667 11 -46 33 -46c21.333 0 32 15.333 32 46v576h137v-571
c0 -25.333 -2.16699 -46.833 -6.5 -64.5s-9.83301 -33 -16.5 -46s-14.167 -24.5 -22.5 -34.5l-23.5 -28c-17.333 -20 -29.166 -36 -35.499 -48s-9.5 -24 -9.5 -36v-4c0 -13.333 8.66699 -20 26 -20h18v-80h-58c-21.333 0 -39.666 5.33301 -54.999 16s-23 26.667 -23 48v15v0
z" />
    <glyph glyph-name="uogonek" unicode="&#x173;" 
d="M321 0l-123.998 -0.00195312v66c-12 -18 -25.333 -33.833 -40 -47.5s-33.667 -20.5 -57 -20.5h-4c-12.667 0 -23.834 2.83301 -33.501 8.5s-17.834 13 -24.501 22s-11.667 19 -15 30s-5 21.833 -5 32.5v447h129v-395c0 -9.33301 1.5 -17.166 4.5 -23.499
s8.83301 -9.5 17.5 -9.5c10 0 16.667 3.33301 20 10s5 15.334 5 26.001v392h127v-538zM185.002 -109.002c0 18.667 6.83203 36.6689 20.499 54.002s31.5 35.666 53.5 54.999h62c-16.667 -20.667 -28.167 -36.834 -34.5 -48.501s-9.5 -23.5 -9.5 -35.5v-4
c0 -13.333 8.66699 -20 26 -20h18v-80h-58c-21.333 0 -39.666 5.33301 -54.999 16s-23 26.667 -23 48v15z" />
    <glyph glyph-name="Wcircumflex" unicode="&#x174;" horiz-adv-x="572" 
d="M354 744l47 -472l44 472h128l-95 -744h-151l-39 409l-39 -409h-157l-93 744h138l42 -477l48 477h127zM404 770h-89l-28 47l-27 -47h-89l65 115h102z" />
    <glyph glyph-name="wcircumflex" unicode="&#x175;" horiz-adv-x="498" 
d="M79 0l-81 538h126l35 -333l37 333h113l36 -337l35 337h120l-82 -538h-133l-35 292l-34 -292h-137zM364 564h-91l-24 62l-25 -62h-89l61 136h106z" />
    <glyph glyph-name="Ycircumflex" unicode="&#x176;" horiz-adv-x="331" 
d="M237 293v-293h-133v288l-110 456h133l45 -264l45 264h120zM288 770h-89l-28 47l-27 -47h-89l65 115h102z" />
    <glyph glyph-name="ycircumflex" unicode="&#x177;" horiz-adv-x="315" 
d="M-2 538l125.999 0.000976562l36 -297l35 297h123l-113 -645c-5.33301 -28 -14.166 -48.5 -26.499 -61.5s-28.166 -19.5 -47.499 -19.5h-116v119h53c8.66699 0 14.167 2.16699 16.5 6.5s4.16602 11.166 5.49902 20.499l2 21c0.666992 5.33301 1 9.83301 1 13.5
s-0.666992 9.16699 -2 16.5zM272.999 564.001h-91l-24 62l-25 -62h-89l61 136h106z" />
    <glyph glyph-name="Ydieresis" unicode="&#x178;" horiz-adv-x="331" 
d="M237 293v-293h-133v288l-110 456h133l45 -264l45 264h120zM285 770h-100v106h100v-106zM160 770h-100v106h100v-106z" />
    <glyph glyph-name="Zacute" unicode="&#x179;" horiz-adv-x="334" 
d="M314 744v-118l-162 -496h173v-130h-316v120l162 496h-151v128h294zM152 885h106l-45 -115h-104z" />
    <glyph glyph-name="zacute" unicode="&#x17a;" horiz-adv-x="270" 
d="M257 538v-106l-124 -318h131v-114h-258v107l125 319h-115v112h241zM125 700h105l-44 -136h-103z" />
    <glyph glyph-name="Zdotaccent" unicode="&#x17b;" horiz-adv-x="334" 
d="M314 744v-118l-162 -496h173v-130h-316v120l162 496h-151v128h294zM232 770h-128v126h128v-126z" />
    <glyph glyph-name="zdotaccent" unicode="&#x17c;" horiz-adv-x="270" 
d="M257 538v-106l-124 -318h131v-114h-258v107l125 319h-115v112h241zM201 564h-128v126h128v-126z" />
    <glyph glyph-name="Zcaron" unicode="&#x17d;" horiz-adv-x="334" 
d="M314 744v-118l-162 -496h173v-130h-316v120l162 496h-151v128h294zM51 885h90l27 -48l27 48h89l-66 -115h-101z" />
    <glyph glyph-name="zcaron" unicode="&#x17e;" horiz-adv-x="270" 
d="M257 538v-106l-124 -318h131v-114h-258v107l125 319h-115v112h241zM22 700h91l24 -62l25 62h89l-62 -136h-105z" />
    <glyph glyph-name="uni0192" unicode="&#x192;" horiz-adv-x="276" 
d="M64 362l-58.001 0.000976562v119h63l9 175c1.33301 28 9.66602 49.667 24.999 65s42 23 80 23h83v-113h-37c-9.33301 0 -15.666 -1.83301 -18.999 -5.5s-5.66602 -10.834 -6.99902 -21.501l-6 -123h69v-119h-75l-26 -550h-127z" />
    <glyph glyph-name="Aringacute" unicode="&#x1fa;" horiz-adv-x="349" 
d="M170 811c10 0 17.833 3.16699 23.5 9.5s8.5 14.166 8.5 23.499s-2.83301 17.166 -8.5 23.499s-13.5 9.5 -23.5 9.5s-17.833 -3.16699 -23.5 -9.5s-8.5 -14.166 -8.5 -23.499s2.83301 -17.166 8.5 -23.499s13.5 -9.5 23.5 -9.5zM170 765c-23.333 0 -42.5 7.33301 -57.5 22
s-22.5 33.667 -22.5 57s7.5 42.333 22.5 57s34.167 22 57.5 22s42.5 -7.33301 57.5 -22s22.5 -33.667 22.5 -57s-7.5 -42.333 -22.5 -57s-34.167 -22 -57.5 -22zM163 1054h106l-45 -115h-104zM208 125h-80l-12 -125h-118l94 744h158l101 -744h-129zM141 253h54l-28 255z" />
    <glyph glyph-name="aringacute" unicode="&#x1fb;" 
d="M154 872h105l-44 -136h-103zM161 608c10 0 17.833 3.16699 23.5 9.5s8.5 14.166 8.5 23.499s-2.83301 17.166 -8.5 23.499s-13.5 9.5 -23.5 9.5s-17.833 -3.16699 -23.5 -9.5s-8.5 -14.166 -8.5 -23.499s2.83301 -17.166 8.5 -23.499s13.5 -9.5 23.5 -9.5zM161 562
c-23.333 0 -42.5 7.33301 -57.5 22s-22.5 33.667 -22.5 57s7.5 42.333 22.5 57s34.167 22 57.5 22s42.5 -7.33301 57.5 -22s22.5 -33.667 22.5 -57s-7.5 -42.333 -22.5 -57s-34.167 -22 -57.5 -22zM182 265c-3.33301 -2 -8.49902 -5.33203 -15.499 -9.99902
s-12.833 -9.66699 -17.5 -15s-7.83398 -10.833 -9.50098 -16.5s-2.5 -13.834 -2.5 -24.501v-65c0 -10 1.5 -17.833 4.5 -23.5s8.5 -8.5 16.5 -8.5c16 0 24 10.667 24 32v131zM14.001 205.001c0 28 4.50098 50.3369 13.501 67.0039s23.167 31 42.5 43c6 4 14 8.5 24 13.5
l30.5 15l29.5 14c9.33301 4.33301 16 7.83301 20 10.5c2.66699 1.33301 4.66699 3.16602 6 5.49902s2 7.16602 2 14.499v29c0 11.333 -1.83301 19 -5.5 23s-9.16699 6 -16.5 6h-4c-8.66699 0 -14.5 -2.5 -17.5 -7.5s-4.5 -12.167 -4.5 -21.5v-53h-114v74
c0 12 1.66699 24.167 5 36.5s9.66602 23.666 18.999 33.999s22.166 18.833 38.499 25.5s37.5 10 63.5 10h23c26.667 0 48.834 -2.83301 66.501 -8.5s31.667 -13.834 42 -24.501s17.5 -23.167 21.5 -37.5s6 -30.166 6 -47.499v-297c0 -5.33301 1.16699 -9.16602 3.5 -11.499
s7.5 -3.5 15.5 -3.5h14v-114h-119c-12.667 0 -22 4.66699 -28 14s-9 25 -9 47c-3.33301 -6.66699 -7.66602 -13.834 -12.999 -21.501s-11.833 -14.834 -19.5 -21.501s-16.334 -12.167 -26.001 -16.5s-20.5 -6.5 -32.5 -6.5h-4c-12 0 -22.667 2.66699 -32 8
s-17 12.333 -23 21s-10.5 18.5 -13.5 29.5s-4.5 22.5 -4.5 34.5v117z" />
    <glyph glyph-name="AEacute" unicode="&#x1fc;" horiz-adv-x="515" 
d="M225 0v131h-81l-22 -131h-128l140 744h362v-132h-138v-161h107v-135h-107v-182h148v-134h-281zM225 258v344l-59 -344h59zM302 885h106l-45 -115h-104z" />
    <glyph glyph-name="aeacute" unicode="&#x1fd;" horiz-adv-x="489" 
d="M193 63c-10.667 -18 -24.3242 -33.832 -40.9912 -47.499s-36.667 -20.5 -60 -20.5h-4c-12.667 0 -23.667 2.66699 -33 8s-17 12.333 -23 21s-10.5 18.5 -13.5 29.5s-4.5 22.5 -4.5 34.5v98c0 28 4.5 50.333 13.5 67s23.167 31 42.5 43c6 4 14 8.5 24 13.5l30.5 15
l29.5 14c9.33301 4.33301 16 7.83301 20 10.5c2.66699 1.33301 4.66699 3.16602 6 5.49902s2 7.16602 2 14.499v48c0 11.333 -1.83301 19 -5.5 23s-9.16699 6 -16.5 6h-4c-8.66699 0 -14.5 -2.5 -17.5 -7.5s-4.5 -12.167 -4.5 -21.5v-72h-114v93c0 12 1.66699 24.167 5 36.5
s9.66602 23.666 18.999 33.999s22.166 18.833 38.499 25.5s37.5 10 63.5 10h23c25.333 0 43.666 -3.16699 54.999 -9.5s19.666 -12.166 24.999 -17.499c4 5.33301 12.167 11.833 24.5 19.5s30.833 11.5 55.5 11.5h15c42 0 74.5 -11.167 97.5 -33.5
s34.5 -60.166 34.5 -113.499v-150h-171v-117c0 -11.333 1.66699 -19.5 5 -24.5s9.66602 -7.5 18.999 -7.5c10 0 16.667 3 20 9s5 13.667 5 23v80h122v-90c0 -40.667 -11.333 -73.167 -34 -97.5s-57 -36.5 -103 -36.5h-21c-20.667 0 -38.334 2.33301 -53.001 7
s-26.834 10.5 -36.501 17.5s-17.334 14.833 -23.001 23.5s-9.83398 17 -12.501 25zM182.01 246.001c-3.33301 -2 -8.49902 -5.33203 -15.499 -9.99902s-12.833 -9.66699 -17.5 -15s-7.83398 -10.833 -9.50098 -16.5s-2.5 -13.834 -2.5 -24.501v-46
c0 -10 1.5 -17.833 4.5 -23.5s8.5 -8.5 16.5 -8.5c16 0 24 10.667 24 32v112zM305.011 347.002h52v69c0 9.33301 -1.83301 17 -5.5 23s-10.5 9 -20.5 9c-17.333 0 -26 -10.333 -26 -31v-70zM237.011 700.002h105l-44 -136h-103z" />
    <glyph glyph-name="Oslashacute" unicode="&#x1fe;" horiz-adv-x="381" 
d="M180 885h106l-45 -114h-104zM363 170c0 -54.667 -13.832 -98.5 -41.499 -131.5s-66.5 -49.5 -116.5 -49.5h-25c-38.667 0 -70.667 11.667 -96 35l-10 -24h-74l33 82c-4.66699 12 -8.33398 25.333 -11.001 40s-4 30.667 -4 48v393c0 28.667 3 54.667 9 78
s15.333 43.333 28 60s29.167 29.5 49.5 38.5s44.833 13.5 73.5 13.5h25c38 0 69 -11 93 -33l10 24h74l-33 -83c10.667 -24 16 -56.333 16 -97v-394zM192.001 122c14.667 0 24.334 4.5 29.001 13.5s7 19.167 7 30.5v228l-75 -206v-22c0 -11.333 2.66699 -21.5 8 -30.5
s15.666 -13.5 30.999 -13.5zM191.001 623c-14 0 -23.833 -4 -29.5 -12s-8.5 -20.333 -8.5 -37v-224l75 209v15c0 32.667 -12.333 49 -37 49z" />
    <glyph glyph-name="oslashacute" unicode="&#x1ff;" horiz-adv-x="336" 
d="M158 700h105l-44 -134h-103zM15 142v255c0 48.667 12.333 86 37 112s59 39 103 39h26c19.333 0 36 -2.66699 50 -8s26.333 -12.333 37 -21l10 19h66l-35 -69c3.33301 -9.33301 6.16602 -20 8.49902 -32s3.5 -24.667 3.5 -38v-255c0 -22 -3.16699 -42.333 -9.5 -61
s-15.5 -35 -27.5 -49s-26.667 -24.833 -44 -32.5s-37 -11.5 -59 -11.5h-26c-18.667 0 -35.167 3 -49.5 9s-26.166 13 -35.499 21l-10 -20h-67l36 70c-5.33301 10.667 -9 22 -11 34s-3 24.667 -3 38zM196 401c0 11.333 -1.83301 20.333 -5.5 27s-11.167 10 -22.5 10
c-10.667 0 -18 -3.33301 -22 -10s-6 -15.667 -6 -27v-137l56 123v14zM168 105c11.333 0 18.833 3.83301 22.5 11.5s5.5 16.5 5.5 26.5v129l-56 -121v-8c0 -10.667 1.83301 -19.667 5.5 -27s11.167 -11 22.5 -11z" />
    <glyph glyph-name="uni0218" unicode="&#x218;" horiz-adv-x="359" 
d="M195 753c52 0 88.8311 -11.834 110.498 -35.501s32.5 -60.5 32.5 -110.5v-100h-128v93c0 12 -1.83301 21.5 -5.5 28.5s-11.5 10.5 -23.5 10.5c-11.333 0 -19 -3.5 -23 -10.5s-6 -16.833 -6 -29.5v-17c0 -17.333 2.66699 -33 8 -47s16.333 -30.333 33 -49l76 -85
c16.667 -18.667 30.334 -36.167 41.001 -52.5s19 -32 25 -47s10 -30 12 -45s3 -30.5 3 -46.5v-35c0 -56 -13.167 -100.667 -39.5 -134s-67.166 -50 -122.499 -50h-26c-50.667 0 -88.667 13.167 -114 39.5s-38 64.5 -38 114.5v134h131v-119c0 -30 11.333 -45 34 -45
c22 0 33 18 33 54v14c0 12.667 -0.333008 24 -1 34s-2.5 19.167 -5.5 27.5s-7.33301 16.833 -13 25.5s-13.5 18.334 -23.5 29.001l-77 85c-28 30 -46.833 60 -56.5 90s-14.5 63 -14.5 99v32c0 48 13.5 84.667 40.5 110s63.833 38 110.5 38h27zM155.998 -205.001
c3.33301 8 6.16797 17.5 8.50098 28.5s4.16602 23.833 5.49902 38.5h-43v110h102v-70c0 -28 -2.83301 -51 -8.5 -69s-10.167 -30.667 -13.5 -38h-51z" />
    <glyph glyph-name="uni0219" unicode="&#x219;" horiz-adv-x="302" 
d="M289 446v-72.9971h-114v56c0 8.66699 -1.5 15.5 -4.5 20.5s-8.5 7.5 -16.5 7.5c-8.66699 0 -14.334 -2.66699 -17.001 -8s-4 -12 -4 -20v-11c0 -12 1.5 -21.333 4.5 -28s9.16699 -14.667 18.5 -24l71 -70c14 -14 25.333 -26.833 34 -38.5s15.667 -23.334 21 -35.001
s9 -23.667 11 -36s3 -25.5 3 -39.5v-18c0 -18.667 -2.66699 -36.334 -8 -53.001s-13.333 -31.334 -24 -44.001s-24.5 -22.667 -41.5 -30s-36.833 -11 -59.5 -11h-26c-23.333 0 -43.166 3 -59.499 9s-29.833 14.333 -40.5 25s-18.334 23.167 -23.001 37.5s-7 29.5 -7 45.5v88
h118v-72c0 -20 7.66699 -30 23 -30h1c14 0 21 10.333 21 31v12c0 13.333 -1.66699 25 -5 35s-11 20.667 -23 32l-68 65c-24 23.333 -40 45.833 -48 67.5s-12 46.5 -12 74.5v17c0 36 10.333 65 31 87s52.334 33 95.001 33h27c45.333 0 77 -9.5 95 -28.5s27 -43.5 27 -73.5z
M128 -203.997c3.33301 8 6.16797 17.5 8.50098 28.5s4.16602 23.833 5.49902 38.5h-43v110h102v-70c0 -28 -2.83301 -51 -8.5 -69s-10.167 -30.667 -13.5 -38h-51z" />
    <glyph glyph-name="uni021A" unicode="&#x21a;" 
d="M148 -203c3.33301 8 6.16797 17.5 8.50098 28.5s4.16602 23.833 5.49902 38.5h-43v110h102v-70c0 -28 -2.83301 -51 -8.5 -69s-10.167 -30.667 -13.5 -38h-51zM331.002 744v-131h-95v-613h-133v613h-95v131h323z" />
    <glyph glyph-name="uni021B" unicode="&#x21b;" horiz-adv-x="267" 
d="M128 0c-17.333 0 -31.833 6.16797 -43.5 18.501s-17.5 28.166 -17.5 47.499v353h-61v119h61v178h127v-178h62v-119h-62v-276c0 -7.33301 1 -12.833 3 -16.5s7.33301 -5.5 16 -5.5h43v-121h-128zM149 -202.999c3.33301 8 6.16797 17.5 8.50098 28.5
s4.16602 23.833 5.49902 38.5h-43v110h102v-70c0 -28 -2.83301 -51 -8.5 -69s-10.167 -30.667 -13.5 -38h-51z" />
    <glyph glyph-name="uni0237" unicode="&#x237;" horiz-adv-x="165" 
d="M1 -69c6.66699 0 11.333 1.33105 14 3.99805s4 8.33398 4 17.001v586h128v-654c0 -19.333 -6.5 -36.166 -19.5 -50.499s-31.167 -21.5 -54.5 -21.5h-124v119h52z" />
    <glyph glyph-name="circumflex" unicode="&#x2c6;" horiz-adv-x="342" 
d="M286 564h-91l-24 62l-25 -62h-89l61 136h106z" />
    <glyph glyph-name="caron" unicode="&#x2c7;" horiz-adv-x="342" 
d="M57 700h91l24 -62l25 62h89l-62 -136h-105z" />
    <glyph glyph-name="breve" unicode="&#x2d8;" horiz-adv-x="342" 
d="M174 563h-3c-32 0 -58 9.16699 -78 27.5s-30 45.5 -30 81.5v8h85v-6c0 -22 8 -33 24 -33h1c16 0 24 11 24 33v6h83v-8c0 -36 -10.5 -63.167 -31.5 -81.5s-45.833 -27.5 -74.5 -27.5z" />
    <glyph glyph-name="dotaccent" unicode="&#x2d9;" horiz-adv-x="342" 
d="M235 564h-128v126h128v-126z" />
    <glyph glyph-name="ring" unicode="&#x2da;" horiz-adv-x="342" 
d="M171 608c10 0 17.833 3.16699 23.5 9.5s8.5 14.166 8.5 23.499s-2.83301 17.166 -8.5 23.499s-13.5 9.5 -23.5 9.5s-17.833 -3.16699 -23.5 -9.5s-8.5 -14.166 -8.5 -23.499s2.83301 -17.166 8.5 -23.499s13.5 -9.5 23.5 -9.5zM171 562c-23.333 0 -42.5 7.33301 -57.5 22
s-22.5 33.667 -22.5 57s7.5 42.333 22.5 57s34.167 22 57.5 22s42.5 -7.33301 57.5 -22s22.5 -33.667 22.5 -57s-7.5 -42.333 -22.5 -57s-34.167 -22 -57.5 -22z" />
    <glyph glyph-name="ogonek" unicode="&#x2db;" horiz-adv-x="342" 
d="M102 -109c0 18.667 6.83203 36.6689 20.499 54.002s31.5 35.666 53.5 54.999h62c-16.667 -20.667 -28.167 -36.834 -34.5 -48.501s-9.5 -23.5 -9.5 -35.5v-4c0 -13.333 8.66699 -20 26 -20h18v-80h-58c-21.333 0 -39.666 5.33301 -54.999 16s-23 26.667 -23 48v15z" />
    <glyph glyph-name="tilde" unicode="&#x2dc;" horiz-adv-x="342" 
d="M279 678l0.00195312 -56c0 -16.667 -4.83301 -30.667 -14.5 -42s-22.834 -17 -39.501 -17c-11.333 0 -20.666 1.33301 -27.999 4s-18 7.66699 -32 15c-7.33301 3.33301 -12.333 5.66602 -15 6.99902s-5.33398 2 -8.00098 2c-3.33301 0 -5.33301 -1.16699 -6 -3.5
s-1 -5.16602 -1 -8.49902v-16h-72v47c0 20 4.83301 36.333 14.5 49s23.167 19 40.5 19c11.333 0 20.666 -1.5 27.999 -4.5s17.666 -7.5 30.999 -13.5c7.33301 -3.33301 12.333 -5.5 15 -6.5s5.33398 -1.5 8.00098 -1.5c4 0 6 3.33301 6 10v16h73z" />
    <glyph glyph-name="hungarumlaut" unicode="&#x2dd;" horiz-adv-x="342" 
d="M84 700h88l-26 -136h-86zM194 700h88l-28 -136h-85z" />
    <glyph glyph-name="Wgrave" unicode="&#x1e80;" horiz-adv-x="572" 
d="M354 744l47 -472l44 472h128l-95 -744h-151l-39 409l-39 -409h-157l-93 744h138l42 -477l48 477h127zM341 770h-104l-44 115h105z" />
    <glyph glyph-name="wgrave" unicode="&#x1e81;" horiz-adv-x="498" 
d="M79 0l-81 538h126l35 -333l37 333h113l36 -337l35 337h120l-82 -538h-133l-35 292l-34 -292h-137zM301 564h-102l-45 136h106z" />
    <glyph glyph-name="Wacute" unicode="&#x1e82;" horiz-adv-x="572" 
d="M354 744l47 -472l44 472h128l-95 -744h-151l-39 409l-39 -409h-157l-93 744h138l42 -477l48 477h127zM281 885h106l-45 -115h-104z" />
    <glyph glyph-name="wacute" unicode="&#x1e83;" horiz-adv-x="498" 
d="M244 700h105l-44 -136h-103zM79 0l-81 538h126l35 -333l37 333h113l36 -337l35 337h120l-82 -538h-133l-35 292l-34 -292h-137z" />
    <glyph glyph-name="Wdieresis" unicode="&#x1e84;" horiz-adv-x="572" 
d="M354 744l47 -472l44 472h128l-95 -744h-151l-39 409l-39 -409h-157l-93 744h138l42 -477l48 477h127zM400 770h-100v106h100v-106zM275 770h-100v106h100v-106z" />
    <glyph glyph-name="wdieresis" unicode="&#x1e85;" horiz-adv-x="498" 
d="M79 0l-81 538h126l35 -333l37 333h113l36 -337l35 337h120l-82 -538h-133l-35 292l-34 -292h-137zM238 564h-100v106h100v-106zM362 564h-100v106h100v-106z" />
    <glyph glyph-name="Ygrave" unicode="&#x1ef2;" horiz-adv-x="331" 
d="M237 293v-293h-133v288l-110 456h133l45 -264l45 264h120zM224 770h-104l-44 115h105z" />
    <glyph glyph-name="ygrave" unicode="&#x1ef3;" horiz-adv-x="315" 
d="M-2 538l125.999 0.000976562l36 -297l35 297h123l-113 -645c-5.33301 -28 -14.166 -48.5 -26.499 -61.5s-28.166 -19.5 -47.499 -19.5h-116v119h53c8.66699 0 14.167 2.16699 16.5 6.5s4.16602 11.166 5.49902 20.499l2 21c0.666992 5.33301 1 9.83301 1 13.5
s-0.666992 9.16699 -2 16.5zM213.999 564.001h-102l-45 136h106z" />
    <glyph glyph-name="uni2009" unicode="&#x2009;" horiz-adv-x="12" 
 />
    <glyph glyph-name="endash" unicode="&#x2013;" horiz-adv-x="338" 
d="M323 345v-90h-308v90h308z" />
    <glyph glyph-name="emdash" unicode="&#x2014;" horiz-adv-x="510" 
d="M495 345v-90h-480v90h480z" />
    <glyph glyph-name="quoteleft" unicode="&#x2018;" horiz-adv-x="139" 
d="M101 744c-4.66699 -14 -8.83301 -29.5 -12.5 -46.5s-5.83398 -32.167 -6.50098 -45.5h43v-128h-111v103c0 25.333 2.83301 48.5 8.5 69.5s10.834 36.833 15.501 47.5h63z" />
    <glyph glyph-name="quoteright" unicode="&#x2019;" horiz-adv-x="139" 
d="M38 524c4.66699 14 8.83301 29.5 12.5 46.5s5.83398 32.167 6.50098 45.5h-43v128h111v-103c0 -25.333 -2.83301 -48.5 -8.5 -69.5s-10.834 -36.833 -15.501 -47.5h-63z" />
    <glyph glyph-name="quotesinglbase" unicode="&#x201a;" horiz-adv-x="139" 
d="M101 -92h-63.001c4.66699 14 8.83398 29.5 12.501 46.5s5.83398 32.167 6.50098 45.5h-43v128h111v-103c0 -25.333 -2.83301 -48.5 -8.5 -69.5s-10.834 -36.833 -15.501 -47.5z" />
    <glyph glyph-name="quotedblleft" unicode="&#x201c;" horiz-adv-x="267" 
d="M101 744c-4.66699 -14 -8.83301 -29.5 -12.5 -46.5s-5.83398 -32.167 -6.50098 -45.5h43v-128h-111v103c0 25.333 2.83301 48.5 8.5 69.5s10.834 36.833 15.501 47.5h63zM229.001 744c-4.66699 -14 -8.83301 -29.5 -12.5 -46.5s-5.83398 -32.167 -6.50098 -45.5h43v-128
h-111v103c0 25.333 2.83301 48.5 8.5 69.5s10.834 36.833 15.501 47.5h63z" />
    <glyph glyph-name="quotedblright" unicode="&#x201d;" horiz-adv-x="267" 
d="M38 524c4.66699 14 8.83301 29.5 12.5 46.5s5.83398 32.167 6.50098 45.5h-43v128h111v-103c0 -25.333 -2.83301 -48.5 -8.5 -69.5s-10.834 -36.833 -15.501 -47.5h-63zM165.999 524c4.66699 14 8.83301 29.5 12.5 46.5s5.83398 32.167 6.50098 45.5h-43v128h111v-103
c0 -25.333 -2.83301 -48.5 -8.5 -69.5s-10.834 -36.833 -15.501 -47.5h-63z" />
    <glyph glyph-name="quotedblbase" unicode="&#x201e;" horiz-adv-x="267" 
d="M101 -92h-63.001c4.66699 14 8.83398 29.5 12.501 46.5s5.83398 32.167 6.50098 45.5h-43v128h111v-103c0 -25.333 -2.83301 -48.5 -8.5 -69.5s-10.834 -36.833 -15.501 -47.5zM228.999 -92h-63.001c4.66699 14 8.83398 29.5 12.501 46.5s5.83398 32.167 6.50098 45.5
h-43v128h111v-103c0 -25.333 -2.83301 -48.5 -8.5 -69.5s-10.834 -36.833 -15.501 -47.5z" />
    <glyph glyph-name="dagger" unicode="&#x2020;" horiz-adv-x="271" 
d="M71 475h-64v126h64v143h129v-143h64v-126h-64v-475h-129v475z" />
    <glyph glyph-name="daggerdbl" unicode="&#x2021;" horiz-adv-x="271" 
d="M7 144v125h64v206h-64v125h64v144h129v-144h64v-125h-64v-206h64v-125h-64v-144h-129v144h-64z" />
    <glyph glyph-name="bullet" unicode="&#x2022;" horiz-adv-x="236" 
d="M118 221c-32 0 -57.5 10.333 -76.5 31s-28.5 46.334 -28.5 77.001s9.5 56.5 28.5 77.5s44.5 31.5 76.5 31.5c30.667 0 55.834 -10.5 75.501 -31.5s29.5 -46.833 29.5 -77.5s-9.83301 -56.334 -29.5 -77.001s-44.834 -31 -75.501 -31z" />
    <glyph glyph-name="ellipsis" unicode="&#x2026;" horiz-adv-x="428" 
d="M413 144v-144h-119v144h119zM154 144h119v-144h-119v144zM15 0v144h119v-144h-119z" />
    <glyph glyph-name="perthousand" unicode="&#x2030;" horiz-adv-x="729" 
d="M599 -5c-30 0 -54.167 8.83301 -72.5 26.5s-27.5 44.5 -27.5 80.5v128c0 36 9.16699 63 27.5 81s42.5 27 72.5 27h19c32 0 56.5 -9.5 73.5 -28.5s25.5 -45.5 25.5 -79.5v-128c0 -34 -8.5 -60.333 -25.5 -79s-41.5 -28 -73.5 -28h-19zM364 -5c-30 0 -54 8.83301 -72 26.5
s-27 44.5 -27 80.5v128c0 36 9 63 27 81s42 27 72 27h20c30.667 0 54.667 -9.5 72 -28.5s26 -45.5 26 -79.5v-128c0 -34 -8.66699 -60.333 -26 -79s-41.333 -28 -72 -28h-20zM12 643c0 36 9 62.833 27 80.5s42 26.5 72 26.5h20c30.667 0 54.667 -9.33301 72 -28
s26 -45 26 -79v-128c0 -34 -8.66699 -60.5 -26 -79.5s-41.333 -28.5 -72 -28.5h-20c-30 0 -54 9 -72 27s-27 45 -27 81v128zM429 744l-279 -744h-83l279 744h83zM608 75c6.66699 0 11.167 2 13.5 6s3.5 8.66699 3.5 14v143c0 13.333 -5.66699 20 -17 20
c-10.667 0 -16 -6.66699 -16 -20v-143c0 -5.33301 1.16699 -10 3.5 -14s6.5 -6 12.5 -6zM137 651c0 5.33301 -1.16699 10 -3.5 14s-6.83301 6 -13.5 6c-6 0 -10.167 -2 -12.5 -6s-3.5 -8.66699 -3.5 -14v-143c0 -13.333 5.33301 -20 16 -20c11.333 0 17 6.66699 17 20v143z
M373 75c6.66699 0 11.167 2 13.5 6s3.5 8.66699 3.5 14v143c0 13.333 -5.66699 20 -17 20c-10.667 0 -16 -6.66699 -16 -20v-143c0 -5.33301 1.16699 -10 3.5 -14s6.5 -6 12.5 -6z" />
    <glyph glyph-name="uni2032" unicode="&#x2032;" horiz-adv-x="119" 
d="M95 553h-93l21 191h94z" />
    <glyph glyph-name="uni2033" unicode="&#x2033;" horiz-adv-x="228" 
d="M93 553h-91l21 191h92zM204 553h-92l23 191h91z" />
    <glyph glyph-name="guilsinglleft" unicode="&#x2039;" horiz-adv-x="163" 
d="M155 119h-99l-44 137v60l44 135h100l-46 -165z" />
    <glyph glyph-name="guilsinglright" unicode="&#x203a;" horiz-adv-x="163" 
d="M8 451h100l43 -136v-60l-43 -136h-101l45 166z" />
    <glyph glyph-name="fraction" unicode="&#x2044;" horiz-adv-x="352" 
d="M350 744l-267 -744h-81l267 744h81z" />
    <glyph glyph-name="Euro" unicode="&#x20ac;" horiz-adv-x="416" 
d="M7 375l55.002 0.00390625v26h-55v84h55v99c0 22.667 2.66699 44.167 8 64.5s14.166 38.166 26.499 53.499s28.333 27.666 48 36.999s43.5 14 71.5 14h31c30.667 0 56 -4.5 76 -13.5s35.667 -21.167 47 -36.5s19.166 -32.833 23.499 -52.5s6.5 -40.167 6.5 -61.5v-81h-132
v76c0 14 -2.5 24.667 -7.5 32s-13.833 11 -26.5 11c-12 0 -20.5 -3.5 -25.5 -10.5s-7.5 -17.833 -7.5 -32.5v-99h131v-84h-131v-26h131v-84h-131v-126c0 -30 11.333 -45 34 -45c12 0 20.5 4.16699 25.5 12.5s7.5 19.166 7.5 32.499v101h132v-105
c0 -22 -2.5 -43.333 -7.5 -64s-13.333 -39 -25 -55s-27.334 -28.833 -47.001 -38.5s-44.167 -14.5 -73.5 -14.5h-31c-31.333 0 -57 4.83301 -77 14.5s-35.667 22.5 -47 38.5s-19.166 34.667 -23.499 56s-6.5 43.666 -6.5 66.999v126h-55v84z" />
    <glyph glyph-name="trademark" unicode="&#x2122;" horiz-adv-x="349" 
d="M152 744h79l15 -122l13 122h78v-281h-57v159l-22 -159h-28l-21 159v-159h-57v281zM139 680h-31v-217h-72v217h-30v64h133v-64z" />
    <glyph glyph-name="onethird" unicode="&#x2153;" horiz-adv-x="419" 
d="M6 638v66c21.333 0 35.5 4 42.5 12s11.167 17.333 12.5 28h72v-340h-84v234h-43zM358 744l-267 -744h-81l267 744h81zM217 228v36.0029c0 26 6.16699 46.5 18.5 61.5s34.5 22.5 66.5 22.5h12c30 0 52.167 -6.33301 66.5 -19s21.5 -33.334 21.5 -62.001v-23
c0 -16.667 -3.33301 -29.167 -10 -37.5s-13.334 -13.833 -20.001 -16.5c9.33301 -3.33301 17.833 -9.33301 25.5 -18s11.5 -20.667 11.5 -36v-55c0 -26 -7.33301 -46.833 -22 -62.5s-38 -23.5 -70 -23.5h-14c-17.333 0 -31.666 2.16699 -42.999 6.5
s-20.333 10.166 -27 17.499s-11.167 15.666 -13.5 24.999s-3.5 19.333 -3.5 30v51h80v-46c0 -11.333 4.33301 -17 13 -17c8 0 12 5.66699 12 17v49c0 6 -1 10 -3 12s-5.33301 3 -10 3h-39v69h37c9.33301 0 14 5.33301 14 16v38c0 12 -4.33301 18 -13 18s-13 -6 -13 -18v-38
h-77z" />
    <glyph glyph-name="twothirds" unicode="&#x2154;" horiz-adv-x="494" 
d="M7 402l-0.000976562 43.998c0 8.66699 0.833008 17.167 2.5 25.5s5.33398 17.5 11.001 27.5s13.834 21.833 24.501 35.5s24.667 30.167 42 49.5c8 8.66699 14 15.834 18 21.501s7 11 9 16s3.16699 9.66699 3.5 14s0.5 9.5 0.5 15.5v16c0 11.333 -4.66699 17 -14 17
c-8.66699 0 -13 -5.66699 -13 -17v-53h-78v57c0 10 1.33301 19.667 4 29s7.33398 17.833 14.001 25.5s15.167 13.667 25.5 18s23.5 6.5 39.5 6.5h15c18.667 0 34 -2.16699 46 -6.5s21.5 -10.333 28.5 -18s12 -16.167 15 -25.5s4.5 -19 4.5 -29v-18
c0 -23.333 -4.83301 -43.166 -14.5 -59.499s-25.834 -34.833 -48.501 -55.5l-32 -29.5c-7.33301 -7 -12.833 -12.667 -16.5 -17s-5.83398 -8 -6.50098 -11s-1 -6.5 -1 -10.5h53v54h74v-122h-206zM432.999 743.998l-267 -744h-81l267 744h81zM291.999 227.998v36.0029
c0 26 6.16699 46.5 18.5 61.5s34.5 22.5 66.5 22.5h12c30 0 52.167 -6.33301 66.5 -19s21.5 -33.334 21.5 -62.001v-23c0 -16.667 -3.33301 -29.167 -10 -37.5s-13.334 -13.833 -20.001 -16.5c9.33301 -3.33301 17.833 -9.33301 25.5 -18s11.5 -20.667 11.5 -36v-55
c0 -26 -7.33301 -46.833 -22 -62.5s-38 -23.5 -70 -23.5h-14c-17.333 0 -31.666 2.16699 -42.999 6.5s-20.333 10.166 -27 17.499s-11.167 15.666 -13.5 24.999s-3.5 19.333 -3.5 30v51h80v-46c0 -11.333 4.33301 -17 13 -17c8 0 12 5.66699 12 17v49c0 6 -1 10 -3 12
s-5.33301 3 -10 3h-39v69h37c9.33301 0 14 5.33301 14 16v38c0 12 -4.33301 18 -13 18s-13 -6 -13 -18v-38h-77z" />
    <glyph glyph-name="oneeighth" unicode="&#x215b;" horiz-adv-x="420" 
d="M358 744l-267 -744h-81l267 744h81zM6 638v66c21.333 0 35.5 4 42.5 12s11.167 17.333 12.5 28h72v-340h-84v234h-43zM407 243c0 -19.333 -3.66797 -33.332 -11.001 -41.999s-14.333 -15 -21 -19c9.33301 -4 17.5 -11 24.5 -21s10.5 -24.333 10.5 -43v-38
c0 -25.333 -7.5 -45.833 -22.5 -61.5s-38.833 -23.5 -71.5 -23.5h-9c-34 0 -58 7.83301 -72 23.5s-21 36.5 -21 62.5v37c0 31.333 11 52.666 33 63.999c-7.33301 5.33301 -14.166 12.5 -20.499 21.5s-9.5 22.167 -9.5 39.5v26c0 52.667 30 79 90 79h9
c60.667 0 91 -26.333 91 -79v-26zM324.999 129.001c0 12.667 -4.66699 19 -14 19c-8.66699 0 -13 -6.33301 -13 -19v-48c0 -4.66699 1.16699 -8.66699 3.5 -12s5.5 -5 9.5 -5c5.33301 0 9 1.66699 11 5s3 7.33301 3 12v48zM323.999 265.001c0 12 -4.33301 18 -13 18
c-8 0 -12 -6 -12 -18v-37c0 -11.333 4.33301 -17 13 -17c8 0 12 5.66699 12 17v37z" />
    <glyph glyph-name="threeeighths" unicode="&#x215c;" horiz-adv-x="472" 
d="M12 630v36.0029c0 26 6.16699 46.5 18.5 61.5s34.5 22.5 66.5 22.5h12c30 0 52.167 -6.33301 66.5 -19s21.5 -33.334 21.5 -62.001v-23c0 -16.667 -3.33301 -29.167 -10 -37.5s-13.334 -13.833 -20.001 -16.5c9.33301 -3.33301 17.833 -9.33301 25.5 -18
s11.5 -20.667 11.5 -36v-55c0 -26 -7.33301 -46.833 -22 -62.5s-38 -23.5 -70 -23.5h-14c-17.333 0 -31.666 2.16699 -42.999 6.5s-20.333 10.166 -27 17.499s-11.167 15.666 -13.5 24.999s-3.5 19.333 -3.5 30v51h80v-46c0 -11.333 4.33301 -17 13 -17
c8 0 12 5.66699 12 17v49c0 6 -1 10 -3 12s-5.33301 3 -10 3h-39v69h37c9.33301 0 14 5.33301 14 16v38c0 12 -4.33301 18 -13 18s-13 -6 -13 -18v-38h-77zM410 744.003l-267 -744h-81l267 744h81zM459 243.003c0 -19.333 -3.66797 -33.332 -11.001 -41.999
s-14.333 -15 -21 -19c9.33301 -4 17.5 -11 24.5 -21s10.5 -24.333 10.5 -43v-38c0 -25.333 -7.5 -45.833 -22.5 -61.5s-38.833 -23.5 -71.5 -23.5h-9c-34 0 -58 7.83301 -72 23.5s-21 36.5 -21 62.5v37c0 31.333 11 52.666 33 63.999
c-7.33301 5.33301 -14.166 12.5 -20.499 21.5s-9.5 22.167 -9.5 39.5v26c0 52.667 30 79 90 79h9c60.667 0 91 -26.333 91 -79v-26zM376.999 129.004c0 12.667 -4.66699 19 -14 19c-8.66699 0 -13 -6.33301 -13 -19v-48c0 -4.66699 1.16699 -8.66699 3.5 -12s5.5 -5 9.5 -5
c5.33301 0 9 1.66699 11 5s3 7.33301 3 12v48zM375.999 265.004c0 12 -4.33301 18 -13 18c-8 0 -12 -6 -12 -18v-37c0 -11.333 4.33301 -17 13 -17c8 0 12 5.66699 12 17v37z" />
    <glyph glyph-name="fiveeighths" unicode="&#x215d;" horiz-adv-x="472" 
d="M410 744l-267 -744h-81l267 744h81zM15 545l0.00195312 199h180v-71h-103v-61c6 8 13.5 16.167 22.5 24.5s20.833 12.5 35.5 12.5c19.333 0 33.333 -6.16699 42 -18.5s13 -27.833 13 -46.5v-93c0 -30 -7.33301 -53.167 -22 -69.5s-37.334 -24.5 -68.001 -24.5h-15
c-34 0 -57.333 7.66699 -70 23s-19 35 -19 59v40h83v-41c0 -10 4 -15 12 -15c3.33301 0 6.16602 1.5 8.49902 4.5s3.5 6.5 3.5 10.5v83c0 12 -4 18 -12 18c-8.66699 0 -13 -6 -13 -18v-16h-78zM459.002 243c0 -19.333 -3.66797 -33.332 -11.001 -41.999s-14.333 -15 -21 -19
c9.33301 -4 17.5 -11 24.5 -21s10.5 -24.333 10.5 -43v-38c0 -25.333 -7.5 -45.833 -22.5 -61.5s-38.833 -23.5 -71.5 -23.5h-9c-34 0 -58 7.83301 -72 23.5s-21 36.5 -21 62.5v37c0 31.333 11 52.666 33 63.999c-7.33301 5.33301 -14.166 12.5 -20.499 21.5
s-9.5 22.167 -9.5 39.5v26c0 52.667 30 79 90 79h9c60.667 0 91 -26.333 91 -79v-26zM377.001 129.001c0 12.667 -4.66699 19 -14 19c-8.66699 0 -13 -6.33301 -13 -19v-48c0 -4.66699 1.16699 -8.66699 3.5 -12s5.5 -5 9.5 -5c5.33301 0 9 1.66699 11 5s3 7.33301 3 12v48z
M376.001 265.001c0 12 -4.33301 18 -13 18c-8 0 -12 -6 -12 -18v-37c0 -11.333 4.33301 -17 13 -17c8 0 12 5.66699 12 17v37z" />
    <glyph glyph-name="seveneighths" unicode="&#x215e;" horiz-adv-x="437" 
d="M375 744l-267 -744h-81l267 744h81zM191 744l0.000976562 -36c0 -13.333 -2.66699 -31.166 -8 -53.499s-12 -53.5 -20 -93.5c-6 -29.333 -9.66699 -55.5 -11 -78.5s-2 -49.5 -2 -79.5h-98c0 12.667 0.333008 24.667 1 36s2 22.666 4 33.999s4.83301 23.5 8.5 36.5
s8.5 27.5 14.5 43.5l18.5 50l12.5 36c3.33301 10 5.66602 18.333 6.99902 25s2 12.667 2 18h-35v-59h-74v121h180zM424.001 243c0 -19.333 -3.66797 -33.332 -11.001 -41.999s-14.333 -15 -21 -19c9.33301 -4 17.5 -11 24.5 -21s10.5 -24.333 10.5 -43v-38
c0 -25.333 -7.5 -45.833 -22.5 -61.5s-38.833 -23.5 -71.5 -23.5h-9c-34 0 -58 7.83301 -72 23.5s-21 36.5 -21 62.5v37c0 31.333 11 52.666 33 63.999c-7.33301 5.33301 -14.166 12.5 -20.499 21.5s-9.5 22.167 -9.5 39.5v26c0 52.667 30 79 90 79h9
c60.667 0 91 -26.333 91 -79v-26zM342 129.001c0 12.667 -4.66699 19 -14 19c-8.66699 0 -13 -6.33301 -13 -19v-48c0 -4.66699 1.16699 -8.66699 3.5 -12s5.5 -5 9.5 -5c5.33301 0 9 1.66699 11 5s3 7.33301 3 12v48zM341 265.001c0 12 -4.33301 18 -13 18
c-8 0 -12 -6 -12 -18v-37c0 -11.333 4.33301 -17 13 -17c8 0 12 5.66699 12 17v37z" />
    <glyph glyph-name="minus" unicode="&#x2212;" horiz-adv-x="320" 
d="M305 346v-91h-290v91h290z" />
    <glyph glyph-name="uni24C5" unicode="&#x24c5;" horiz-adv-x="519" 
d="M256 -11c-37.333 0 -70.6689 5.00098 -100.002 15.001s-54.166 25.333 -74.499 46s-35.833 47 -46.5 79s-16 70.333 -16 115v258c0 84 21 147.167 63 189.5s100.333 63.5 175 63.5h12c74.667 0 131.834 -20.667 171.501 -62s59.5 -105 59.5 -191v-258
c0 -45.333 -5.83301 -84 -17.5 -116s-28 -58.333 -49 -79s-45.667 -35.834 -74 -45.501s-59.5 -14.5 -93.5 -14.5h-10zM257.997 56.001l7.99902 -0.000976562c28.667 0 53 4.83301 73 14.5s36.333 23.334 49 41.001s21.834 39 27.501 64s8.5 52.833 8.5 83.5v230
c0 28.667 -2.66699 55.167 -8 79.5s-14 45.333 -26 63s-28 31.5 -48 41.5s-44.667 15 -74 15h-10c-59.333 0 -101 -17.333 -125 -52s-36 -83.667 -36 -147v-230c0 -64 12.5 -113.833 37.5 -149.5s66.167 -53.5 123.5 -53.5zM251.996 312v-192h-103v506h147
c32 0 55.667 -7 71 -21s23 -40.333 23 -79v-112c0 -36 -7.66699 -62 -23 -78s-39 -24 -71 -24h-44zM251.996 396h15c8 0 13.5 2.5 16.5 7.5s4.5 12.5 4.5 22.5v88c0 10.667 -1.5 18 -4.5 22s-8.5 6 -16.5 6h-15v-146z" />
    <glyph glyph-name="E.alt" unicode="&#xe484;" horiz-adv-x="310" 
d="M296 744v-131h-142v-162h135v-134h-135v-183h146v-134h-279v744h275z" />
    <glyph glyph-name="F.alt" unicode="&#xe485;" horiz-adv-x="306" 
d="M295 744v-131h-141v-162h134v-134h-134v-317h-133v744h274z" />
    <glyph glyph-name="J.alt" unicode="&#xe489;" horiz-adv-x="240" 
d="M9 134h53.999c8 0 13.167 2.16699 15.5 6.5s3.5 10.5 3.5 18.5v585h138v-657c0 -30 -7.16699 -52 -21.5 -66s-33.166 -21 -56.499 -21h-133v134z" />
    <glyph glyph-name="a.alt" unicode="&#xe4c0;" horiz-adv-x="324" 
d="M305 123c0 -22 0.334961 -39.6621 1.00195 -52.9951s1.5 -24 2.5 -32s2.16699 -14.333 3.5 -19l4 -14v-5h-122c-2.66699 3.33301 -5.33398 9.5 -8.00098 18.5s-4 23.167 -4 42.5c-3.33301 -6.66699 -7.83301 -13.834 -13.5 -21.501s-12.167 -14.834 -19.5 -21.501
s-15.833 -12.167 -25.5 -16.5s-20.5 -6.5 -32.5 -6.5h-4c-12 0 -22.667 2.66699 -32 8s-17 12.333 -23 21s-10.5 18.5 -13.5 29.5s-4.5 22.5 -4.5 34.5v117c0 27.333 4.5 49.5 13.5 66.5s23.167 31.5 42.5 43.5c6 4 14 8.5 24 13.5l30.5 15l29.5 14
c9.33301 4.33301 16 7.83301 20 10.5c2.66699 1.33301 4.66699 3.16602 6 5.49902s2 7.16602 2 14.499v29c0 11.333 -1.83301 19 -5.5 23s-9.16699 6 -16.5 6h-4c-8.66699 0 -14.5 -2.5 -17.5 -7.5s-4.5 -12.167 -4.5 -21.5v-53h-114v74c0 12 1.66699 24.167 5 36.5
s9.66602 23.666 18.999 33.999s22.166 18.833 38.499 25.5s37.5 10 63.5 10h23c26.667 0 48.834 -2.83301 66.501 -8.5s31.667 -13.834 42 -24.501s17.5 -23.167 21.5 -37.5s6 -30.166 6 -47.499v-303zM182.002 265.005c-3.33301 -2 -8.49902 -5.33203 -15.499 -9.99902
s-12.833 -9.66699 -17.5 -15s-7.83398 -10.833 -9.50098 -16.5s-2.5 -13.834 -2.5 -24.501v-65c0 -10 1.5 -17.833 4.5 -23.5s8.5 -8.5 16.5 -8.5c16 0 24 10.667 24 32v131z" />
    <glyph glyph-name="r.alt" unicode="&#xe4d1;" horiz-adv-x="275" 
d="M145 458c20.667 56 48.667 84 84 84h7c6 0 11.833 -0.5 17.5 -1.5s9.16699 -1.83301 10.5 -2.5v-146c-5.33301 2 -12.5 4 -21.5 6s-20.167 3 -33.5 3h-4c-22 0 -37.333 -3.5 -46 -10.5s-13 -17.833 -13 -32.5v-358h-128v538h127v-80z" />
    <glyph glyph-name=".null" horiz-adv-x="0" 
 />
    <glyph glyph-name="idotaccent" horiz-adv-x="164" 
d="M146 0h-128v538h128v-538zM146 564h-128v126h128v-126z" />
    <glyph glyph-name="space_uni0326" horiz-adv-x="342" 
d="M149 -203c3.33301 8 6.16797 17.5 8.50098 28.5s4.16602 23.833 5.49902 38.5h-43v110h102v-70c0 -28 -2.83301 -51 -8.5 -69s-10.167 -30.667 -13.5 -38h-51z" />
    <glyph glyph-name="zero.num" horiz-adv-x="231" 
d="M122 750c34 0 58.667 -8.83301 74 -26.5s23 -41.5 23 -71.5v-163c0 -28.667 -8.66699 -51.167 -26 -67.5s-41 -24.5 -71 -24.5h-14c-30 0 -53.333 8.16699 -70 24.5s-25 38.833 -25 67.5v163c0 30 8 53.833 24 71.5s40.333 26.5 73 26.5h12zM116 675
c-10 0 -15 -7 -15 -21v-161c0 -12.667 4.66699 -19 14 -19c10.667 0 16 6.33301 16 19v161c0 14 -5 21 -15 21z" />
    <glyph glyph-name="one.num" horiz-adv-x="151" 
d="M6 638v66c21.333 0 35.5 4 42.5 12s11.167 17.333 12.5 28h72v-340h-84v234h-43z" />
    <glyph glyph-name="two.num" horiz-adv-x="224" 
d="M7 402l-0.000976562 43.998c0 8.66699 0.833008 17.167 2.5 25.5s5.33398 17.5 11.001 27.5s13.834 21.833 24.501 35.5s24.667 30.167 42 49.5c8 8.66699 14 15.834 18 21.501s7 11 9 16s3.16699 9.66699 3.5 14s0.5 9.5 0.5 15.5v16c0 11.333 -4.66699 17 -14 17
c-8.66699 0 -13 -5.66699 -13 -17v-53h-78v57c0 10 1.33301 19.667 4 29s7.33398 17.833 14.001 25.5s15.167 13.667 25.5 18s23.5 6.5 39.5 6.5h15c18.667 0 34 -2.16699 46 -6.5s21.5 -10.333 28.5 -18s12 -16.167 15 -25.5s4.5 -19 4.5 -29v-18
c0 -23.333 -4.83301 -43.166 -14.5 -59.499s-25.834 -34.833 -48.501 -55.5l-32 -29.5c-7.33301 -7 -12.833 -12.667 -16.5 -17s-5.83398 -8 -6.50098 -11s-1 -6.5 -1 -10.5h53v54h74v-122h-206z" />
    <glyph glyph-name="three.num" horiz-adv-x="214" 
d="M12 630v36.0029c0 26 6.16699 46.5 18.5 61.5s34.5 22.5 66.5 22.5h12c30 0 52.167 -6.33301 66.5 -19s21.5 -33.334 21.5 -62.001v-23c0 -16.667 -3.33301 -29.167 -10 -37.5s-13.334 -13.833 -20.001 -16.5c9.33301 -3.33301 17.833 -9.33301 25.5 -18
s11.5 -20.667 11.5 -36v-55c0 -26 -7.33301 -46.833 -22 -62.5s-38 -23.5 -70 -23.5h-14c-17.333 0 -31.666 2.16699 -42.999 6.5s-20.333 10.166 -27 17.499s-11.167 15.666 -13.5 24.999s-3.5 19.333 -3.5 30v51h80v-46c0 -11.333 4.33301 -17 13 -17
c8 0 12 5.66699 12 17v49c0 6 -1 10 -3 12s-5.33301 3 -10 3h-39v69h37c9.33301 0 14 5.33301 14 16v38c0 12 -4.33301 18 -13 18s-13 -6 -13 -18v-38h-77z" />
    <glyph glyph-name="four.num" horiz-adv-x="212" 
d="M7 520l19.5 48l23.5 60.5l23.5 62.5l19.5 54h83v-211h28v-72h-28v-59h-80v59h-89v58zM96 534v87.001c-1.33301 -5.33301 -3.33301 -12 -6 -20l-8.5 -24.5l-9 -24c-3 -7.66699 -5.5 -13.834 -7.5 -18.501h31z" />
    <glyph glyph-name="five.num" horiz-adv-x="215" 
d="M15 545l0.00195312 199h180v-71h-103v-61c6 8 13.5 16.167 22.5 24.5s20.833 12.5 35.5 12.5c19.333 0 33.333 -6.16699 42 -18.5s13 -27.833 13 -46.5v-93c0 -30 -7.33301 -53.167 -22 -69.5s-37.334 -24.5 -68.001 -24.5h-15c-34 0 -57.333 7.66699 -70 23
s-19 35 -19 59v40h83v-41c0 -10 4 -15 12 -15c3.33301 0 6.16602 1.5 8.49902 4.5s3.5 6.5 3.5 10.5v83c0 12 -4 18 -12 18c-8.66699 0 -13 -6 -13 -18v-16h-78z" />
    <glyph glyph-name="six.num" horiz-adv-x="226" 
d="M161 623c19.333 0 33.1699 -6.33398 41.5029 -19.001s12.5 -26.667 12.5 -42v-75c0 -26 -8.16699 -47.5 -24.5 -64.5s-41.5 -25.5 -75.5 -25.5c-36.667 0 -62.834 8.83301 -78.501 26.5s-23.5 39.167 -23.5 64.5v174c0 10.667 1.5 21.334 4.5 32.001
s8.16699 20.167 15.5 28.5s17.5 15 30.5 20s29.167 7.5 48.5 7.5s35.166 -2.16699 47.499 -6.5s22.166 -10.333 29.499 -18s12.333 -16.667 15 -27s4 -21.5 4 -33.5v-26h-84v26c0 10.667 -4.33301 16 -13 16c-4.66699 0 -7.66699 -1.66699 -9 -5s-2 -7 -2 -11v-74
c5.33301 7.33301 13 14.5 23 21.5s22.667 10.5 38 10.5zM113.004 465.999c5.33301 0 9.16699 2 11.5 6s3.5 8.66699 3.5 14v54c0 14 -5 21 -15 21c-4.66699 0 -8 -2 -10 -6s-3 -9 -3 -15v-54c0 -13.333 4.33301 -20 13 -20z" />
    <glyph glyph-name="seven.num" horiz-adv-x="198" 
d="M191 744l0.000976562 -36c0 -13.333 -2.66699 -31.166 -8 -53.499s-12 -53.5 -20 -93.5c-6 -29.333 -9.66699 -55.5 -11 -78.5s-2 -49.5 -2 -79.5h-98c0 12.667 0.333008 24.667 1 36s2 22.666 4 33.999s4.83301 23.5 8.5 36.5s8.5 27.5 14.5 43.5l18.5 50l12.5 36
c3.33301 10 5.66602 18.333 6.99902 25s2 12.667 2 18h-35v-59h-74v121h180z" />
    <glyph glyph-name="eight.num" horiz-adv-x="217" 
d="M204 645c0 -19.333 -3.66797 -33.332 -11.001 -41.999s-14.333 -15 -21 -19c9.33301 -4 17.5 -11 24.5 -21s10.5 -24.333 10.5 -43v-38c0 -25.333 -7.5 -45.833 -22.5 -61.5s-38.833 -23.5 -71.5 -23.5h-9c-34 0 -58 7.83301 -72 23.5s-21 36.5 -21 62.5v37
c0 31.333 11 52.666 33 63.999c-7.33301 5.33301 -14.166 12.5 -20.499 21.5s-9.5 22.167 -9.5 39.5v26c0 52.667 30 79 90 79h9c60.667 0 91 -26.333 91 -79v-26zM121.999 531.001c0 12.667 -4.66699 19 -14 19c-8.66699 0 -13 -6.33301 -13 -19v-48
c0 -4.66699 1.16699 -8.66699 3.5 -12s5.5 -5 9.5 -5c5.33301 0 9 1.66699 11 5s3 7.33301 3 12v48zM120.999 667.001c0 12 -4.33301 18 -13 18c-8 0 -12 -6 -12 -18v-37c0 -11.333 4.33301 -17 13 -17c8 0 12 5.66699 12 17v37z" />
    <glyph glyph-name="nine.num" horiz-adv-x="226" 
d="M11 660c0 25.333 7.66895 46.6641 23.002 63.9971s41 26 77 26c37.333 0 63.666 -8.66699 78.999 -26s23 -38.666 23 -63.999v-175c0 -10.667 -1.5 -21.167 -4.5 -31.5s-8.16699 -19.666 -15.5 -27.999s-17.5 -15.166 -30.5 -20.499s-29.5 -8 -49.5 -8
s-36.167 2.16699 -48.5 6.5s-22 10.333 -29 18s-11.667 16.5 -14 26.5s-3.5 20.667 -3.5 32v28h84v-26c0 -10.667 4.33301 -16 13 -16c4.66699 0 7.66699 1.66699 9 5s2 7 2 11v74c-5.33301 -7.33301 -12.833 -14.5 -22.5 -21.5s-21.834 -10.5 -36.501 -10.5
c-18.667 0 -32.667 6.5 -42 19.5s-14 27.167 -14 42.5v74zM112.002 680.998c-6 0 -10 -1.83301 -12 -5.5s-3 -8.5 -3 -14.5v-55c0 -13.333 5 -20 15 -20c9.33301 0 14 6.66699 14 20v55c0 13.333 -4.66699 20 -14 20z" />
    <glyph glyph-name="zero.den" horiz-adv-x="231" 
d="M122 348c34 0 58.667 -8.83301 74 -26.5s23 -41.5 23 -71.5v-163c0 -28.667 -8.66699 -51.167 -26 -67.5s-41 -24.5 -71 -24.5h-14c-30 0 -53.333 8.16699 -70 24.5s-25 38.833 -25 67.5v163c0 30 8 53.833 24 71.5s40.333 26.5 73 26.5h12zM116 273
c-10 0 -15 -7 -15 -21v-161c0 -12.667 4.66699 -19 14 -19c10.667 0 16 6.33301 16 19v161c0 14 -5 21 -15 21z" />
    <glyph glyph-name="one.den" horiz-adv-x="151" 
d="M6 234v66c21.333 0 35.5 4 42.5 12s11.167 17.333 12.5 28h72v-340h-84v234h-43z" />
    <glyph glyph-name="two.den" horiz-adv-x="224" 
d="M7 0l-0.000976562 43.998c0 8.66699 0.833008 17.167 2.5 25.5s5.33398 17.5 11.001 27.5s13.834 21.833 24.501 35.5s24.667 30.167 42 49.5c8 8.66699 14 15.834 18 21.501s7 11 9 16s3.16699 9.66699 3.5 14s0.5 9.5 0.5 15.5v16c0 11.333 -4.66699 17 -14 17
c-8.66699 0 -13 -5.66699 -13 -17v-53h-78v57c0 10 1.33301 19.667 4 29s7.33398 17.833 14.001 25.5s15.167 13.667 25.5 18s23.5 6.5 39.5 6.5h15c18.667 0 34 -2.16699 46 -6.5s21.5 -10.333 28.5 -18s12 -16.167 15 -25.5s4.5 -19 4.5 -29v-18
c0 -23.333 -4.83301 -43.166 -14.5 -59.499s-25.834 -34.833 -48.501 -55.5l-32 -29.5c-7.33301 -7 -12.833 -12.667 -16.5 -17s-5.83398 -8 -6.50098 -11s-1 -6.5 -1 -10.5h53v54h74v-122h-206z" />
    <glyph glyph-name="three.den" horiz-adv-x="214" 
d="M12 228v36.0029c0 26 6.16699 46.5 18.5 61.5s34.5 22.5 66.5 22.5h12c30 0 52.167 -6.33301 66.5 -19s21.5 -33.334 21.5 -62.001v-23c0 -16.667 -3.33301 -29.167 -10 -37.5s-13.334 -13.833 -20.001 -16.5c9.33301 -3.33301 17.833 -9.33301 25.5 -18
s11.5 -20.667 11.5 -36v-55c0 -26 -7.33301 -46.833 -22 -62.5s-38 -23.5 -70 -23.5h-14c-17.333 0 -31.666 2.16699 -42.999 6.5s-20.333 10.166 -27 17.499s-11.167 15.666 -13.5 24.999s-3.5 19.333 -3.5 30v51h80v-46c0 -11.333 4.33301 -17 13 -17
c8 0 12 5.66699 12 17v49c0 6 -1 10 -3 12s-5.33301 3 -10 3h-39v69h37c9.33301 0 14 5.33301 14 16v38c0 12 -4.33301 18 -13 18s-13 -6 -13 -18v-38h-77z" />
    <glyph glyph-name="four.den" horiz-adv-x="212" 
d="M7 117l19.5 48l23.5 60.5l23.5 62.5l19.5 54h83v-211h28v-72h-28v-59h-80v59h-89v58zM96 131v87.001c-1.33301 -5.33301 -3.33301 -12 -6 -20l-8.5 -24.5l-9 -24c-3 -7.66699 -5.5 -13.834 -7.5 -18.501h31z" />
    <glyph glyph-name="five.den" horiz-adv-x="215" 
d="M15 143l0.00195312 199h180v-71h-103v-61c6 8 13.5 16.167 22.5 24.5s20.833 12.5 35.5 12.5c19.333 0 33.333 -6.16699 42 -18.5s13 -27.833 13 -46.5v-93c0 -30 -7.33301 -53.167 -22 -69.5s-37.334 -24.5 -68.001 -24.5h-15c-34 0 -57.333 7.66699 -70 23
s-19 35 -19 59v40h83v-41c0 -10 4 -15 12 -15c3.33301 0 6.16602 1.5 8.49902 4.5s3.5 6.5 3.5 10.5v83c0 12 -4 18 -12 18c-8.66699 0 -13 -6 -13 -18v-16h-78z" />
    <glyph glyph-name="six.den" horiz-adv-x="226" 
d="M161 221c19.333 0 33.1699 -6.33398 41.5029 -19.001s12.5 -26.667 12.5 -42v-75c0 -26 -8.16699 -47.5 -24.5 -64.5s-41.5 -25.5 -75.5 -25.5c-36.667 0 -62.834 8.83301 -78.501 26.5s-23.5 39.167 -23.5 64.5v174c0 10.667 1.5 21.334 4.5 32.001
s8.16699 20.167 15.5 28.5s17.5 15 30.5 20s29.167 7.5 48.5 7.5s35.166 -2.16699 47.499 -6.5s22.166 -10.333 29.499 -18s12.333 -16.667 15 -27s4 -21.5 4 -33.5v-26h-84v26c0 10.667 -4.33301 16 -13 16c-4.66699 0 -7.66699 -1.66699 -9 -5s-2 -7 -2 -11v-74
c5.33301 7.33301 13 14.5 23 21.5s22.667 10.5 38 10.5zM113.004 63.999c5.33301 0 9.16699 2 11.5 6s3.5 8.66699 3.5 14v54c0 14 -5 21 -15 21c-4.66699 0 -8 -2 -10 -6s-3 -9 -3 -15v-54c0 -13.333 4.33301 -20 13 -20z" />
    <glyph glyph-name="seven.den" horiz-adv-x="198" 
d="M191 341l0.000976562 -36c0 -13.333 -2.66699 -31.166 -8 -53.499s-12 -53.5 -20 -93.5c-6 -29.333 -9.66699 -55.5 -11 -78.5s-2 -49.5 -2 -79.5h-98c0 12.667 0.333008 24.667 1 36s2 22.666 4 33.999s4.83301 23.5 8.5 36.5s8.5 27.5 14.5 43.5l18.5 50l12.5 36
c3.33301 10 5.66602 18.333 6.99902 25s2 12.667 2 18h-35v-59h-74v121h180z" />
    <glyph glyph-name="eight.den" horiz-adv-x="217" 
d="M204 243c0 -19.333 -3.66797 -33.332 -11.001 -41.999s-14.333 -15 -21 -19c9.33301 -4 17.5 -11 24.5 -21s10.5 -24.333 10.5 -43v-38c0 -25.333 -7.5 -45.833 -22.5 -61.5s-38.833 -23.5 -71.5 -23.5h-9c-34 0 -58 7.83301 -72 23.5s-21 36.5 -21 62.5v37
c0 31.333 11 52.666 33 63.999c-7.33301 5.33301 -14.166 12.5 -20.499 21.5s-9.5 22.167 -9.5 39.5v26c0 52.667 30 79 90 79h9c60.667 0 91 -26.333 91 -79v-26zM121.999 129.001c0 12.667 -4.66699 19 -14 19c-8.66699 0 -13 -6.33301 -13 -19v-48
c0 -4.66699 1.16699 -8.66699 3.5 -12s5.5 -5 9.5 -5c5.33301 0 9 1.66699 11 5s3 7.33301 3 12v48zM120.999 265.001c0 12 -4.33301 18 -13 18c-8 0 -12 -6 -12 -18v-37c0 -11.333 4.33301 -17 13 -17c8 0 12 5.66699 12 17v37z" />
    <glyph glyph-name="nine.den" horiz-adv-x="226" 
d="M11 258c0 25.333 7.66895 46.6641 23.002 63.9971s41 26 77 26c37.333 0 63.666 -8.66699 78.999 -26s23 -38.666 23 -63.999v-175c0 -10.667 -1.5 -21.167 -4.5 -31.5s-8.16699 -19.666 -15.5 -27.999s-17.5 -15.166 -30.5 -20.499s-29.5 -8 -49.5 -8
s-36.167 2.16699 -48.5 6.5s-22 10.333 -29 18s-11.667 16.5 -14 26.5s-3.5 20.667 -3.5 32v28h84v-26c0 -10.667 4.33301 -16 13 -16c4.66699 0 7.66699 1.66699 9 5s2 7 2 11v74c-5.33301 -7.33301 -12.833 -14.5 -22.5 -21.5s-21.834 -10.5 -36.501 -10.5
c-18.667 0 -32.667 6.5 -42 19.5s-14 27.167 -14 42.5v74zM112.002 278.998c-6 0 -10 -1.83301 -12 -5.5s-3 -8.5 -3 -14.5v-55c0 -13.333 5 -20 15 -20c9.33301 0 14 6.66699 14 20v55c0 13.333 -4.66699 20 -14 20z" />
    <glyph glyph-name="zero.sub" horiz-adv-x="231" 
d="M122 246c34 0 58.667 -8.83301 74 -26.5s23 -41.5 23 -71.5v-163c0 -28.667 -8.66699 -51.167 -26 -67.5s-41 -24.5 -71 -24.5h-14c-30 0 -53.333 8.16699 -70 24.5s-25 38.833 -25 67.5v163c0 30 8 53.833 24 71.5s40.333 26.5 73 26.5h12zM116 171
c-10 0 -15 -7 -15 -21v-161c0 -12.667 4.66699 -19 14 -19c10.667 0 16 6.33301 16 19v161c0 14 -5 21 -15 21z" />
    <glyph glyph-name="one.sub" horiz-adv-x="151" 
d="M6 132v66c21.333 0 35.5 4 42.5 12s11.167 17.333 12.5 28h72v-340h-84v234h-43z" />
    <glyph glyph-name="two.sub" horiz-adv-x="224" 
d="M7 -102l-0.000976562 43.998c0 8.66699 0.833008 17.167 2.5 25.5s5.33398 17.5 11.001 27.5s13.834 21.833 24.501 35.5s24.667 30.167 42 49.5c8 8.66699 14 15.834 18 21.501s7 11 9 16s3.16699 9.66699 3.5 14s0.5 9.5 0.5 15.5v16c0 11.333 -4.66699 17 -14 17
c-8.66699 0 -13 -5.66699 -13 -17v-53h-78v57c0 10 1.33301 19.667 4 29s7.33398 17.833 14.001 25.5s15.167 13.667 25.5 18s23.5 6.5 39.5 6.5h15c18.667 0 34 -2.16699 46 -6.5s21.5 -10.333 28.5 -18s12 -16.167 15 -25.5s4.5 -19 4.5 -29v-18
c0 -23.333 -4.83301 -43.166 -14.5 -59.499s-25.834 -34.833 -48.501 -55.5l-32 -29.5c-7.33301 -7 -12.833 -12.667 -16.5 -17s-5.83398 -8 -6.50098 -11s-1 -6.5 -1 -10.5h53v54h74v-122h-206z" />
    <glyph glyph-name="three.sub" horiz-adv-x="214" 
d="M12 126v36.0029c0 26 6.16699 46.5 18.5 61.5s34.5 22.5 66.5 22.5h12c30 0 52.167 -6.33301 66.5 -19s21.5 -33.334 21.5 -62.001v-23c0 -16.667 -3.33301 -29.167 -10 -37.5s-13.334 -13.833 -20.001 -16.5c9.33301 -3.33301 17.833 -9.33301 25.5 -18
s11.5 -20.667 11.5 -36v-55c0 -26 -7.33301 -46.833 -22 -62.5s-38 -23.5 -70 -23.5h-14c-17.333 0 -31.666 2.16699 -42.999 6.5s-20.333 10.166 -27 17.499s-11.167 15.666 -13.5 24.999s-3.5 19.333 -3.5 30v51h80v-46c0 -11.333 4.33301 -17 13 -17
c8 0 12 5.66699 12 17v49c0 6 -1 10 -3 12s-5.33301 3 -10 3h-39v69h37c9.33301 0 14 5.33301 14 16v38c0 12 -4.33301 18 -13 18s-13 -6 -13 -18v-38h-77z" />
    <glyph glyph-name="four.sub" horiz-adv-x="212" 
d="M7 15l19.5 48l23.5 60.5l23.5 62.5l19.5 54h83v-211h28v-72h-28v-59h-80v59h-89v58zM96 29v87.001c-1.33301 -5.33301 -3.33301 -12 -6 -20l-8.5 -24.5l-9 -24c-3 -7.66699 -5.5 -13.834 -7.5 -18.501h31z" />
    <glyph glyph-name="five.sub" horiz-adv-x="215" 
d="M15 41l0.00195312 199h180v-71h-103v-61c6 8 13.5 16.167 22.5 24.5s20.833 12.5 35.5 12.5c19.333 0 33.333 -6.16699 42 -18.5s13 -27.833 13 -46.5v-93c0 -30 -7.33301 -53.167 -22 -69.5s-37.334 -24.5 -68.001 -24.5h-15c-34 0 -57.333 7.66699 -70 23
s-19 35 -19 59v40h83v-41c0 -10 4 -15 12 -15c3.33301 0 6.16602 1.5 8.49902 4.5s3.5 6.5 3.5 10.5v83c0 12 -4 18 -12 18c-8.66699 0 -13 -6 -13 -18v-16h-78z" />
    <glyph glyph-name="six.sub" horiz-adv-x="226" 
d="M161 119c19.333 0 33.1699 -6.33398 41.5029 -19.001s12.5 -26.667 12.5 -42v-75c0 -26 -8.16699 -47.5 -24.5 -64.5s-41.5 -25.5 -75.5 -25.5c-36.667 0 -62.834 8.83301 -78.501 26.5s-23.5 39.167 -23.5 64.5v174c0 10.667 1.5 21.334 4.5 32.001
s8.16699 20.167 15.5 28.5s17.5 15 30.5 20s29.167 7.5 48.5 7.5s35.166 -2.16699 47.499 -6.5s22.166 -10.333 29.499 -18s12.333 -16.667 15 -27s4 -21.5 4 -33.5v-26h-84v26c0 10.667 -4.33301 16 -13 16c-4.66699 0 -7.66699 -1.66699 -9 -5s-2 -7 -2 -11v-74
c5.33301 7.33301 13 14.5 23 21.5s22.667 10.5 38 10.5zM113.004 -38.001c5.33301 0 9.16699 2 11.5 6s3.5 8.66699 3.5 14v54c0 14 -5 21 -15 21c-4.66699 0 -8 -2 -10 -6s-3 -9 -3 -15v-54c0 -13.333 4.33301 -20 13 -20z" />
    <glyph glyph-name="seven.sub" horiz-adv-x="198" 
d="M191 239l0.000976562 -36c0 -13.333 -2.66699 -31.166 -8 -53.499s-12 -53.5 -20 -93.5c-6 -29.333 -9.66699 -55.5 -11 -78.5s-2 -49.5 -2 -79.5h-98c0 12.667 0.333008 24.667 1 36s2 22.666 4 33.999s4.83301 23.5 8.5 36.5s8.5 27.5 14.5 43.5l18.5 50l12.5 36
c3.33301 10 5.66602 18.333 6.99902 25s2 12.667 2 18h-35v-59h-74v121h180z" />
    <glyph glyph-name="eight.sub" horiz-adv-x="217" 
d="M204 141c0 -19.333 -3.66797 -33.332 -11.001 -41.999s-14.333 -15 -21 -19c9.33301 -4 17.5 -11 24.5 -21s10.5 -24.333 10.5 -43v-38c0 -25.333 -7.5 -45.833 -22.5 -61.5s-38.833 -23.5 -71.5 -23.5h-9c-34 0 -58 7.83301 -72 23.5s-21 36.5 -21 62.5v37
c0 31.333 11 52.666 33 63.999c-7.33301 5.33301 -14.166 12.5 -20.499 21.5s-9.5 22.167 -9.5 39.5v26c0 52.667 30 79 90 79h9c60.667 0 91 -26.333 91 -79v-26zM121.999 27.001c0 12.667 -4.66699 19 -14 19c-8.66699 0 -13 -6.33301 -13 -19v-48
c0 -4.66699 1.16699 -8.66699 3.5 -12s5.5 -5 9.5 -5c5.33301 0 9 1.66699 11 5s3 7.33301 3 12v48zM120.999 163.001c0 12 -4.33301 18 -13 18c-8 0 -12 -6 -12 -18v-37c0 -11.333 4.33301 -17 13 -17c8 0 12 5.66699 12 17v37z" />
    <glyph glyph-name="nine.sub" horiz-adv-x="226" 
d="M11 156c0 25.333 7.66895 46.6641 23.002 63.9971s41 26 77 26c37.333 0 63.666 -8.66699 78.999 -26s23 -38.666 23 -63.999v-175c0 -10.667 -1.5 -21.167 -4.5 -31.5s-8.16699 -19.666 -15.5 -27.999s-17.5 -15.166 -30.5 -20.499s-29.5 -8 -49.5 -8
s-36.167 2.16699 -48.5 6.5s-22 10.333 -29 18s-11.667 16.5 -14 26.5s-3.5 20.667 -3.5 32v28h84v-26c0 -10.667 4.33301 -16 13 -16c4.66699 0 7.66699 1.66699 9 5s2 7 2 11v74c-5.33301 -7.33301 -12.833 -14.5 -22.5 -21.5s-21.834 -10.5 -36.501 -10.5
c-18.667 0 -32.667 6.5 -42 19.5s-14 27.167 -14 42.5v74zM112.002 176.998c-6 0 -10 -1.83301 -12 -5.5s-3 -8.5 -3 -14.5v-55c0 -13.333 5 -20 15 -20c9.33301 0 14 6.66699 14 20v55c0 13.333 -4.66699 20 -14 20z" />
    <glyph glyph-name="zero.sup" horiz-adv-x="231" 
d="M122 750c34 0 58.667 -8.83301 74 -26.5s23 -41.5 23 -71.5v-163c0 -28.667 -8.66699 -51.167 -26 -67.5s-41 -24.5 -71 -24.5h-14c-30 0 -53.333 8.16699 -70 24.5s-25 38.833 -25 67.5v163c0 30 8 53.833 24 71.5s40.333 26.5 73 26.5h12zM116 675
c-10 0 -15 -7 -15 -21v-161c0 -12.667 4.66699 -19 14 -19c10.667 0 16 6.33301 16 19v161c0 14 -5 21 -15 21z" />
    <glyph glyph-name="one.sup" horiz-adv-x="151" 
d="M6 638v66c21.333 0 35.5 4 42.5 12s11.167 17.333 12.5 28h72v-340h-84v234h-43z" />
    <glyph glyph-name="two.sup" horiz-adv-x="224" 
d="M7 402l-0.000976562 43.998c0 8.66699 0.833008 17.167 2.5 25.5s5.33398 17.5 11.001 27.5s13.834 21.833 24.501 35.5s24.667 30.167 42 49.5c8 8.66699 14 15.834 18 21.501s7 11 9 16s3.16699 9.66699 3.5 14s0.5 9.5 0.5 15.5v16c0 11.333 -4.66699 17 -14 17
c-8.66699 0 -13 -5.66699 -13 -17v-53h-78v57c0 10 1.33301 19.667 4 29s7.33398 17.833 14.001 25.5s15.167 13.667 25.5 18s23.5 6.5 39.5 6.5h15c18.667 0 34 -2.16699 46 -6.5s21.5 -10.333 28.5 -18s12 -16.167 15 -25.5s4.5 -19 4.5 -29v-18
c0 -23.333 -4.83301 -43.166 -14.5 -59.499s-25.834 -34.833 -48.501 -55.5l-32 -29.5c-7.33301 -7 -12.833 -12.667 -16.5 -17s-5.83398 -8 -6.50098 -11s-1 -6.5 -1 -10.5h53v54h74v-122h-206z" />
    <glyph glyph-name="three.sup" horiz-adv-x="214" 
d="M12 630v36.0029c0 26 6.16699 46.5 18.5 61.5s34.5 22.5 66.5 22.5h12c30 0 52.167 -6.33301 66.5 -19s21.5 -33.334 21.5 -62.001v-23c0 -16.667 -3.33301 -29.167 -10 -37.5s-13.334 -13.833 -20.001 -16.5c9.33301 -3.33301 17.833 -9.33301 25.5 -18
s11.5 -20.667 11.5 -36v-55c0 -26 -7.33301 -46.833 -22 -62.5s-38 -23.5 -70 -23.5h-14c-17.333 0 -31.666 2.16699 -42.999 6.5s-20.333 10.166 -27 17.499s-11.167 15.666 -13.5 24.999s-3.5 19.333 -3.5 30v51h80v-46c0 -11.333 4.33301 -17 13 -17
c8 0 12 5.66699 12 17v49c0 6 -1 10 -3 12s-5.33301 3 -10 3h-39v69h37c9.33301 0 14 5.33301 14 16v38c0 12 -4.33301 18 -13 18s-13 -6 -13 -18v-38h-77z" />
    <glyph glyph-name="four.sup" horiz-adv-x="212" 
d="M7 520l19.5 48l23.5 60.5l23.5 62.5l19.5 54h83v-211h28v-72h-28v-59h-80v59h-89v58zM96 534v87.001c-1.33301 -5.33301 -3.33301 -12 -6 -20l-8.5 -24.5l-9 -24c-3 -7.66699 -5.5 -13.834 -7.5 -18.501h31z" />
    <glyph glyph-name="five.sup" horiz-adv-x="215" 
d="M15 545l0.00195312 199h180v-71h-103v-61c6 8 13.5 16.167 22.5 24.5s20.833 12.5 35.5 12.5c19.333 0 33.333 -6.16699 42 -18.5s13 -27.833 13 -46.5v-93c0 -30 -7.33301 -53.167 -22 -69.5s-37.334 -24.5 -68.001 -24.5h-15c-34 0 -57.333 7.66699 -70 23
s-19 35 -19 59v40h83v-41c0 -10 4 -15 12 -15c3.33301 0 6.16602 1.5 8.49902 4.5s3.5 6.5 3.5 10.5v83c0 12 -4 18 -12 18c-8.66699 0 -13 -6 -13 -18v-16h-78z" />
    <glyph glyph-name="six.sup" horiz-adv-x="226" 
d="M161 623c19.333 0 33.1699 -6.33398 41.5029 -19.001s12.5 -26.667 12.5 -42v-75c0 -26 -8.16699 -47.5 -24.5 -64.5s-41.5 -25.5 -75.5 -25.5c-36.667 0 -62.834 8.83301 -78.501 26.5s-23.5 39.167 -23.5 64.5v174c0 10.667 1.5 21.334 4.5 32.001
s8.16699 20.167 15.5 28.5s17.5 15 30.5 20s29.167 7.5 48.5 7.5s35.166 -2.16699 47.499 -6.5s22.166 -10.333 29.499 -18s12.333 -16.667 15 -27s4 -21.5 4 -33.5v-26h-84v26c0 10.667 -4.33301 16 -13 16c-4.66699 0 -7.66699 -1.66699 -9 -5s-2 -7 -2 -11v-74
c5.33301 7.33301 13 14.5 23 21.5s22.667 10.5 38 10.5zM113.004 465.999c5.33301 0 9.16699 2 11.5 6s3.5 8.66699 3.5 14v54c0 14 -5 21 -15 21c-4.66699 0 -8 -2 -10 -6s-3 -9 -3 -15v-54c0 -13.333 4.33301 -20 13 -20z" />
    <glyph glyph-name="seven.sup" horiz-adv-x="198" 
d="M191 744l0.000976562 -36c0 -13.333 -2.66699 -31.166 -8 -53.499s-12 -53.5 -20 -93.5c-6 -29.333 -9.66699 -55.5 -11 -78.5s-2 -49.5 -2 -79.5h-98c0 12.667 0.333008 24.667 1 36s2 22.666 4 33.999s4.83301 23.5 8.5 36.5s8.5 27.5 14.5 43.5l18.5 50l12.5 36
c3.33301 10 5.66602 18.333 6.99902 25s2 12.667 2 18h-35v-59h-74v121h180z" />
    <glyph glyph-name="eight.sup" horiz-adv-x="217" 
d="M204 645c0 -19.333 -3.66797 -33.332 -11.001 -41.999s-14.333 -15 -21 -19c9.33301 -4 17.5 -11 24.5 -21s10.5 -24.333 10.5 -43v-38c0 -25.333 -7.5 -45.833 -22.5 -61.5s-38.833 -23.5 -71.5 -23.5h-9c-34 0 -58 7.83301 -72 23.5s-21 36.5 -21 62.5v37
c0 31.333 11 52.666 33 63.999c-7.33301 5.33301 -14.166 12.5 -20.499 21.5s-9.5 22.167 -9.5 39.5v26c0 52.667 30 79 90 79h9c60.667 0 91 -26.333 91 -79v-26zM121.999 531.001c0 12.667 -4.66699 19 -14 19c-8.66699 0 -13 -6.33301 -13 -19v-48
c0 -4.66699 1.16699 -8.66699 3.5 -12s5.5 -5 9.5 -5c5.33301 0 9 1.66699 11 5s3 7.33301 3 12v48zM120.999 667.001c0 12 -4.33301 18 -13 18c-8 0 -12 -6 -12 -18v-37c0 -11.333 4.33301 -17 13 -17c8 0 12 5.66699 12 17v37z" />
    <glyph glyph-name="nine.sup" horiz-adv-x="226" 
d="M11 660c0 25.333 7.66895 46.6641 23.002 63.9971s41 26 77 26c37.333 0 63.666 -8.66699 78.999 -26s23 -38.666 23 -63.999v-175c0 -10.667 -1.5 -21.167 -4.5 -31.5s-8.16699 -19.666 -15.5 -27.999s-17.5 -15.166 -30.5 -20.499s-29.5 -8 -49.5 -8
s-36.167 2.16699 -48.5 6.5s-22 10.333 -29 18s-11.667 16.5 -14 26.5s-3.5 20.667 -3.5 32v28h84v-26c0 -10.667 4.33301 -16 13 -16c4.66699 0 7.66699 1.66699 9 5s2 7 2 11v74c-5.33301 -7.33301 -12.833 -14.5 -22.5 -21.5s-21.834 -10.5 -36.501 -10.5
c-18.667 0 -32.667 6.5 -42 19.5s-14 27.167 -14 42.5v74zM112.002 680.998c-6 0 -10 -1.83301 -12 -5.5s-3 -8.5 -3 -14.5v-55c0 -13.333 5 -20 15 -20c9.33301 0 14 6.66699 14 20v55c0 13.333 -4.66699 20 -14 20z" />
    <glyph glyph-name="IJ.alt" horiz-adv-x="411" 
d="M154 0h-133v744h133v-744zM180 134h53.999c8 0 13.167 2.16699 15.5 6.5s3.5 10.5 3.5 18.5v585h138v-657c0 -30 -7.16699 -52 -21.5 -66s-33.166 -21 -56.499 -21h-133v134z" />
    <glyph glyph-name="a.alt2" 
d="M321 538l-0.00292969 -538.003h-126v60c-3.33301 -6 -7.66602 -13.167 -12.999 -21.5s-11.666 -16.166 -18.999 -23.499s-15.666 -13.5 -24.999 -18.5s-19.333 -7.5 -30 -7.5h-3c-13.333 0 -25.333 3 -36 9s-19.834 14.333 -27.501 25s-13.667 23 -18 37
s-6.5 28.667 -6.5 44v333c0 12.667 1.66699 25.334 5 38.001s8.33301 24.167 15 34.5s14.834 18.666 24.501 24.999s20.5 9.5 32.5 9.5h7c12 0 23 -2.33301 33 -7s19 -10.167 27 -16.5s14.833 -13.166 20.5 -20.499s10.167 -13.666 13.5 -18.999v57h126zM194.997 395.997
c0 12 -1.83203 21.834 -5.49902 29.501s-10.5 11.5 -20.5 11.5c-16 0 -24 -12.333 -24 -37v-262c0 -11.333 1.66699 -20.333 5 -27s9.66602 -10 18.999 -10s16 3.66699 20 11s6 17.666 6 30.999v253z" />
    <glyph glyph-name="Eacute.alt" horiz-adv-x="315" 
d="M151 885h106l-45 -115h-104zM296 744v-131h-142v-162h135v-134h-135v-183h146v-134h-279v744h275z" />
    <glyph glyph-name="Ebreve.alt" horiz-adv-x="310" 
d="M296 744v-131h-142v-162h135v-134h-135v-183h146v-134h-279v744h275zM163 767h-4c-30.667 0 -56.167 9.16699 -76.5 27.5s-30.5 43.5 -30.5 75.5v5h85v-3c0 -7.33301 2 -13.5 6 -18.5s9.66699 -7.5 17 -7.5h2c7.33301 0 13 2.5 17 7.5s6 11.167 6 18.5v3h84v-5
c0 -32 -10.5 -57.167 -31.5 -75.5s-45.833 -27.5 -74.5 -27.5z" />
    <glyph glyph-name="Ecaron.alt" horiz-adv-x="310" 
d="M296 744v-131h-142v-162h135v-134h-135v-183h146v-134h-279v744h275zM45 885h90l27 -48l27 48h89l-66 -115h-101z" />
    <glyph glyph-name="Ecircumflex.alt" horiz-adv-x="315" 
d="M279 770h-89l-28 47l-27 -47h-89l65 115h102zM296 744v-131h-142v-162h135v-134h-135v-183h146v-134h-279v744h275z" />
    </font>
</defs>
</svg>
