<?xml version="1.0" standalone="no"?>
<!DOCTYPE svg PUBLIC "-//W3C//DTD SVG 1.1//EN" "http://www.w3.org/Graphics/SVG/1.1/DTD/svg11.dtd" >
<svg xmlns="http://www.w3.org/2000/svg" xmlns:xlink="http://www.w3.org/1999/xlink" version="1.1">
<metadata>
Created by FontForge 20190801 at Mon May  1 23:00:40 2017
 By www-data
Copyright (C)2017 Commercial Type.
</metadata>
<defs>
<font id="DrukBoldCy" horiz-adv-x="335" >
  <font-face 
    font-family="DrukBoldCy"
    font-weight="700"
    font-stretch="normal"
    units-per-em="1000"
    panose-1="0 0 0 0 0 0 0 0 0 0"
    ascent="805"
    descent="-195"
    x-height="538"
    cap-height="744"
    bbox="-53 -215 973 1054"
    underline-thickness="84"
    underline-position="-20"
    unicode-range="U+0020-FB04"
  />
<missing-glyph horiz-adv-x="500" 
 />
    <glyph glyph-name="f_f" unicode="ff" horiz-adv-x="476" 
d="M275 0v419h-84v-419h-127v419h-60v119h60v132q0 30 21 52t61 22h112v-113h-47q-12 0 -16 -5t-4 -18v-70h84v132q0 30 21 52t61 22h112v-113h-47q-12 0 -16 -5t-4 -18v-70h65v-119h-65v-419h-127z" />
    <glyph glyph-name="f_i" unicode="fi" horiz-adv-x="420" 
d="M253 744v-113h-42q-12 0 -16 -5t-4 -18v-70h62v-119h-62v-419h-127v419h-60v119h60v132q0 30 21 52t61 22h107zM404 690v-126h-128v126h128zM404 538v-538h-128v538h128z" />
    <glyph glyph-name="f_l" unicode="fl" horiz-adv-x="420" 
d="M253 744v-113h-42q-12 0 -16 -5t-4 -18v-70h62v-119h-62v-419h-127v419h-60v119h60v132q0 30 21 52t61 22h107zM404 744v-744h-128v744h128z" />
    <glyph glyph-name="emdash.alt" unicode="&#x2014;&#x2014;" horiz-adv-x="986" 
d="M13 345h960v-90h-960v90z" />
    <glyph glyph-name=".notdef" horiz-adv-x="500" 
 />
    <glyph glyph-name=".null" horiz-adv-x="0" 
 />
    <glyph glyph-name="nonmarkingreturn" horiz-adv-x="333" 
 />
    <glyph glyph-name="space" unicode=" " horiz-adv-x="103" 
 />
    <glyph glyph-name="exclam" unicode="!" horiz-adv-x="160" 
d="M7 744h145l-47 -577h-51zM139 144v-144h-119v144h119z" />
    <glyph glyph-name="quotedbl" unicode="&#x22;" horiz-adv-x="228" 
d="M104 744v-191h-91v191h91zM215 744v-191h-91v191h91z" />
    <glyph glyph-name="numbersign" unicode="#" horiz-adv-x="368" 
d="M169 0l21 248h-36l-21 -248h-90l21 248h-61l9 98h60l8 94h-61l9 98h60l18 210h91l-18 -210h35l18 210h92l-18 -210h59l-7 -98h-61l-8 -94h60l-7 -98h-61l-22 -248h-90zM163 346h35l8 94h-35z" />
    <glyph glyph-name="dollar" unicode="$" horiz-adv-x="352" 
d="M344 158q0 -78 -41.5 -123.5t-112.5 -45.5v-61h-35v61q-147 2 -147 156v133h123v-135q0 -37 24 -45v209l-74 76q-40 41 -55 86t-15 109v23q0 77 39.5 114.5t104.5 37.5v59h35v-59q72 -1 104 -37t32 -109v-101h-116v102q0 31 -20 37v-187l66 -69q52 -53 70 -92.5
t18 -111.5v-27zM134 581q0 -57 21 -85v149q-21 -6 -21 -38v-26zM218 181q0 56 -28 89v-173q28 7 28 55v29z" />
    <glyph glyph-name="percent" unicode="%" horiz-adv-x="490" 
d="M10 515v128q0 52 26.5 79.5t72.5 27.5h20q46 0 72 -28t26 -79v-128q0 -50 -26 -79t-72 -29h-20q-46 0 -72.5 28t-26.5 80zM344 744h83l-279 -744h-83zM135 508v143q0 20 -17 20q-16 0 -16 -20v-143q0 -20 16 -20q17 0 17 20zM263 102v128q0 52 26.5 80t72.5 28h20
q46 0 72 -28.5t26 -79.5v-128q0 -50 -26 -78.5t-72 -28.5h-20q-46 0 -72.5 27.5t-26.5 79.5zM371 75q17 0 17 20v143q0 20 -17 20q-16 0 -16 -20v-143q0 -20 16 -20z" />
    <glyph glyph-name="ampersand" unicode="&#x26;" horiz-adv-x="449" 
d="M450 92q-23 -95 -28 -110q-71 9 -106 40q-37 -33 -101 -33h-13q-91 0 -141.5 53t-50.5 152v36q0 115 96 189q-44 95 -44 172v28q0 33 9.5 61t40 50.5t78.5 22.5h22q68 0 96 -34.5t28 -99.5v-13q0 -61 -20.5 -99.5t-80.5 -87.5l82 -180q6 47 6 206h112q-3 -221 -46 -328
q22 -18 61 -25zM176 596q0 -44 25 -99q16 23 21 43t5 57v15q0 25 -5 34t-20 9t-20.5 -9.5t-5.5 -33.5v-16zM135 229q0 -130 88 -130q19 0 35 8l-109 225q-14 -35 -14 -77v-26z" />
    <glyph glyph-name="quotesingle" unicode="'" horiz-adv-x="119" 
d="M106 744v-191h-93v191h93z" />
    <glyph glyph-name="parenleft" unicode="(" horiz-adv-x="210" 
d="M25 344q0 254 109 464h78q-30 -80 -50 -202.5t-20 -258.5q0 -253 73 -478h-78q-112 218 -112 475z" />
    <glyph glyph-name="parenright" unicode=")" horiz-adv-x="210" 
d="M-5 -131q73 232 73 478q0 135 -20 257.5t-50 203.5h77q110 -208 110 -464q0 -260 -113 -475h-77z" />
    <glyph glyph-name="asterisk" unicode="*" horiz-adv-x="233" 
d="M144 678l50 40l36 -61l-61 -25l60 -27l-34 -59l-51 41l8 -66h-72l9 66l-50 -41l-36 61l60 25l-61 25l36 61l50 -40l-8 66h72z" />
    <glyph glyph-name="plus" unicode="+" horiz-adv-x="340" 
d="M327 255h-108v-121h-98v121h-108v91h108v122h98v-122h108v-91z" />
    <glyph glyph-name="comma" unicode="," horiz-adv-x="145" 
d="M101 -95h-67q24 56 25 95h-46v144h119v-106q0 -68 -31 -133z" />
    <glyph glyph-name="hyphen" unicode="-" horiz-adv-x="179" 
d="M13 359h153v-121h-153v121z" />
    <glyph glyph-name="period" unicode="." horiz-adv-x="145" 
d="M132 144v-144h-119v144h119z" />
    <glyph glyph-name="slash" unicode="/" horiz-adv-x="215" 
d="M215 808l-130 -939h-95l131 939h94z" />
    <glyph glyph-name="zero" unicode="0" horiz-adv-x="370" 
d="M354 564v-399q0 -81 -41.5 -128.5t-114.5 -47.5h-30q-76 0 -114 46.5t-38 129.5v398q0 190 153 190h30q155 0 155 -189zM214 165v412q0 24 -6.5 35t-23.5 11q-30 0 -30 -46v-412q0 -43 29 -43q31 0 31 43z" />
    <glyph glyph-name="one" unicode="1" horiz-adv-x="239" 
d="M85 547h-78v114q54 0 75 21.5t25 61.5h111v-744h-133v547z" />
    <glyph glyph-name="two" unicode="2" horiz-adv-x="359" 
d="M346 256v-256h-337v76q0 70 16 118t74 145l64 106q17 28 25.5 49t10 31.5t1.5 27.5v45q0 34 -25 34t-25 -34v-115h-125v131q0 59 32.5 99t103.5 40h27q72 0 111.5 -36t39.5 -107v-42q0 -69 -10.5 -107t-54.5 -95q-10 -13 -73 -95q-39 -51 -57.5 -83.5t-19.5 -39t-1 -19.5
h93v127h130z" />
    <glyph glyph-name="three" unicode="3" horiz-adv-x="346" 
d="M141 515h-122v96q0 59 31.5 100.5t100.5 41.5h28q73 0 109.5 -38.5t36.5 -104.5v-83q0 -85 -48 -113q55 -18 55 -85v-186q0 -71 -40 -112.5t-108 -41.5h-28q-76 0 -110.5 38t-34.5 96v150h130v-118q0 -35 28 -35q27 0 27 35v145q0 17 -4.5 23.5t-20.5 6.5h-69v133h62
q16 0 22 7.5t6 25.5v102q0 20 -6 27t-20 7q-25 0 -25 -34v-83z" />
    <glyph glyph-name="four" unicode="4" horiz-adv-x="363" 
d="M5 279q76 203 167 470h117v-456h69v-127h-69v-166h-130v166h-154v113zM159 293v181q-31 -100 -61 -181h61z" />
    <glyph glyph-name="five" unicode="5" horiz-adv-x="349" 
d="M151 331h-131v413h305v-129h-177v-147q40 70 91 70h12q42 0 62.5 -29t20.5 -68v-307q0 -61 -36 -103t-105 -42h-40q-75 0 -108 40t-33 92v152h133v-123q0 -35 25 -35t25 35v225q0 37 -23 37q-21 0 -21 -36v-45z" />
    <glyph glyph-name="six" unicode="6" horiz-adv-x="368" 
d="M256 479h8q45 0 67.5 -29t22.5 -65v-246q0 -60 -40.5 -104.5t-111.5 -44.5h-30q-76 0 -116 41t-40 104v461q0 73 38.5 115.5t115.5 42.5h28q68 0 105 -36t37 -87v-112h-137v83q0 29 -24 29q-25 0 -25 -29v-189q15 19 24.5 28.5t32 23.5t45.5 14zM154 155q0 -39 31 -39
q30 0 30 39v171q0 37 -30 37q-31 0 -31 -36v-172z" />
    <glyph glyph-name="seven" unicode="7" horiz-adv-x="325" 
d="M11 744h306v-120q-8 -56 -44 -242q-32 -179 -32 -293v-89h-160v76q0 102 54 265q77 233 77 283h-79v-109h-122v229z" />
    <glyph glyph-name="eight" unicode="8" horiz-adv-x="359" 
d="M338 612v-107q0 -68 -52 -99q59 -28 59 -105v-158q0 -69 -39 -111t-113 -43h-28q-151 0 -151 155v157q0 73 59 105q-52 28 -52 99v109q0 59 34.5 99t110.5 40h23q74 0 111.5 -39t37.5 -102zM205 486v118q0 32 -26 32q-25 0 -25 -32v-117q0 -32 26 -32q25 0 25 31z
M207 149v146q0 37 -28 37q-27 0 -27 -37v-146q0 -33 27 -33q28 0 28 33z" />
    <glyph glyph-name="nine" unicode="9" horiz-adv-x="368" 
d="M115 263h-8q-45 0 -69 34t-24 79v232q0 59 36.5 102t110.5 43h30q80 0 120.5 -40t40.5 -102v-480q0 -63 -36.5 -102.5t-111.5 -39.5h-30q-75 0 -110.5 31.5t-35.5 84.5v118h137v-83q0 -29 25 -29q23 0 23 29v189q-48 -66 -98 -66zM213 587q0 40 -31 40q-30 0 -30 -40
v-171q0 -38 30 -38q31 0 31 37v172z" />
    <glyph glyph-name="colon" unicode=":" horiz-adv-x="149" 
d="M134 437v-142h-119v142h119zM134 144v-144h-119v144h119z" />
    <glyph glyph-name="semicolon" unicode=";" horiz-adv-x="149" 
d="M134 437v-142h-119v142h119zM103 -96h-67q24 56 25 96h-46v144h119v-106q0 -69 -31 -134z" />
    <glyph glyph-name="less" unicode="&#x3c;" horiz-adv-x="286" 
d="M273 152l-263 105v87l263 105v-94l-155 -54l155 -54v-95z" />
    <glyph glyph-name="equal" unicode="=" horiz-adv-x="331" 
d="M15 398h301v-84h-301v84zM15 287h301v-83h-301v83z" />
    <glyph glyph-name="greater" unicode="&#x3e;" horiz-adv-x="285" 
d="M13 449l262 -105v-87l-262 -105v95l155 54l-155 54v94z" />
    <glyph glyph-name="question" unicode="?" horiz-adv-x="329" 
d="M199 167h-104v128q0 36 6.5 57t27.5 55l35 56q21 33 21 85v49q0 20 -5.5 27.5t-19.5 7.5q-15 0 -20 -8t-5 -27v-114h-124v118q0 72 28.5 112t107.5 40h27q77 0 110.5 -37.5t33.5 -107.5v-52q0 -47 -9 -78.5t-36 -66.5l-49 -67q-16 -22 -20.5 -36.5t-4.5 -48.5v-92z
M207 144v-144h-119v144h119z" />
    <glyph glyph-name="at" unicode="@" horiz-adv-x="579" 
d="M455 25l50 -59q-15 -22 -36.5 -42.5t-69 -42t-102.5 -21.5h-10q-39 0 -71.5 6t-71.5 29.5t-65.5 63t-45 113t-18.5 173.5v111q0 179 71 276.5t206 97.5h18q254 0 254 -305v-104q0 -283 -136 -283h-7q-75 0 -102 67q-36 -67 -91 -67h-5q-31 0 -55.5 31t-22.5 84l13 293
q2 40 22.5 68t54.5 28h6q40 0 76 -54l2 50h123l-22 -402q0 -18 13 -18q46 0 46 200v105q0 127 -42.5 178.5t-126.5 51.5h-18q-90 0 -139 -73.5t-50 -225.5v-107q0 -81 13 -140t31 -90.5t45 -50t48.5 -23t46.5 -4.5h10q95 0 158 86zM301 166l13 249q1 19 -3 26t-14 7
t-13.5 -7.5t-4.5 -25.5l-13 -250q-1 -19 2.5 -26.5t13.5 -7.5q18 0 19 35z" />
    <glyph glyph-name="A" unicode="A" horiz-adv-x="345" 
d="M220 0l-13 125h-80l-13 -125h-118l94 744h158l101 -744h-129zM140 253h53l-27 256z" />
    <glyph glyph-name="B" unicode="B" horiz-adv-x="372" 
d="M19 0v744h201q68 0 98.5 -30.5t30.5 -102.5v-99q0 -42 -19.5 -69t-43.5 -35q74 -19 74 -117v-124q0 -87 -30 -127t-92 -40h-219zM184 630h-32v-177h30q36 0 36 44v93q0 40 -34 40zM184 333h-32v-215h37q18 0 26 9.5t8 39.5v121q0 24 -8.5 34.5t-30.5 10.5z" />
    <glyph glyph-name="C" unicode="C" horiz-adv-x="368" 
d="M189 119q33 0 33 45v164h132v-168q0 -75 -36 -123.5t-118 -48.5h-27q-88 0 -122.5 48t-34.5 128v420q0 75 37 122t120 47h27q87 0 120.5 -45t33.5 -119v-125h-132v120q0 43 -34 43q-33 0 -33 -43v-420q0 -45 34 -45z" />
    <glyph glyph-name="D" unicode="D" horiz-adv-x="370" 
d="M19 0v744h189q75 0 110 -37.5t35 -121.5v-420q0 -83 -33 -124t-112 -41h-189zM152 626v-502h26q22 0 30.5 12t8.5 40v400q0 27 -8 38.5t-27 11.5h-30z" />
    <glyph glyph-name="E" unicode="E" horiz-adv-x="311" 
d="M19 744h278v-131h-145v-162h114v-134h-114v-183h152v-134h-285v744z" />
    <glyph glyph-name="F" unicode="F" horiz-adv-x="312" 
d="M19 0v744h285v-130h-152v-162h112v-134h-112v-318h-133z" />
    <glyph glyph-name="G" unicode="G" horiz-adv-x="374" 
d="M147 -10h-10q-56 0 -88.5 42t-32.5 104v443q0 77 36.5 125.5t118.5 48.5h27q47 0 79 -14t47.5 -40t21.5 -54t6 -65v-82h-130v83q0 24 -7.5 35.5t-26.5 11.5q-33 0 -33 -47v-414q0 -48 36 -48q39 0 39 46v160h-49v125h177v-450h-81q-10 42 -20 71q-39 -81 -110 -81z" />
    <glyph glyph-name="H" unicode="H" horiz-adv-x="374" 
d="M222 0v314h-70v-314h-133v744h133v-284h70v284h133v-744h-133z" />
    <glyph glyph-name="I" unicode="I" horiz-adv-x="171" 
d="M152 744v-744h-133v744h133z" />
    <glyph glyph-name="J" unicode="J" horiz-adv-x="350" 
d="M11 327h128v-172q0 -33 26 -33h4q25 0 25 33v589h138v-593q0 -77 -37 -118t-104 -41h-44q-68 0 -102 34.5t-34 110.5v190z" />
    <glyph glyph-name="K" unicode="K" horiz-adv-x="372" 
d="M241 0l-89 315v-315h-133v744h133v-286l87 286h131l-105 -338l116 -406h-140z" />
    <glyph glyph-name="L" unicode="L" horiz-adv-x="300" 
d="M19 744h133v-610h141v-134h-274v744z" />
    <glyph glyph-name="M" unicode="M" horiz-adv-x="457" 
d="M19 0v744h164l51 -376l51 376h153v-744h-120v440l-66 -440h-50l-67 440v-440h-116z" />
    <glyph glyph-name="N" unicode="N" horiz-adv-x="372" 
d="M19 744h125l91 -380v380h118v-744h-113l-103 408v-408h-118v744z" />
    <glyph glyph-name="O" unicode="O" horiz-adv-x="381" 
d="M365 564v-394q0 -83 -42 -132t-116 -49h-30q-78 0 -119.5 47t-41.5 134v393q0 190 160 190h30q159 0 159 -189zM226 166v408q0 49 -35 49q-36 0 -36 -49v-408q0 -44 37 -44q34 0 34 44z" />
    <glyph glyph-name="P" unicode="P" horiz-adv-x="357" 
d="M215 298h-63v-298h-133v744h189q80 0 108.5 -36t28.5 -111v-149q0 -150 -130 -150zM152 629v-210h25q21 0 27.5 11t6.5 31v124q0 22 -6.5 33t-27.5 11h-25z" />
    <glyph glyph-name="Q" unicode="Q" horiz-adv-x="381" 
d="M365 170q0 -70 -30.5 -116.5t-86.5 -59.5l64 -149h-166v146q-64 9 -97 55t-33 124v393q0 190 160 190h30q159 0 159 -189v-394zM226 166v408q0 49 -35 49q-36 0 -36 -49v-408q0 -44 37 -44q34 0 34 44z" />
    <glyph glyph-name="R" unicode="R" horiz-adv-x="365" 
d="M152 318v-318h-133v744h210q60 0 91 -32t31 -92v-119q0 -41 -18 -66t-41 -34q57 -21 57 -88v-253q0 -35 11 -55v-5h-133q-12 16 -12 57v217q0 25 -7.5 34.5t-27.5 9.5h-28zM152 629v-188h26q20 0 28.5 9.5t8.5 35.5v101q0 25 -6.5 33.5t-26.5 8.5h-30z" />
    <glyph glyph-name="S" unicode="S" horiz-adv-x="355" 
d="M348 175q0 -86 -41 -135t-121 -49h-26q-152 0 -152 154v134h131v-119q0 -45 34 -45q33 0 33 54v14q0 41 -7.5 63t-35.5 53l-77 85q-71 77 -71 189v32q0 71 40.5 109.5t110.5 38.5h27q76 0 109.5 -35.5t33.5 -110.5v-100h-128v93q0 39 -29 39t-29 -40v-17q0 -50 41 -96
l76 -85q47 -53 64 -96t17 -95v-35z" />
    <glyph glyph-name="T" unicode="T" 
d="M329 613h-95v-613h-133v613h-95v131h323v-131z" />
    <glyph glyph-name="U" unicode="U" horiz-adv-x="375" 
d="M357 173q0 -90 -41 -137t-113 -47h-33q-73 0 -112.5 46.5t-39.5 137.5v571h137v-576q0 -46 33 -46q32 0 32 46v576h137v-571z" />
    <glyph glyph-name="V" unicode="V" horiz-adv-x="357" 
d="M360 744l-95 -744h-169l-99 744h138l49 -499l49 499h127z" />
    <glyph glyph-name="W" unicode="W" horiz-adv-x="568" 
d="M325 0l-39 409l-39 -409h-157l-93 744h138l43 -476l47 476h127l47 -472l44 472h128l-95 -744h-151z" />
    <glyph glyph-name="X" unicode="X" horiz-adv-x="358" 
d="M178 258l-53 -258h-130l94 398l-81 346h134l41 -223l40 223h126l-79 -346l93 -398h-134z" />
    <glyph glyph-name="Y" unicode="Y" horiz-adv-x="327" 
d="M235 293v-293h-133v288l-110 456h133l45 -264l45 264h120z" />
    <glyph glyph-name="Z" unicode="Z" horiz-adv-x="330" 
d="M18 744h294v-118l-162 -496h173v-130h-316v120l162 496h-151v128z" />
    <glyph glyph-name="bracketleft" unicode="[" horiz-adv-x="196" 
d="M32 -131v939h160v-95h-54v-748h54v-96h-160z" />
    <glyph glyph-name="backslash" unicode="\" horiz-adv-x="215" 
d="M131 -131l-131 939h94l131 -939h-94z" />
    <glyph glyph-name="bracketright" unicode="]" horiz-adv-x="196" 
d="M4 713v95h160v-939h-160v96h54v748h-54z" />
    <glyph glyph-name="asciicircum" unicode="^" horiz-adv-x="233" 
d="M0 433l65 311h102l66 -311h-89l-29 164l-27 -164h-88z" />
    <glyph glyph-name="underscore" unicode="_" horiz-adv-x="329" 
d="M0 -115v95h329v-95h-329z" />
    <glyph glyph-name="grave" unicode="`" horiz-adv-x="338" 
d="M201 700l41 -136h-102l-45 136h106z" />
    <glyph glyph-name="a" unicode="a" 
d="M12 88v117q0 75 56 110q13 8 55 28.5t49 24.5q8 5 8 20v29q0 29 -22 29h-4q-22 0 -22 -29v-53h-114v74q0 44 28 75t98 31h23q75 0 105.5 -30.5t30.5 -87.5v-297q0 -9 3.5 -12t15.5 -3h14v-114h-119q-37 0 -37 61q-36 -66 -91 -66h-4q-35 0 -54 27.5t-19 65.5zM180 134
v131q-24 -13 -33 -25q-12 -15 -12 -41v-65q0 -32 21 -32q24 0 24 32z" />
    <glyph glyph-name="b" unicode="b" horiz-adv-x="336" 
d="M16 744h128v-266q40 66 91 66h6q37 0 58.5 -28.5t21.5 -66.5v-338q0 -46 -28.5 -83t-70.5 -37h-2q-26 0 -47 14.5t-30.5 28t-23.5 38.5q-13 -46 -13 -72h-90v744zM144 137q0 -35 24 -35t24 33v264q0 35 -25 35q-23 0 -23 -35v-262z" />
    <glyph glyph-name="c" unicode="c" horiz-adv-x="318" 
d="M307 125q0 -60 -33 -98t-99 -38h-21q-72 0 -106.5 38t-34.5 102v271q0 148 139 148h25q130 0 130 -130v-89h-118v76q0 38 -24 38q-23 0 -23 -37v-271q0 -33 22 -33q24 0 24 31v108h119v-116z" />
    <glyph glyph-name="d" unicode="d" horiz-adv-x="340" 
d="M196 744h128v-744h-128v60q-12 -26 -35.5 -48.5t-53.5 -22.5h-2q-40 0 -65 33.5t-25 81.5v333q0 42 21.5 74.5t58.5 32.5h5q55 0 96 -66v266zM144 138q0 -37 25 -37q27 0 27 42v249q0 42 -27 42q-25 0 -25 -37v-259z" />
    <glyph glyph-name="e" unicode="e" horiz-adv-x="319" 
d="M307 117q0 -61 -38 -94t-97 -33h-24q-62 0 -98.5 33t-36.5 94v296q0 59 33 97t102 38h24q135 0 135 -137v-159h-171v-117q0 -33 25 -33q23 0 23 33v80h123v-98zM136 413v-65h52v65q0 36 -26 36q-16 0 -21 -8.5t-5 -27.5z" />
    <glyph glyph-name="f" unicode="f" horiz-adv-x="270" 
d="M263 744v-113h-49q-12 0 -16 -5t-4 -18v-70h69v-119h-69v-419h-127v419h-63v119h63v132q0 30 21 52t61 22h114z" />
    <glyph glyph-name="g" unicode="g" horiz-adv-x="338" 
d="M322 -74q0 -51 -32 -86t-113 -35h-18q-139 0 -139 98v72h123v-44q0 -23 22 -23h5q24 0 24 27v125q-38 -70 -87 -70q-40 0 -66 29t-26 76v321q0 57 22 91t63 34h1q53 0 95 -68v65h126v-612zM145 128q0 -32 24 -32q25 0 25 33v270q0 34 -25 34q-24 0 -24 -33v-272z" />
    <glyph glyph-name="h" unicode="h" horiz-adv-x="340" 
d="M16 0v744h128v-268q43 64 96 64h5q36 0 57.5 -23.5t21.5 -60.5v-456h-129v398q0 30 -25 30q-26 0 -26 -34v-394h-128z" />
    <glyph glyph-name="i" unicode="i" horiz-adv-x="160" 
d="M144 690v-126h-128v126h128zM144 538v-538h-128v538h128z" />
    <glyph glyph-name="j" unicode="j" horiz-adv-x="161" 
d="M145 690v-126h-128v126h128zM-53 -69h52q10 0 14 4.5t4 16.5v586h128v-654q0 -30 -20.5 -51t-53.5 -21h-124v119z" />
    <glyph glyph-name="k" unicode="k" horiz-adv-x="342" 
d="M221 0l-77 239v-239h-128v744h128v-393l75 187h122l-94 -226l101 -312h-127z" />
    <glyph glyph-name="l" unicode="l" horiz-adv-x="160" 
d="M144 744v-744h-128v744h128z" />
    <glyph glyph-name="m" unicode="m" horiz-adv-x="512" 
d="M144 392v-392h-128v538h127v-63q43 67 92 67h4q31 0 52 -19t27 -47q44 66 96 66h5q36 0 56.5 -24.5t20.5 -61.5v-456h-128v392q0 36 -24 36t-24 -36v-392h-128v392q0 36 -25 36q-23 0 -23 -36z" />
    <glyph glyph-name="n" unicode="n" horiz-adv-x="340" 
d="M16 0v538h127v-65q45 67 97 67h7q40 0 58.5 -29t18.5 -61v-450h-129v396q0 32 -25 32q-26 0 -26 -36v-392h-128z" />
    <glyph glyph-name="o" unicode="o" horiz-adv-x="337" 
d="M153 -10q-70 0 -105 42t-35 110v255q0 72 37 111.5t103 39.5h30q66 0 103.5 -39t37.5 -110v-255q0 -67 -38 -110.5t-103 -43.5h-30zM142 144q0 -38 26 -38q27 0 27 38v256q0 37 -27 37q-26 0 -26 -37v-256z" />
    <glyph glyph-name="p" unicode="p" horiz-adv-x="340" 
d="M16 538h128v-59q40 65 94 65h2q42 0 63.5 -31.5t21.5 -83.5v-321q0 -53 -26.5 -86t-63.5 -33h-2q-51 0 -89 58v-235h-128v726zM144 130q0 -36 25 -36t25 35v273q0 34 -25 34t-25 -34v-272z" />
    <glyph glyph-name="q" unicode="q" horiz-adv-x="340" 
d="M236 538h88v-726h-128v247q-37 -69 -90 -69h-6q-37 0 -61 34.5t-24 78.5v310q0 57 23 94t76 37h8q34 0 56 -22.5t42 -61.5q11 30 16 78zM145 131q0 -35 25 -35q26 0 26 39v263q0 36 -27 36q-24 0 -24 -36v-267z" />
    <glyph glyph-name="r" unicode="r" horiz-adv-x="304" 
d="M144 403v-403h-128v538h127v-67q29 70 85 70h6q61 0 61 -66v-195h-119v123q0 26 -16 26t-16 -26z" />
    <glyph glyph-name="s" unicode="s" horiz-adv-x="298" 
d="M294 129q0 -60 -33.5 -99t-99.5 -39h-26q-66 0 -98 32.5t-32 84.5v88h118v-72q0 -30 23 -30h1q21 0 21 31v12q0 40 -28 67l-68 65q-34 33 -47 65.5t-13 76.5v17q0 56 32 88t94 32h27q122 0 122 -102v-73h-114v56q0 28 -21 28t-21 -28v-11q0 -29 23 -52l71 -70
q40 -40 54.5 -72.5t14.5 -76.5v-18z" />
    <glyph glyph-name="t" unicode="t" horiz-adv-x="263" 
d="M254 0h-128q-26 0 -43.5 19t-17.5 47v353h-61v119h61v178h127v-178h62v-119h-62v-276q0 -12 3.5 -17t15.5 -5h43v-121z" />
    <glyph glyph-name="u" unicode="u" 
d="M319 538v-538h-124v66q-45 -68 -97 -68h-4q-36 0 -57 28.5t-21 64.5v447h129v-395q0 -33 22 -33q25 0 25 36v392h127z" />
    <glyph glyph-name="v" unicode="v" horiz-adv-x="309" 
d="M313 538l-88 -538h-147l-82 538h124l36 -343l35 343h122z" />
    <glyph glyph-name="w" unicode="w" horiz-adv-x="494" 
d="M283 0l-34 292l-35 -292h-137l-81 538h126l36 -333l36 333h113l36 -337l35 337h120l-82 -538h-133z" />
    <glyph glyph-name="x" unicode="x" horiz-adv-x="311" 
d="M193 0l-38 170l-40 -170h-119l77 289l-72 249h122l35 -153l31 153h117l-68 -245l77 -293h-122z" />
    <glyph glyph-name="y" unicode="y" horiz-adv-x="311" 
d="M203 -107q-14 -81 -74 -81h-116v119h53q12 0 16 6t6 21l2 21q1 14 -1 30l-93 529h126l37 -297l34 297h123z" />
    <glyph glyph-name="z" unicode="z" horiz-adv-x="266" 
d="M14 538h241v-106l-124 -318h131v-114h-258v107l125 319h-115v112z" />
    <glyph glyph-name="braceleft" unicode="{" horiz-adv-x="206" 
d="M35 291h-20v100h20q30 0 30 34q0 40 -15.5 142t-15.5 128q0 56 32 84.5t92 28.5h44v-92h-21q-39 0 -39 -43q0 -23 14 -119.5t14 -121.5q0 -36 -11 -58t-40 -33q51 -19 51 -85q0 -26 -14 -123t-14 -120q0 -53 43 -53h17v-91h-44q-60 0 -92 30.5t-32 87.5q0 23 15.5 125.5
t15.5 140.5t-30 38z" />
    <glyph glyph-name="bar" unicode="|" horiz-adv-x="167" 
d="M129 808v-939h-91v939h91z" />
    <glyph glyph-name="braceright" unicode="}" horiz-adv-x="206" 
d="M170 391h21v-100h-21q-30 0 -30 -38t16 -140.5t16 -125.5q0 -57 -32 -87.5t-92 -30.5h-44v91h16q44 0 44 53q0 23 -14.5 119.5t-14.5 123.5q0 33 11 53.5t41 31.5q-30 11 -41 33t-11 58q0 26 14.5 122t14.5 119q0 43 -39 43h-21v92h44q59 0 91.5 -28.5t32.5 -84.5
q0 -26 -16 -128t-16 -142q0 -34 30 -34z" />
    <glyph glyph-name="asciitilde" unicode="~" horiz-adv-x="280" 
d="M205 304q-21 0 -36.5 9t-36.5 32q-26 29 -32 29q-7 0 -7 -11v-62h-84v118q0 31 17.5 53t49.5 22q35 0 74 -42q24 -27 30 -27q7 0 7 10v63h84v-119q0 -33 -19 -54t-47 -21z" />
    <glyph glyph-name="exclamdown" unicode="&#xa1;" horiz-adv-x="160" 
d="M152 -206h-145l47 577h51zM20 394v144h119v-144h-119z" />
    <glyph glyph-name="cent" unicode="&#xa2;" horiz-adv-x="323" 
d="M313 125q0 -57 -33 -96t-96 -40v-64h-34v64q-69 1 -103 39.5t-34 100.5v271q0 70 34 109t103 39v64h34v-64q129 -1 129 -130v-88h-108v77q0 33 -21 39v-349q20 9 20 37v108h109v-117zM130 134q0 -30 20 -38v350q-20 -6 -20 -38v-274z" />
    <glyph glyph-name="sterling" unicode="&#xa3;" horiz-adv-x="411" 
d="M398 249v-249h-392v89q47 34 62.5 65t15.5 87q0 16 -5 69h-73v110h63q-8 70 -8 101v69q0 163 150 163h30q137 0 137 -142v-128h-123v107q0 42 -29 42q-17 0 -23.5 -9.5t-6.5 -32.5v-82q0 -37 3 -88h125v-110h-120q0 -12 0.5 -31.5t0.5 -26.5q0 -77 -56 -135h125v132h124z
" />
    <glyph glyph-name="yen" unicode="&#xa5;" horiz-adv-x="354" 
d="M343 218h-100v-218h-133v218h-99v84h99v26h-99v84h85l-96 332h131l48 -241l45 241h119l-87 -332h87v-84h-100v-26h100v-84z" />
    <glyph glyph-name="brokenbar" unicode="&#xa6;" horiz-adv-x="167" 
d="M129 808v-426h-91v426h91zM129 343v-474h-91v474h91z" />
    <glyph glyph-name="section" unicode="&#xa7;" horiz-adv-x="401" 
d="M355 -45q0 -70 -37 -110t-111 -40h-31q-137 0 -137 144v104h128v-99q0 -34 28 -34q25 0 25 36v44q0 30 -8 47t-35 40l-88 69q-49 38 -64.5 69.5t-15.5 85.5v33q0 81 82 104q-42 47 -42 139v19q0 147 153 147h18q76 0 109 -34.5t33 -111.5v-79h-126v77q0 21 -6 28.5
t-21 7.5q-26 0 -26 -36v-17q0 -34 7.5 -50.5t32.5 -38.5q57 -44 86 -68q52 -44 67.5 -74t15.5 -82v-24q0 -86 -85 -111q29 -30 38.5 -54.5t9.5 -65.5v-65zM222 327l-67 52q-24 -4 -24 -33v-17q-1 -21 7.5 -34t34.5 -33l68 -53q12 2 18 10.5t6 29.5v10q0 21 -8 33.5t-35 34.5
z" />
    <glyph glyph-name="dieresis" unicode="&#xa8;" horiz-adv-x="338" 
d="M157 670v-106h-100v106h100zM281 670v-106h-100v106h100z" />
    <glyph glyph-name="copyright" unicode="&#xa9;" horiz-adv-x="515" 
d="M264 -11h-10q-237 0 -237 255v258q0 123 62.5 188t175.5 65h12q113 0 172 -63.5t59 -189.5v-258q0 -129 -63.5 -192t-170.5 -63zM95 259q0 -203 161 -203h8q158 0 158 203v230q0 199 -156 199h-10q-86 0 -123.5 -50t-37.5 -149v-230zM244 233q0 -26 18 -26q17 0 17 26
v107h104v-117q0 -49 -31 -81t-81 -32h-18q-57 0 -87 33.5t-30 88.5v276q0 61 28.5 94.5t85.5 33.5h22q110 0 110 -115v-82h-104v75q0 9 -1 14t-4.5 8.5t-10.5 3.5q-18 0 -18 -26v-281z" />
    <glyph glyph-name="ordfeminine" unicode="&#xaa;" horiz-adv-x="202" 
d="M108 488q-20 -40 -55 -40q-21 0 -33 16t-12 39v53q0 40 34 62q8 5 32.5 17.5t28.5 14.5q5 3 5 12v9q0 16 -12 16h-1q-12 0 -12 -17v-20h-72v34q0 26 17 45t59 19h14q46 0 64 -18.5t18 -52.5v-151q0 -8 8 -8h11v-67h-71q-23 0 -23 37zM108 589q-10 -4 -17 -11t-7 -23v-28
q0 -17 11 -17q13 0 13 18v61z" />
    <glyph glyph-name="guillemotleft" unicode="&#xab;" horiz-adv-x="269" 
d="M100 286l50 -167h-92l-48 137v60l48 135h92zM220 286l43 -167h-93l-48 167l48 165h94z" />
    <glyph glyph-name="registered" unicode="&#xae;" horiz-adv-x="277" 
d="M144 399h-8q-58 0 -91.5 35t-33.5 99v86q0 60 33 95.5t92 35.5h9q57 0 89 -35t32 -95v-87q0 -61 -35 -97.5t-87 -36.5zM53 538q0 -102 83 -102h8q80 0 80 102v77q0 98 -79 98h-9q-45 0 -64 -24.5t-19 -76.5v-74zM132 560v-93h-51v220h76q40 0 40 -40v-30q0 -22 -19 -32
q19 -5 19 -29v-65q0 -13 3 -19v-5h-49q-3 7 -3 20v60q0 13 -10 13h-6zM132 650v-51h7q9 0 9 13v26q0 12 -9 12h-7z" />
    <glyph glyph-name="macron" unicode="&#xaf;" horiz-adv-x="338" 
d="M74 576v87h191v-87h-191z" />
    <glyph glyph-name="degree" unicode="&#xb0;" horiz-adv-x="206" 
d="M3 649q0 42 28.5 70t72.5 28q42 0 70.5 -28.5t28.5 -69.5t-28 -69t-71 -28q-44 0 -72.5 27.5t-28.5 69.5zM67 650q0 -38 36 -38t36 38q0 16 -10 26.5t-26 10.5q-17 0 -26.5 -10.5t-9.5 -26.5z" />
    <glyph glyph-name="two.sup" unicode="&#xb2;" horiz-adv-x="220" 
d="M211 524v-122h-206v44q0 29 15 55.5t65 82.5q22 25 26.5 36.5t4.5 30.5v16q0 17 -14 17q-13 0 -13 -17v-53h-78v57q0 34 19.5 56.5t63.5 22.5h15q94 0 94 -79v-18q0 -34 -14 -58.5t-49 -56.5q-41 -37 -48.5 -46.5t-7.5 -21.5h53v54h74z" />
    <glyph glyph-name="three.sup" unicode="&#xb3;" horiz-adv-x="210" 
d="M87 630h-77v36q0 84 85 84h12q88 0 88 -81v-23q0 -42 -30 -54q37 -14 37 -54v-55q0 -86 -92 -86h-14q-87 0 -87 79v51h80v-46q0 -17 13 -17q12 0 12 17v49q0 15 -13 15h-39v69h37q14 0 14 16v38q0 18 -13 18t-13 -18v-38z" />
    <glyph glyph-name="acute" unicode="&#xb4;" horiz-adv-x="338" 
d="M95 564l42 136h105l-44 -136h-103z" />
    <glyph glyph-name="paragraph" unicode="&#xb6;" horiz-adv-x="373" 
d="M11 644q0 46 30 73t81 27h249v-98h-39v-646h-85v646h-34v-646h-85v342h-6q-53 0 -82 26.5t-29 76.5v199z" />
    <glyph glyph-name="periodcentered" unicode="&#xb7;" horiz-adv-x="145" 
d="M132 388v-144h-119v144h119z" />
    <glyph glyph-name="cedilla" unicode="&#xb8;" horiz-adv-x="338" 
d="M248 -111q0 -38 -26 -57.5t-70 -19.5h-61v63h50q22 0 22 17v1q0 15 -22 15h-35v92h60v-36h3q79 -3 79 -72v-3z" />
    <glyph glyph-name="one.sup" unicode="&#xb9;" horiz-adv-x="147" 
d="M47 638h-43v66q29 0 40.5 10.5t14.5 29.5h72v-340h-84v234z" />
    <glyph glyph-name="ordmasculine" unicode="&#xba;" horiz-adv-x="208" 
d="M113 448h-18q-84 0 -84 92v115q0 44 22 68.5t62 24.5h18q39 0 61.5 -23.5t22.5 -68.5v-116q0 -42 -23 -67t-61 -25zM90 535q0 -19 14 -19t14 19v127q0 19 -14 19t-14 -19v-127z" />
    <glyph glyph-name="guillemotright" unicode="&#xbb;" horiz-adv-x="268" 
d="M118 119l50 166l-50 166h93l47 -137v-59l-48 -136h-92zM5 119l44 166l-44 166h93l48 -166l-48 -166h-93z" />
    <glyph glyph-name="onequarter" unicode="&#xbc;" horiz-adv-x="375" 
d="M47 638h-43v66q29 0 40.5 10.5t14.5 29.5h72v-340h-84v234zM275 744h81l-267 -744h-81zM172 59v58q55 134 86 225h83v-211h28v-72h-28v-59h-80v59h-89zM230 131h31v87q-14 -47 -31 -87z" />
    <glyph glyph-name="onehalf" unicode="&#xbd;" horiz-adv-x="423" 
d="M275 744h81l-267 -744h-81zM414 0h-206v44q0 28 15 55t65 83q22 25 26.5 36.5t4.5 30.5v16q0 17 -14 17q-13 0 -13 -17v-53h-78v57q0 34 19.5 56.5t63.5 22.5h15q94 0 94 -79v-18q0 -34 -14 -58.5t-49 -56.5q-41 -37 -48.5 -46.5t-7.5 -21.5h53v54h74v-122zM47 638h-43
v66q29 0 40.5 10.5t14.5 29.5h72v-340h-84v234z" />
    <glyph glyph-name="threequarters" unicode="&#xbe;" horiz-adv-x="428" 
d="M225 59v58q55 134 86 225h83v-211h28v-72h-28v-59h-80v59h-89zM283 131h31v87q-14 -47 -31 -87zM328 744h81l-267 -744h-81zM87 630h-77v36q0 84 85 84h12q88 0 88 -81v-23q0 -42 -30 -54q37 -14 37 -54v-55q0 -86 -92 -86h-14q-87 0 -87 79v51h80v-46q0 -17 13 -17
q12 0 12 17v49q0 15 -13 15h-39v69h37q14 0 14 16v38q0 18 -13 18t-13 -18v-38z" />
    <glyph glyph-name="questiondown" unicode="&#xbf;" horiz-adv-x="329" 
d="M130 371h104v-128q0 -36 -6.5 -57t-27.5 -55l-35 -56q-21 -33 -21 -85v-49q0 -20 5.5 -27.5t19.5 -7.5q15 0 20 8t5 27v114h124v-118q0 -72 -28.5 -112t-107.5 -40h-27q-77 0 -110.5 37.5t-33.5 107.5v52q0 47 9 78.5t36 66.5l49 67q16 22 20.5 36.5t4.5 48.5v92z
M122 394v144h119v-144h-119z" />
    <glyph glyph-name="Agrave" unicode="&#xc0;" horiz-adv-x="345" 
d="M220 0l-13 125h-80l-13 -125h-118l94 744h158l101 -744h-129zM140 253h53l-27 256zM180 885l43 -115h-104l-44 115h105z" />
    <glyph glyph-name="Aacute" unicode="&#xc1;" horiz-adv-x="345" 
d="M220 0l-13 125h-80l-13 -125h-118l94 744h158l101 -744h-129zM140 253h53l-27 256zM116 770l43 115h106l-45 -115h-104z" />
    <glyph glyph-name="Acircumflex" unicode="&#xc2;" horiz-adv-x="345" 
d="M220 0l-13 125h-80l-13 -125h-118l94 744h158l101 -744h-129zM140 253h53l-27 256zM219 885l66 -115h-89l-28 47l-27 -47h-89l65 115h102z" />
    <glyph glyph-name="Atilde" unicode="&#xc3;" horiz-adv-x="345" 
d="M220 0l-13 125h-80l-13 -125h-118l94 744h158l101 -744h-129zM140 253h53l-27 256zM135 785v-16h-72v34q0 37 15 57t42 20q25 0 54 -13q21 -10 27 -10t6 10v16h72v-34q0 -38 -17 -57t-40 -19q-22 0 -54 14q-22 9 -25 9q-8 0 -8 -11z" />
    <glyph glyph-name="Adieresis" unicode="&#xc4;" horiz-adv-x="345" 
d="M220 0l-13 125h-80l-13 -125h-118l94 744h158l101 -744h-129zM140 253h53l-27 256zM280 876v-106h-100v106h100zM155 876v-106h-100v106h100z" />
    <glyph glyph-name="Aring" unicode="&#xc5;" horiz-adv-x="345" 
d="M220 0l-13 125h-80l-13 -125h-118l94 744h158l101 -744h-129zM140 253h53l-27 256zM247 844q0 -35 -22.5 -57t-57.5 -22t-57.5 22t-22.5 57t22.5 57t57.5 22t57.5 -22t22.5 -57zM135 844q0 -14 8.5 -23.5t23.5 -9.5t23.5 9.5t8.5 23.5t-8.5 23.5t-23.5 9.5t-23.5 -9.5
t-8.5 -23.5z" />
    <glyph glyph-name="AE" unicode="&#xc6;" horiz-adv-x="511" 
d="M223 0v131h-81l-22 -131h-128l140 744h362v-132h-138v-161h107v-135h-107v-182h148v-134h-281zM164 258h59v344z" />
    <glyph glyph-name="Ccedilla" unicode="&#xc7;" horiz-adv-x="368" 
d="M274 -111q0 -38 -26 -57.5t-70 -19.5h-61v63h50q22 0 22 17v1q0 15 -22 15h-35v83q-116 20 -116 173v420q0 75 37 122t120 47h27q87 0 120.5 -45t33.5 -119v-125h-132v120q0 43 -34 43q-33 0 -33 -43v-420q0 -45 34 -45q33 0 33 45v164h132v-168q0 -75 -36 -123.5
t-118 -48.5h-8v-24h3q79 -3 79 -72v-3z" />
    <glyph glyph-name="Egrave" unicode="&#xc8;" horiz-adv-x="311" 
d="M19 744h278v-131h-145v-162h114v-134h-114v-183h152v-134h-285v744zM174 885l43 -115h-104l-44 115h105z" />
    <glyph glyph-name="Eacute" unicode="&#xc9;" horiz-adv-x="311" 
d="M19 744h278v-131h-145v-162h114v-134h-114v-183h152v-134h-285v744zM106 770l43 115h106l-45 -115h-104z" />
    <glyph glyph-name="Ecircumflex" unicode="&#xca;" horiz-adv-x="311" 
d="M19 744h278v-131h-145v-162h114v-134h-114v-183h152v-134h-285v744zM211 885l66 -115h-89l-28 47l-27 -47h-89l65 115h102z" />
    <glyph glyph-name="Edieresis" unicode="&#xcb;" horiz-adv-x="311" 
d="M19 744h278v-131h-145v-162h114v-134h-114v-183h152v-134h-285v744zM273 876v-106h-100v106h100zM148 876v-106h-100v106h100z" />
    <glyph glyph-name="Igrave" unicode="&#xcc;" horiz-adv-x="171" 
d="M152 744v-744h-133v744h133zM95 885l43 -115h-104l-44 115h105z" />
    <glyph glyph-name="Iacute" unicode="&#xcd;" horiz-adv-x="171" 
d="M152 744v-744h-133v744h133zM33 770l43 115h106l-45 -115h-104z" />
    <glyph glyph-name="Icircumflex" unicode="&#xce;" horiz-adv-x="171" 
d="M152 744v-744h-133v744h133zM134 883l66 -115h-89l-28 47l-27 -47h-89l65 115h102z" />
    <glyph glyph-name="Idieresis" unicode="&#xcf;" horiz-adv-x="171" 
d="M152 744v-744h-133v744h133zM198 876v-106h-100v106h100zM73 876v-106h-100v106h100z" />
    <glyph glyph-name="Eth" unicode="&#xd0;" horiz-adv-x="373" 
d="M23 0v325h-25v118h25v301h189q75 0 110 -37.5t35 -121.5v-420q0 -83 -33 -124t-112 -41h-189zM156 626v-183h43v-118h-43v-201h26q22 0 30.5 12t8.5 40v400q0 27 -8 38.5t-27 11.5h-30z" />
    <glyph glyph-name="Ntilde" unicode="&#xd1;" horiz-adv-x="372" 
d="M19 744h125l91 -380v380h118v-744h-113l-103 408v-408h-118v744zM160 785v-16h-72v34q0 37 15 57t42 20q25 0 54 -13q21 -10 27 -10t6 10v16h72v-34q0 -38 -17 -57t-40 -19q-22 0 -54 14q-22 9 -25 9q-8 0 -8 -11z" />
    <glyph glyph-name="Ograve" unicode="&#xd2;" horiz-adv-x="381" 
d="M200 885l43 -114h-104l-44 114h105zM365 564v-394q0 -83 -42 -132t-116 -49h-30q-78 0 -119.5 47t-41.5 134v393q0 190 160 190h30q159 0 159 -189zM226 166v408q0 49 -35 49q-36 0 -36 -49v-408q0 -44 37 -44q34 0 34 44z" />
    <glyph glyph-name="Oacute" unicode="&#xd3;" horiz-adv-x="381" 
d="M138 771l43 114h106l-45 -114h-104zM365 564v-394q0 -83 -42 -132t-116 -49h-30q-78 0 -119.5 47t-41.5 134v393q0 190 160 190h30q159 0 159 -189zM226 166v408q0 49 -35 49q-36 0 -36 -49v-408q0 -44 37 -44q34 0 34 44z" />
    <glyph glyph-name="Ocircumflex" unicode="&#xd4;" horiz-adv-x="381" 
d="M241 885l66 -114h-89l-28 46l-27 -46h-89l65 114h102zM365 564v-394q0 -83 -42 -132t-116 -49h-30q-78 0 -119.5 47t-41.5 134v393q0 190 160 190h30q159 0 159 -189zM226 166v408q0 49 -35 49q-36 0 -36 -49v-408q0 -44 37 -44q34 0 34 44z" />
    <glyph glyph-name="Otilde" unicode="&#xd5;" horiz-adv-x="381" 
d="M365 564v-394q0 -83 -42 -132t-116 -49h-30q-78 0 -119.5 47t-41.5 134v393q0 190 160 190h30q159 0 159 -189zM226 166v408q0 49 -35 49q-36 0 -36 -49v-408q0 -44 37 -44q34 0 34 44zM155 786v-16h-72v34q0 37 15 57t42 20q25 0 54 -13q21 -10 27 -10t6 10v16h72v-34
q0 -38 -17 -57t-40 -19q-22 0 -54 14q-22 9 -25 9q-8 0 -8 -11z" />
    <glyph glyph-name="Odieresis" unicode="&#xd6;" horiz-adv-x="381" 
d="M178 876v-105h-100v105h100zM303 876v-105h-100v105h100zM365 564v-394q0 -83 -42 -132t-116 -49h-30q-78 0 -119.5 47t-41.5 134v393q0 190 160 190h30q159 0 159 -189zM226 166v408q0 49 -35 49q-36 0 -36 -49v-408q0 -44 37 -44q34 0 34 44z" />
    <glyph glyph-name="multiply" unicode="&#xd7;" horiz-adv-x="311" 
d="M304 214l-63 -65l-86 87l-84 -87l-63 60l86 89l-87 88l65 66l85 -87l84 87l63 -62l-85 -88z" />
    <glyph glyph-name="Oslash" unicode="&#xd8;" horiz-adv-x="377" 
d="M361 170q0 -83 -42 -132t-116 -49h-25q-58 0 -96 35l-10 -24h-74l34 83q-16 38 -16 87v393q0 190 160 190h25q58 0 93 -32l10 23h74l-33 -84q16 -36 16 -96v-394zM151 574v-224l75 209v15q0 49 -37 49q-38 0 -38 -49zM151 166q0 -44 39 -44q36 0 36 44v228l-75 -206v-22z
" />
    <glyph glyph-name="Ugrave" unicode="&#xd9;" horiz-adv-x="375" 
d="M357 173q0 -90 -41 -137t-113 -47h-33q-73 0 -112.5 46.5t-39.5 137.5v571h137v-576q0 -46 33 -46q32 0 32 46v576h137v-571zM198 885l43 -115h-104l-44 115h105z" />
    <glyph glyph-name="Uacute" unicode="&#xda;" horiz-adv-x="375" 
d="M357 173q0 -90 -41 -137t-113 -47h-33q-73 0 -112.5 46.5t-39.5 137.5v571h137v-576q0 -46 33 -46q32 0 32 46v576h137v-571zM134 770l43 115h106l-45 -115h-104z" />
    <glyph glyph-name="Ucircumflex" unicode="&#xdb;" horiz-adv-x="375" 
d="M357 173q0 -90 -41 -137t-113 -47h-33q-73 0 -112.5 46.5t-39.5 137.5v571h137v-576q0 -46 33 -46q32 0 32 46v576h137v-571zM238 885l66 -115h-89l-28 47l-27 -47h-89l65 115h102z" />
    <glyph glyph-name="Udieresis" unicode="&#xdc;" horiz-adv-x="375" 
d="M357 173q0 -90 -41 -137t-113 -47h-33q-73 0 -112.5 46.5t-39.5 137.5v571h137v-576q0 -46 33 -46q32 0 32 46v576h137v-571zM300 876v-106h-100v106h100zM175 876v-106h-100v106h100z" />
    <glyph glyph-name="Yacute" unicode="&#xdd;" horiz-adv-x="327" 
d="M235 293v-293h-133v288l-110 456h133l45 -264l45 264h120zM114 770l43 115h106l-45 -115h-104z" />
    <glyph glyph-name="Thorn" unicode="&#xde;" horiz-adv-x="362" 
d="M221 188h-69v-188h-133v744h133v-150h69q67 0 98.5 -31t31.5 -102v-131q0 -142 -130 -142zM152 485v-187h31q19 0 26.5 9.5t7.5 30.5v106q0 22 -7.5 31.5t-27.5 9.5h-30z" />
    <glyph glyph-name="germandbls" unicode="&#xdf;" horiz-adv-x="338" 
d="M265 443q32 -12 47 -35t15 -66v-212q0 -67 -27 -98.5t-93 -31.5h-47v119h16q19 0 19 25v180q0 24 -20 24h-15v118h14q19 0 19 28v110q0 30 -23 30h-6q-21 0 -21 -29v-605h-127v606q0 64 34.5 101t102.5 37h27q71 0 103.5 -33.5t32.5 -99.5v-86q0 -31 -15.5 -53t-35.5 -29
z" />
    <glyph glyph-name="agrave" unicode="&#xe0;" 
d="M168 700l41 -136h-102l-45 136h106zM12 88v117q0 75 56 110q13 8 55 28.5t49 24.5q8 5 8 20v29q0 29 -22 29h-4q-22 0 -22 -29v-53h-114v74q0 44 28 75t98 31h23q75 0 105.5 -30.5t30.5 -87.5v-297q0 -9 3.5 -12t15.5 -3h14v-114h-119q-37 0 -37 61q-36 -66 -91 -66h-4
q-35 0 -54 27.5t-19 65.5zM180 134v131q-24 -13 -33 -25q-12 -15 -12 -41v-65q0 -32 21 -32q24 0 24 32z" />
    <glyph glyph-name="aacute" unicode="&#xe1;" 
d="M106 564l42 136h105l-44 -136h-103zM12 88v117q0 75 56 110q13 8 55 28.5t49 24.5q8 5 8 20v29q0 29 -22 29h-4q-22 0 -22 -29v-53h-114v74q0 44 28 75t98 31h23q75 0 105.5 -30.5t30.5 -87.5v-297q0 -9 3.5 -12t15.5 -3h14v-114h-119q-37 0 -37 61q-36 -66 -91 -66h-4
q-35 0 -54 27.5t-19 65.5zM180 134v131q-24 -13 -33 -25q-12 -15 -12 -41v-65q0 -32 21 -32q24 0 24 32z" />
    <glyph glyph-name="acircumflex" unicode="&#xe2;" 
d="M212 700l62 -136h-91l-24 62l-25 -62h-89l61 136h106zM12 88v117q0 75 56 110q13 8 55 28.5t49 24.5q8 5 8 20v29q0 29 -22 29h-4q-22 0 -22 -29v-53h-114v74q0 44 28 75t98 31h23q75 0 105.5 -30.5t30.5 -87.5v-297q0 -9 3.5 -12t15.5 -3h14v-114h-119q-37 0 -37 61
q-36 -66 -91 -66h-4q-35 0 -54 27.5t-19 65.5zM180 134v131q-24 -13 -33 -25q-12 -15 -12 -41v-65q0 -32 21 -32q24 0 24 32z" />
    <glyph glyph-name="atilde" unicode="&#xe3;" 
d="M12 88v117q0 75 56 110q13 8 55 28.5t49 24.5q8 5 8 20v29q0 29 -22 29h-4q-22 0 -22 -29v-53h-114v74q0 44 28 75t98 31h23q75 0 105.5 -30.5t30.5 -87.5v-297q0 -9 3.5 -12t15.5 -3h14v-114h-119q-37 0 -37 61q-36 -66 -91 -66h-4q-35 0 -54 27.5t-19 65.5zM180 134
v131q-24 -13 -33 -25q-12 -15 -12 -41v-65q0 -32 21 -32q24 0 24 32zM120 579v-16h-72v47q0 31 14.5 49.5t40.5 18.5q20 0 59 -18q19 -8 23 -8q6 0 6 10v16h73v-56q0 -25 -15 -42t-39 -17q-22 0 -60 19q-19 9 -23 9q-7 0 -7 -12z" />
    <glyph glyph-name="adieresis" unicode="&#xe4;" 
d="M12 88v117q0 75 56 110q13 8 55 28.5t49 24.5q8 5 8 20v29q0 29 -22 29h-4q-22 0 -22 -29v-53h-114v74q0 44 28 75t98 31h23q75 0 105.5 -30.5t30.5 -87.5v-297q0 -9 3.5 -12t15.5 -3h14v-114h-119q-37 0 -37 61q-36 -66 -91 -66h-4q-35 0 -54 27.5t-19 65.5zM180 134
v131q-24 -13 -33 -25q-12 -15 -12 -41v-65q0 -32 21 -32q24 0 24 32zM144 670v-106h-100v106h100zM268 670v-106h-100v106h100z" />
    <glyph glyph-name="aring" unicode="&#xe5;" 
d="M12 88v117q0 75 56 110q13 8 55 28.5t49 24.5q8 5 8 20v29q0 29 -22 29h-4q-22 0 -22 -29v-53h-114v74q0 44 28 75t98 31h23q75 0 105.5 -30.5t30.5 -87.5v-297q0 -9 3.5 -12t15.5 -3h14v-114h-119q-37 0 -37 61q-36 -66 -91 -66h-4q-35 0 -54 27.5t-19 65.5zM180 134
v131q-24 -13 -33 -25q-12 -15 -12 -41v-65q0 -32 21 -32q24 0 24 32zM235 641q0 -35 -22.5 -57t-57.5 -22t-57.5 22t-22.5 57t22.5 57t57.5 22t57.5 -22t22.5 -57zM123 641q0 -14 8.5 -23.5t23.5 -9.5t23.5 9.5t8.5 23.5t-8.5 23.5t-23.5 9.5t-23.5 -9.5t-8.5 -23.5z" />
    <glyph glyph-name="ae" unicode="&#xe6;" horiz-adv-x="485" 
d="M474 124q0 -62 -35 -98t-102 -36h-21q-98 0 -125 73q-40 -68 -101 -68h-4q-35 0 -54.5 27.5t-19.5 65.5v98q0 75 56 110q13 8 55 28.5t49 24.5q8 5 8 20v48q0 29 -22 29h-4q-22 0 -22 -29v-72h-114v93q0 44 28 75t98 31h23q53 0 80 -27q25 31 80 31h15q132 0 132 -147
v-150h-171v-117q0 -32 24 -32q25 0 25 32v80h122v-90zM303 417v-70h52v69q0 32 -26 32t-26 -31zM180 134v112q-24 -13 -33 -25q-12 -15 -12 -41v-46q0 -32 21 -32q24 0 24 32z" />
    <glyph glyph-name="ccedilla" unicode="&#xe7;" horiz-adv-x="318" 
d="M252 -111q0 -38 -26 -57.5t-70 -19.5h-61v63h50q22 0 22 17v1q0 15 -22 15h-35v86q-97 21 -97 135v271q0 148 139 148h25q130 0 130 -130v-89h-118v76q0 38 -24 38q-23 0 -23 -37v-271q0 -33 22 -33q24 0 24 31v108h119v-116q0 -60 -33 -98t-99 -38h-5v-25h3
q79 -3 79 -72v-3z" />
    <glyph glyph-name="egrave" unicode="&#xe8;" horiz-adv-x="319" 
d="M170 700l41 -134h-102l-45 134h106zM307 117q0 -61 -38 -94t-97 -33h-24q-62 0 -98.5 33t-36.5 94v296q0 59 33 97t102 38h24q135 0 135 -137v-159h-171v-117q0 -33 25 -33q23 0 23 33v80h123v-98zM136 413v-65h52v65q0 36 -26 36q-16 0 -21 -8.5t-5 -27.5z" />
    <glyph glyph-name="eacute" unicode="&#xe9;" horiz-adv-x="319" 
d="M109 566l42 134h105l-44 -134h-103zM307 117q0 -61 -38 -94t-97 -33h-24q-62 0 -98.5 33t-36.5 94v296q0 59 33 97t102 38h24q135 0 135 -137v-159h-171v-117q0 -33 25 -33q23 0 23 33v80h123v-98zM136 413v-65h52v65q0 36 -26 36q-16 0 -21 -8.5t-5 -27.5z" />
    <glyph glyph-name="ecircumflex" unicode="&#xea;" horiz-adv-x="319" 
d="M214 700l62 -134h-91l-24 60l-25 -60h-89l61 134h106zM307 117q0 -61 -38 -94t-97 -33h-24q-62 0 -98.5 33t-36.5 94v296q0 59 33 97t102 38h24q135 0 135 -137v-159h-171v-117q0 -33 25 -33q23 0 23 33v80h123v-98zM136 413v-65h52v65q0 36 -26 36q-16 0 -21 -8.5
t-5 -27.5z" />
    <glyph glyph-name="edieresis" unicode="&#xeb;" horiz-adv-x="319" 
d="M172 548q135 0 135 -137v-159h-171v-117q0 -33 25 -33q23 0 23 33v80h123v-98q0 -61 -38 -94t-97 -33h-24q-62 0 -98.5 33t-36.5 94v296q0 59 33 97t102 38h24zM273 672v-106h-100v106h100zM149 672v-106h-100v106h100zM136 413v-65h52v65q0 36 -26 36q-16 0 -21 -8.5
t-5 -27.5z" />
    <glyph glyph-name="igrave" unicode="&#xec;" horiz-adv-x="160" 
d="M144 538v-538h-128v538h128zM91 700l41 -136h-102l-45 136h106z" />
    <glyph glyph-name="iacute" unicode="&#xed;" horiz-adv-x="160" 
d="M144 538v-538h-128v538h128zM29 564l42 136h105l-44 -136h-103z" />
    <glyph glyph-name="icircumflex" unicode="&#xee;" horiz-adv-x="160" 
d="M133 700l52 -136h-86l-19 66l-20 -66h-85l52 136h106zM144 538v-538h-128v538h128z" />
    <glyph glyph-name="idieresis" unicode="&#xef;" horiz-adv-x="160" 
d="M69 670v-106h-93v106h93zM184 670v-106h-93v106h93zM144 538v-538h-128v538h128z" />
    <glyph glyph-name="eth" unicode="&#xf0;" horiz-adv-x="337" 
d="M324 144q0 -67 -38 -110.5t-102 -43.5h-32q-70 0 -104.5 42t-34.5 110v287q0 49 25 80t60 31h2q30 0 53.5 -15.5t49.5 -45.5l-55 112l-93 -42v86l58 26l-41 83h118l20 -39l73 33v-86l-38 -17l35 -68q26 -52 35 -86t9 -88v-249zM142 144q0 -38 26 -38q27 0 27 38v256
q0 37 -27 37q-26 0 -26 -37v-256z" />
    <glyph glyph-name="ntilde" unicode="&#xf1;" horiz-adv-x="340" 
d="M16 0v538h127v-65q45 67 97 67h7q40 0 58.5 -29t18.5 -61v-450h-129v396q0 32 -25 32q-26 0 -26 -36v-392h-128zM134 579v-16h-72v47q0 31 14.5 49.5t40.5 18.5q20 0 59 -18q19 -8 23 -8q6 0 6 10v16h73v-56q0 -25 -15 -42t-39 -17q-22 0 -60 19q-19 9 -23 9q-7 0 -7 -12
z" />
    <glyph glyph-name="ograve" unicode="&#xf2;" horiz-adv-x="337" 
d="M178 700l41 -134h-102l-45 134h106zM153 -10q-70 0 -105 42t-35 110v255q0 72 37 111.5t103 39.5h30q66 0 103.5 -39t37.5 -110v-255q0 -67 -38 -110.5t-103 -43.5h-30zM142 144q0 -38 26 -38q27 0 27 38v256q0 37 -27 37q-26 0 -26 -37v-256z" />
    <glyph glyph-name="oacute" unicode="&#xf3;" horiz-adv-x="337" 
d="M117 566l42 134h105l-44 -134h-103zM153 -10q-70 0 -105 42t-35 110v255q0 72 37 111.5t103 39.5h30q66 0 103.5 -39t37.5 -110v-255q0 -67 -38 -110.5t-103 -43.5h-30zM142 144q0 -38 26 -38q27 0 27 38v256q0 37 -27 37q-26 0 -26 -37v-256z" />
    <glyph glyph-name="ocircumflex" unicode="&#xf4;" horiz-adv-x="337" 
d="M221 700l62 -134h-91l-24 60l-25 -60h-89l61 134h106zM153 -10q-70 0 -105 42t-35 110v255q0 72 37 111.5t103 39.5h30q66 0 103.5 -39t37.5 -110v-255q0 -67 -38 -110.5t-103 -43.5h-30zM142 144q0 -38 26 -38q27 0 27 38v256q0 37 -27 37q-26 0 -26 -37v-256z" />
    <glyph glyph-name="otilde" unicode="&#xf5;" horiz-adv-x="337" 
d="M153 -10q-70 0 -105 42t-35 110v255q0 72 37 111.5t103 39.5h30q66 0 103.5 -39t37.5 -110v-255q0 -67 -38 -110.5t-103 -43.5h-30zM142 144q0 -38 26 -38q27 0 27 38v256q0 37 -27 37q-26 0 -26 -37v-256zM132 581v-16h-72v47q0 31 14.5 49.5t40.5 18.5q20 0 59 -18
q19 -8 23 -8q6 0 6 10v16h73v-56q0 -25 -15 -42t-39 -17q-22 0 -60 19q-19 9 -23 9q-7 0 -7 -12z" />
    <glyph glyph-name="odieresis" unicode="&#xf6;" horiz-adv-x="337" 
d="M153 -10q-70 0 -105 42t-35 110v255q0 72 37 111.5t103 39.5h30q66 0 103.5 -39t37.5 -110v-255q0 -67 -38 -110.5t-103 -43.5h-30zM142 144q0 -38 26 -38q27 0 27 38v256q0 37 -27 37q-26 0 -26 -37v-256zM157 672v-106h-100v106h100zM281 672v-106h-100v106h100z" />
    <glyph glyph-name="divide" unicode="&#xf7;" horiz-adv-x="339" 
d="M221 478v-103h-103v103h103zM13 346h313v-91h-313v91zM221 223v-103h-103v103h103z" />
    <glyph glyph-name="oslash" unicode="&#xf8;" horiz-adv-x="332" 
d="M319 144q0 -68 -37.5 -111t-102.5 -43h-26q-49 0 -85 30l-10 -20h-67l36 70q-14 29 -14 72v255q0 72 37 111.5t103 39.5h26q52 0 87 -28l10 18h66l-35 -69q12 -33 12 -70v-255zM138 401v-137l56 123v14q0 37 -28 37t-28 -37zM138 143q0 -38 28 -38t28 38v129l-56 -121v-8
z" />
    <glyph glyph-name="ugrave" unicode="&#xf9;" 
d="M181 700l41 -136h-102l-45 136h106zM319 538v-538h-124v66q-45 -68 -97 -68h-4q-36 0 -57 28.5t-21 64.5v447h129v-395q0 -33 22 -33q25 0 25 36v392h127z" />
    <glyph glyph-name="uacute" unicode="&#xfa;" 
d="M319 538v-538h-124v66q-45 -68 -97 -68h-4q-36 0 -57 28.5t-21 64.5v447h129v-395q0 -33 22 -33q25 0 25 36v392h127zM117 564l42 136h105l-44 -136h-103z" />
    <glyph glyph-name="ucircumflex" unicode="&#xfb;" 
d="M319 538v-538h-124v66q-45 -68 -97 -68h-4q-36 0 -57 28.5t-21 64.5v447h129v-395q0 -33 22 -33q25 0 25 36v392h127zM220 700l62 -136h-91l-24 62l-25 -62h-89l61 136h106z" />
    <glyph glyph-name="udieresis" unicode="&#xfc;" 
d="M319 538v-538h-124v66q-45 -68 -97 -68h-4q-36 0 -57 28.5t-21 64.5v447h129v-395q0 -33 22 -33q25 0 25 36v392h127zM156 670v-106h-100v106h100zM280 670v-106h-100v106h100z" />
    <glyph glyph-name="yacute" unicode="&#xfd;" horiz-adv-x="311" 
d="M203 -107q-14 -81 -74 -81h-116v119h53q12 0 16 6t6 21l2 21q1 14 -1 30l-93 529h126l37 -297l34 297h123zM103 564l42 136h105l-44 -136h-103z" />
    <glyph glyph-name="thorn" unicode="&#xfe;" horiz-adv-x="340" 
d="M16 744h128v-266q38 66 97 66h2q40 0 61 -31.5t21 -83.5v-321q0 -53 -26.5 -86t-63.5 -33h-2q-51 0 -89 58v-235h-128v932zM144 130q0 -36 25 -36t25 35v273q0 34 -25 34t-25 -34v-272z" />
    <glyph glyph-name="ydieresis" unicode="&#xff;" horiz-adv-x="311" 
d="M203 -107q-14 -81 -74 -81h-116v119h53q12 0 16 6t6 21l2 21q1 14 -1 30l-93 529h126l37 -297l34 297h123zM145 670v-106h-100v106h100zM269 670v-106h-100v106h100z" />
    <glyph glyph-name="Amacron" unicode="&#x100;" horiz-adv-x="345" 
d="M220 0l-13 125h-80l-13 -125h-118l94 744h158l101 -744h-129zM140 253h53l-27 256zM72 777v88h193v-88h-193z" />
    <glyph glyph-name="amacron" unicode="&#x101;" 
d="M12 88v117q0 75 56 110q13 8 55 28.5t49 24.5q8 5 8 20v29q0 29 -22 29h-4q-22 0 -22 -29v-53h-114v74q0 44 28 75t98 31h23q75 0 105.5 -30.5t30.5 -87.5v-297q0 -9 3.5 -12t15.5 -3h14v-114h-119q-37 0 -37 61q-36 -66 -91 -66h-4q-35 0 -54 27.5t-19 65.5zM180 134
v131q-24 -13 -33 -25q-12 -15 -12 -41v-65q0 -32 21 -32q24 0 24 32zM61 576v87h191v-87h-191z" />
    <glyph glyph-name="Abreve" unicode="&#x102;" horiz-adv-x="345" 
d="M220 0l-13 125h-80l-13 -125h-118l94 744h158l101 -744h-129zM140 253h53l-27 256zM276 870q0 -47 -31 -75t-75 -28h-4q-47 0 -77 28t-30 75v5h85v-3q0 -26 23 -26h2q23 0 23 26v3h84v-5z" />
    <glyph glyph-name="abreve" unicode="&#x103;" 
d="M12 88v117q0 75 56 110q13 8 55 28.5t49 24.5q8 5 8 20v29q0 29 -22 29h-4q-22 0 -22 -29v-53h-114v74q0 44 28 75t98 31h23q75 0 105.5 -30.5t30.5 -87.5v-297q0 -9 3.5 -12t15.5 -3h14v-114h-119q-37 0 -37 61q-36 -66 -91 -66h-4q-35 0 -54 27.5t-19 65.5zM180 134
v131q-24 -13 -33 -25q-12 -15 -12 -41v-65q0 -32 21 -32q24 0 24 32zM258 672q0 -51 -30.5 -80t-75.5 -29h-3q-48 0 -78 28.5t-30 80.5v8h85v-6q0 -33 24 -33h1q24 0 24 33v6h83v-8z" />
    <glyph glyph-name="Aogonek" unicode="&#x104;" horiz-adv-x="345" 
d="M220 0l-13 125h-80l-13 -125h-118l94 744h158l101 -744h-129zM140 253h53l-27 256zM213 -124v15q0 45 74 109h62q-44 -55 -44 -84v-4q0 -20 26 -20h18v-80h-58q-34 0 -56 17t-22 47z" />
    <glyph glyph-name="aogonek" unicode="&#x105;" 
d="M200 -124v15q0 45 74 109h-57q-37 0 -37 61q-36 -66 -91 -66h-4q-35 0 -54 27.5t-19 65.5v117q0 75 56 110q13 8 55 28.5t49 24.5q8 5 8 20v29q0 29 -22 29h-4q-22 0 -22 -29v-53h-114v74q0 44 28 75t98 31h23q75 0 105.5 -30.5t30.5 -87.5v-297q0 -9 3.5 -12t15.5 -3h14
v-114q-44 -55 -44 -84v-4q0 -20 26 -20h18v-80h-58q-34 0 -56 17t-22 47zM180 134v131q-24 -13 -33 -25q-12 -15 -12 -41v-65q0 -32 21 -32q24 0 24 32z" />
    <glyph glyph-name="Cacute" unicode="&#x106;" horiz-adv-x="368" 
d="M138 771l43 114h106l-45 -114h-104zM189 119q33 0 33 45v164h132v-168q0 -75 -36 -123.5t-118 -48.5h-27q-88 0 -122.5 48t-34.5 128v420q0 75 37 122t120 47h27q87 0 120.5 -45t33.5 -119v-125h-132v120q0 43 -34 43q-33 0 -33 -43v-420q0 -45 34 -45z" />
    <glyph glyph-name="cacute" unicode="&#x107;" horiz-adv-x="318" 
d="M112 566l42 134h105l-44 -134h-103zM307 125q0 -60 -33 -98t-99 -38h-21q-72 0 -106.5 38t-34.5 102v271q0 148 139 148h25q130 0 130 -130v-89h-118v76q0 38 -24 38q-23 0 -23 -37v-271q0 -33 22 -33q24 0 24 31v108h119v-116z" />
    <glyph glyph-name="Ccircumflex" unicode="&#x108;" horiz-adv-x="368" 
d="M239 885l66 -114h-89l-28 46l-27 -46h-89l65 114h102zM189 119q33 0 33 45v164h132v-168q0 -75 -36 -123.5t-118 -48.5h-27q-88 0 -122.5 48t-34.5 128v420q0 75 37 122t120 47h27q87 0 120.5 -45t33.5 -119v-125h-132v120q0 43 -34 43q-33 0 -33 -43v-420q0 -45 34 -45z
" />
    <glyph glyph-name="ccircumflex" unicode="&#x109;" horiz-adv-x="318" 
d="M217 700l62 -134h-91l-24 60l-25 -60h-89l61 134h106zM307 125q0 -60 -33 -98t-99 -38h-21q-72 0 -106.5 38t-34.5 102v271q0 148 139 148h25q130 0 130 -130v-89h-118v76q0 38 -24 38q-23 0 -23 -37v-271q0 -33 22 -33q24 0 24 31v108h119v-116z" />
    <glyph glyph-name="Cdotaccent" unicode="&#x10a;" horiz-adv-x="368" 
d="M252 896v-125h-128v125h128zM189 119q33 0 33 45v164h132v-168q0 -75 -36 -123.5t-118 -48.5h-27q-88 0 -122.5 48t-34.5 128v420q0 75 37 122t120 47h27q87 0 120.5 -45t33.5 -119v-125h-132v120q0 43 -34 43q-33 0 -33 -43v-420q0 -45 34 -45z" />
    <glyph glyph-name="cdotaccent" unicode="&#x10b;" horiz-adv-x="318" 
d="M228 690v-124h-128v124h128zM307 125q0 -60 -33 -98t-99 -38h-21q-72 0 -106.5 38t-34.5 102v271q0 148 139 148h25q130 0 130 -130v-89h-118v76q0 38 -24 38q-23 0 -23 -37v-271q0 -33 22 -33q24 0 24 31v108h119v-116z" />
    <glyph glyph-name="Ccaron" unicode="&#x10c;" horiz-adv-x="368" 
d="M137 771l-66 114h90l27 -48l27 48h89l-66 -114h-101zM189 119q33 0 33 45v164h132v-168q0 -75 -36 -123.5t-118 -48.5h-27q-88 0 -122.5 48t-34.5 128v420q0 75 37 122t120 47h27q87 0 120.5 -45t33.5 -119v-125h-132v120q0 43 -34 43q-33 0 -33 -43v-420q0 -45 34 -45z
" />
    <glyph glyph-name="ccaron" unicode="&#x10d;" horiz-adv-x="318" 
d="M112 566l-61 134h91l24 -62l25 62h89l-61 -134h-107zM307 125q0 -60 -33 -98t-99 -38h-21q-72 0 -106.5 38t-34.5 102v271q0 148 139 148h25q130 0 130 -130v-89h-118v76q0 38 -24 38q-23 0 -23 -37v-271q0 -33 22 -33q24 0 24 31v108h119v-116z" />
    <glyph glyph-name="Dcaron" unicode="&#x10e;" horiz-adv-x="370" 
d="M19 0v744h189q75 0 110 -37.5t35 -121.5v-420q0 -83 -33 -124t-112 -41h-189zM152 626v-502h26q22 0 30.5 12t8.5 40v400q0 27 -8 38.5t-27 11.5h-30zM120 770l-66 115h90l27 -48l27 48h89l-66 -115h-101z" />
    <glyph glyph-name="dcaron" unicode="&#x10f;" horiz-adv-x="340" 
d="M341 594l6 150h87l-12 -150h-81zM196 744h128v-744h-128v60q-12 -26 -35.5 -48.5t-53.5 -22.5h-2q-40 0 -65 33.5t-25 81.5v333q0 42 21.5 74.5t58.5 32.5h5q55 0 96 -66v266zM144 138q0 -37 25 -37q27 0 27 42v249q0 42 -27 42q-25 0 -25 -37v-259z" />
    <glyph glyph-name="Dcroat" unicode="&#x110;" horiz-adv-x="373" 
d="M23 0v325h-25v118h25v301h189q75 0 110 -37.5t35 -121.5v-420q0 -83 -33 -124t-112 -41h-189zM156 626v-183h43v-118h-43v-201h26q22 0 30.5 12t8.5 40v400q0 27 -8 38.5t-27 11.5h-30z" />
    <glyph glyph-name="dcroat" unicode="&#x111;" horiz-adv-x="340" 
d="M196 744h128v-70h32v-91h-32v-583h-128v60q-12 -26 -35.5 -48.5t-53.5 -22.5h-2q-40 0 -65 33.5t-25 81.5v333q0 42 21.5 74.5t58.5 32.5h5q55 0 96 -66v105h-75v91h75v70zM144 138q0 -37 25 -37q27 0 27 42v249q0 42 -27 42q-25 0 -25 -37v-259z" />
    <glyph glyph-name="Emacron" unicode="&#x112;" horiz-adv-x="311" 
d="M19 744h278v-131h-145v-162h114v-134h-114v-183h152v-134h-285v744zM64 777v88h193v-88h-193z" />
    <glyph glyph-name="emacron" unicode="&#x113;" horiz-adv-x="319" 
d="M307 117q0 -61 -38 -94t-97 -33h-24q-62 0 -98.5 33t-36.5 94v296q0 59 33 97t102 38h24q135 0 135 -137v-159h-171v-117q0 -33 25 -33q23 0 23 33v80h123v-98zM136 413v-65h52v65q0 36 -26 36q-16 0 -21 -8.5t-5 -27.5zM65 578v87h191v-87h-191z" />
    <glyph glyph-name="Ebreve" unicode="&#x114;" horiz-adv-x="311" 
d="M19 744h278v-131h-145v-162h114v-134h-114v-183h152v-134h-285v744zM271 870q0 -47 -31 -75t-75 -28h-4q-47 0 -77 28t-30 75v5h85v-3q0 -26 23 -26h2q23 0 23 26v3h84v-5z" />
    <glyph glyph-name="ebreve" unicode="&#x115;" horiz-adv-x="319" 
d="M307 117q0 -61 -38 -94t-97 -33h-24q-62 0 -98.5 33t-36.5 94v296q0 59 33 97t102 38h24q135 0 135 -137v-159h-171v-117q0 -33 25 -33q23 0 23 33v80h123v-98zM136 413v-65h52v65q0 36 -26 36q-16 0 -21 -8.5t-5 -27.5zM269 674q0 -51 -30.5 -80t-75.5 -29h-3
q-48 0 -78 28.5t-30 80.5v8h85v-6q0 -33 24 -33h1q24 0 24 33v6h83v-8z" />
    <glyph glyph-name="Edotaccent" unicode="&#x116;" horiz-adv-x="311" 
d="M19 744h278v-131h-145v-162h114v-134h-114v-183h152v-134h-285v744zM227 896v-126h-128v126h128z" />
    <glyph glyph-name="edotaccent" unicode="&#x117;" horiz-adv-x="319" 
d="M224 690v-124h-128v124h128zM307 117q0 -61 -38 -94t-97 -33h-24q-62 0 -98.5 33t-36.5 94v296q0 59 33 97t102 38h24q135 0 135 -137v-159h-171v-117q0 -33 25 -33q23 0 23 33v80h123v-98zM136 413v-65h52v65q0 36 -26 36q-16 0 -21 -8.5t-5 -27.5z" />
    <glyph glyph-name="Eogonek" unicode="&#x118;" horiz-adv-x="311" 
d="M123 -124v15q0 45 74 109h-178v744h278v-131h-145v-162h114v-134h-114v-183h152v-134h-45q-44 -55 -44 -84v-4q0 -20 26 -20h18v-80h-58q-34 0 -56 17t-22 47z" />
    <glyph glyph-name="eogonek" unicode="&#x119;" horiz-adv-x="319" 
d="M255 -108v-80h-58q-34 0 -56 17t-22 47v15q0 42 66 100q-4 -1 -13 -1h-24q-62 0 -98.5 33t-36.5 94v296q0 59 33 97t102 38h24q135 0 135 -137v-159h-171v-117q0 -33 25 -33q23 0 23 33v80h123v-94q0 -28 -8 -50.5t-15.5 -33.5t-29.5 -38q-43 -54 -43 -83v-4
q0 -20 26 -20h18zM136 413v-65h52v65q0 36 -26 36q-16 0 -21 -8.5t-5 -27.5z" />
    <glyph glyph-name="Ecaron" unicode="&#x11a;" horiz-adv-x="311" 
d="M19 744h278v-131h-145v-162h114v-134h-114v-183h152v-134h-285v744zM112 770l-66 115h90l27 -48l27 48h89l-66 -115h-101z" />
    <glyph glyph-name="ecaron" unicode="&#x11b;" horiz-adv-x="319" 
d="M108 566l-61 134h91l24 -62l25 62h89l-61 -134h-107zM307 117q0 -61 -38 -94t-97 -33h-24q-62 0 -98.5 33t-36.5 94v296q0 59 33 97t102 38h24q135 0 135 -137v-159h-171v-117q0 -33 25 -33q23 0 23 33v80h123v-98zM136 413v-65h52v65q0 36 -26 36q-16 0 -21 -8.5
t-5 -27.5z" />
    <glyph glyph-name="Gcircumflex" unicode="&#x11c;" horiz-adv-x="374" 
d="M238 885l66 -114h-89l-28 46l-27 -46h-89l65 114h102zM147 -10h-10q-56 0 -88.5 42t-32.5 104v443q0 77 36.5 125.5t118.5 48.5h27q47 0 79 -14t47.5 -40t21.5 -54t6 -65v-82h-130v83q0 24 -7.5 35.5t-26.5 11.5q-33 0 -33 -47v-414q0 -48 36 -48q39 0 39 46v160h-49v125
h177v-450h-81q-10 42 -20 71q-39 -81 -110 -81z" />
    <glyph glyph-name="gcircumflex" unicode="&#x11d;" horiz-adv-x="338" 
d="M322 -74q0 -51 -32 -86t-113 -35h-18q-139 0 -139 98v72h123v-44q0 -23 22 -23h5q24 0 24 27v125q-38 -70 -87 -70q-40 0 -66 29t-26 76v321q0 57 22 91t63 34h1q53 0 95 -68v65h126v-612zM145 128q0 -32 24 -32q25 0 25 33v270q0 34 -25 34q-24 0 -24 -33v-272zM220 700
l62 -136h-91l-24 62l-25 -62h-89l61 136h106z" />
    <glyph glyph-name="Gbreve" unicode="&#x11e;" horiz-adv-x="374" 
d="M147 -10h-10q-56 0 -88.5 42t-32.5 104v443q0 77 36.5 125.5t118.5 48.5h27q47 0 79 -14t47.5 -40t21.5 -54t6 -65v-82h-130v83q0 24 -7.5 35.5t-26.5 11.5q-33 0 -33 -47v-414q0 -48 36 -48q39 0 39 46v160h-49v125h177v-450h-81q-10 42 -20 71q-39 -81 -110 -81z
M294 871q0 -47 -31 -75t-75 -28h-4q-47 0 -77 28t-30 75v5h85v-3q0 -26 23 -26h2q23 0 23 26v3h84v-5z" />
    <glyph glyph-name="gbreve" unicode="&#x11f;" horiz-adv-x="338" 
d="M322 -74q0 -51 -32 -86t-113 -35h-18q-139 0 -139 98v72h123v-44q0 -23 22 -23h5q24 0 24 27v125q-38 -70 -87 -70q-40 0 -66 29t-26 76v321q0 57 22 91t63 34h1q53 0 95 -68v65h126v-612zM145 128q0 -32 24 -32q25 0 25 33v270q0 34 -25 34q-24 0 -24 -33v-272zM276 672
q0 -51 -30.5 -80t-75.5 -29h-3q-48 0 -78 28.5t-30 80.5v8h85v-6q0 -33 24 -33h1q24 0 24 33v6h83v-8z" />
    <glyph glyph-name="Gdotaccent" unicode="&#x120;" horiz-adv-x="374" 
d="M254 896v-125h-128v125h128zM147 -10h-10q-56 0 -88.5 42t-32.5 104v443q0 77 36.5 125.5t118.5 48.5h27q47 0 79 -14t47.5 -40t21.5 -54t6 -65v-82h-130v83q0 24 -7.5 35.5t-26.5 11.5q-33 0 -33 -47v-414q0 -48 36 -48q39 0 39 46v160h-49v125h177v-450h-81
q-10 42 -20 71q-39 -81 -110 -81z" />
    <glyph glyph-name="gdotaccent" unicode="&#x121;" horiz-adv-x="338" 
d="M322 -74q0 -51 -32 -86t-113 -35h-18q-139 0 -139 98v72h123v-44q0 -23 22 -23h5q24 0 24 27v125q-38 -70 -87 -70q-40 0 -66 29t-26 76v321q0 57 22 91t63 34h1q53 0 95 -68v65h126v-612zM145 128q0 -32 24 -32q25 0 25 33v270q0 34 -25 34q-24 0 -24 -33v-272zM232 690
v-126h-128v126h128z" />
    <glyph glyph-name="uni0122" unicode="&#x122;" horiz-adv-x="374" 
d="M147 -10h-10q-56 0 -88.5 42t-32.5 104v443q0 77 36.5 125.5t118.5 48.5h27q47 0 79 -14t47.5 -40t21.5 -54t6 -65v-82h-130v83q0 24 -7.5 35.5t-26.5 11.5q-33 0 -33 -47v-414q0 -48 36 -48q39 0 39 46v160h-49v125h177v-450h-81q-10 42 -20 71q-39 -81 -110 -81z
M219 -203h-51q11 31 14 67h-43v110h102v-70q0 -52 -22 -107z" />
    <glyph glyph-name="uni0123" unicode="&#x123;" horiz-adv-x="338" 
d="M322 -74q0 -51 -32 -86t-113 -35h-18q-139 0 -139 98v72h123v-44q0 -23 22 -23h5q24 0 24 27v125q-38 -70 -87 -70q-40 0 -66 29t-26 76v321q0 57 22 91t63 34h1q53 0 95 -68v65h126v-612zM145 128q0 -32 24 -32q25 0 25 33v270q0 34 -25 34q-24 0 -24 -33v-272zM137 742
h53q-12 -41 -14 -69h42v-109h-103v69q0 62 22 109z" />
    <glyph glyph-name="Hcircumflex" unicode="&#x124;" horiz-adv-x="374" 
d="M222 0v314h-70v-314h-133v744h133v-284h70v284h133v-744h-133zM238 885l66 -115h-89l-28 47l-27 -47h-89l65 115h102z" />
    <glyph glyph-name="hcircumflex" unicode="&#x125;" horiz-adv-x="340" 
d="M16 0v744h128v-268q43 64 96 64h5q36 0 57.5 -23.5t21.5 -60.5v-456h-129v398q0 30 -25 30q-26 0 -26 -34v-394h-128zM209 885l66 -115h-89l-28 47l-27 -47h-89l65 115h102z" />
    <glyph glyph-name="Hbar" unicode="&#x126;" horiz-adv-x="374" 
d="M-6 550v101h25v93h133v-93h70v93h133v-93h26v-101h-26v-550h-133v314h-70v-314h-133v550h-25zM152 460h70v90h-70v-90z" />
    <glyph glyph-name="hbar" unicode="&#x127;" horiz-adv-x="340" 
d="M144 394v-394h-128v583h-32v91h32v70h128v-70h75v-91h-75v-107q43 64 96 64h5q36 0 57.5 -23.5t21.5 -60.5v-456h-129v398q0 30 -25 30q-26 0 -26 -34z" />
    <glyph glyph-name="Itilde" unicode="&#x128;" horiz-adv-x="171" 
d="M152 744v-744h-133v744h133zM50 785v-16h-72v34q0 37 15 57t42 20q25 0 54 -13q21 -10 27 -10t6 10v16h72v-34q0 -38 -17 -57t-40 -19q-22 0 -54 14q-22 9 -25 9q-8 0 -8 -11z" />
    <glyph glyph-name="itilde" unicode="&#x129;" horiz-adv-x="162" 
d="M52 581v-18h-68v57q0 56 44 56q23 0 59 -18q14 -7 18 -7q5 0 5 10v17h68v-66q0 -22 -12.5 -35t-30.5 -13q-21 0 -59 20q-16 8 -19 8q-5 0 -5 -11zM145 538v-538h-128v538h128z" />
    <glyph glyph-name="Imacron" unicode="&#x12a;" horiz-adv-x="171" 
d="M152 744v-744h-133v744h133zM-11 777v88h193v-88h-193z" />
    <glyph glyph-name="imacron" unicode="&#x12b;" horiz-adv-x="160" 
d="M-6 576v88h172v-88h-172zM144 538v-538h-128v538h128z" />
    <glyph glyph-name="Ibreve" unicode="&#x12c;" horiz-adv-x="171" 
d="M152 744v-744h-133v744h133zM194 870q0 -47 -31 -75t-75 -28h-4q-47 0 -77 28t-30 75v5h85v-3q0 -26 23 -26h2q23 0 23 26v3h84v-5z" />
    <glyph glyph-name="ibreve" unicode="&#x12d;" horiz-adv-x="160" 
d="M176 657q0 -43 -22.5 -68.5t-70.5 -25.5h-4q-95 0 -95 94v23h80v-16q0 -23 17 -23t17 23v16h78v-23zM144 538v-538h-128v538h128z" />
    <glyph glyph-name="Iogonek" unicode="&#x12e;" horiz-adv-x="171" 
d="M16 -124v15q0 45 74 109h-71v744h133v-744q-44 -55 -44 -84v-4q0 -20 26 -20h18v-80h-58q-34 0 -56 17t-22 47z" />
    <glyph glyph-name="iogonek" unicode="&#x12f;" horiz-adv-x="160" 
d="M8 -124v15q0 45 74 109h-66v538h128v-538q-44 -55 -44 -84v-4q0 -20 26 -20h18v-80h-58q-34 0 -56 17t-22 47zM144 690v-126h-128v126h128z" />
    <glyph glyph-name="Idotaccent" unicode="&#x130;" horiz-adv-x="171" 
d="M152 744v-744h-133v744h133zM150 896v-126h-128v126h128z" />
    <glyph glyph-name="dotlessi" unicode="&#x131;" horiz-adv-x="160" 
d="M144 538v-538h-128v538h128z" />
    <glyph glyph-name="IJ" unicode="&#x132;" horiz-adv-x="521" 
d="M152 744v-744h-133v744h133zM182 327h128v-172q0 -33 26 -33h4q25 0 25 33v589h138v-593q0 -77 -37 -118t-104 -41h-44q-68 0 -102 34.5t-34 110.5v190z" />
    <glyph glyph-name="ij" unicode="&#x133;" horiz-adv-x="321" 
d="M144 690v-126h-128v126h128zM144 538v-538h-128v538h128zM305 690v-126h-128v126h128zM107 -69h52q10 0 14 4.5t4 16.5v586h128v-654q0 -30 -20.5 -51t-53.5 -21h-124v119z" />
    <glyph glyph-name="Jcircumflex" unicode="&#x134;" horiz-adv-x="350" 
d="M11 327h128v-172q0 -33 26 -33h4q25 0 25 33v589h138v-593q0 -77 -37 -118t-104 -41h-44q-68 0 -102 34.5t-34 110.5v190zM310 885l66 -115h-89l-28 47l-27 -47h-89l65 115h102z" />
    <glyph glyph-name="jcircumflex" unicode="&#x135;" horiz-adv-x="161" 
d="M132 700l52 -136h-86l-19 66l-20 -66h-85l52 136h106zM-53 -69h52q10 0 14 4.5t4 16.5v586h128v-654q0 -30 -20.5 -51t-53.5 -21h-124v119z" />
    <glyph glyph-name="uni0136" unicode="&#x136;" horiz-adv-x="372" 
d="M241 0l-89 315v-315h-133v744h133v-286l87 286h131l-105 -338l116 -406h-140zM227 -203h-51q11 31 14 67h-43v110h102v-70q0 -52 -22 -107z" />
    <glyph glyph-name="uni0137" unicode="&#x137;" horiz-adv-x="342" 
d="M221 0l-77 239v-239h-128v744h128v-393l75 187h122l-94 -226l101 -312h-127zM211 -203h-51q11 31 14 67h-43v110h102v-70q0 -52 -22 -107z" />
    <glyph glyph-name="Lacute" unicode="&#x139;" horiz-adv-x="300" 
d="M19 744h133v-610h141v-134h-274v744zM34 770l43 115h106l-45 -115h-104z" />
    <glyph glyph-name="lacute" unicode="&#x13a;" horiz-adv-x="160" 
d="M144 744v-744h-128v744h128zM28 770l43 115h106l-45 -115h-104z" />
    <glyph glyph-name="uni013B" unicode="&#x13b;" horiz-adv-x="300" 
d="M19 744h133v-610h141v-134h-274v744zM188 -203h-51q11 31 14 67h-43v110h102v-70q0 -52 -22 -107z" />
    <glyph glyph-name="uni013C" unicode="&#x13c;" horiz-adv-x="160" 
d="M144 744v-744h-128v744h128zM112 -203h-51q11 31 14 67h-43v110h102v-70q0 -52 -22 -107z" />
    <glyph glyph-name="Lcaron" unicode="&#x13d;" horiz-adv-x="300" 
d="M169 594l6 150h87l-12 -150h-81zM19 744h133v-610h141v-134h-274v744z" />
    <glyph glyph-name="lcaron" unicode="&#x13e;" horiz-adv-x="160" 
d="M144 744v-744h-128v744h128zM161 594l6 150h87l-12 -150h-81z" />
    <glyph glyph-name="Ldot" unicode="&#x13f;" horiz-adv-x="307" 
d="M297 458v-144h-118v144h118zM19 744h133v-610h141v-134h-274v744z" />
    <glyph glyph-name="ldot" unicode="&#x140;" horiz-adv-x="287" 
d="M283 458v-144h-118v144h118zM144 744v-744h-128v744h128z" />
    <glyph glyph-name="Lslash" unicode="&#x141;" horiz-adv-x="316" 
d="M34 744h133v-304l95 67v-110l-95 -65v-198h141v-134h-274v241l-33 -22v106l33 23v396z" />
    <glyph glyph-name="lslash" unicode="&#x142;" horiz-adv-x="185" 
d="M156 744v-222l28 20v-102l-28 -20v-420h-128v331l-27 -19v100l27 19v313h128z" />
    <glyph glyph-name="Nacute" unicode="&#x143;" horiz-adv-x="372" 
d="M19 744h125l91 -380v380h118v-744h-113l-103 408v-408h-118v744zM135 770l43 115h106l-45 -115h-104z" />
    <glyph glyph-name="nacute" unicode="&#x144;" horiz-adv-x="340" 
d="M16 0v538h127v-65q45 67 97 67h7q40 0 58.5 -29t18.5 -61v-450h-129v396q0 32 -25 32q-26 0 -26 -36v-392h-128zM118 564l42 136h105l-44 -136h-103z" />
    <glyph glyph-name="uni0145" unicode="&#x145;" horiz-adv-x="372" 
d="M19 744h125l91 -380v380h118v-744h-113l-103 408v-408h-118v744zM216 -203h-51q11 31 14 67h-43v110h102v-70q0 -52 -22 -107z" />
    <glyph glyph-name="uni0146" unicode="&#x146;" horiz-adv-x="340" 
d="M16 0v538h127v-65q45 67 97 67h7q40 0 58.5 -29t18.5 -61v-450h-129v396q0 32 -25 32q-26 0 -26 -36v-392h-128zM201 -203h-51q11 31 14 67h-43v110h102v-70q0 -52 -22 -107z" />
    <glyph glyph-name="Ncaron" unicode="&#x147;" horiz-adv-x="372" 
d="M19 744h125l91 -380v380h118v-744h-113l-103 408v-408h-118v744zM137 770l-66 115h90l27 -48l27 48h89l-66 -115h-101z" />
    <glyph glyph-name="ncaron" unicode="&#x148;" horiz-adv-x="340" 
d="M16 0v538h127v-65q45 67 97 67h7q40 0 58.5 -29t18.5 -61v-450h-129v396q0 32 -25 32q-26 0 -26 -36v-392h-128zM117 564l-62 136h91l24 -62l25 62h89l-62 -136h-105z" />
    <glyph glyph-name="napostrophe" unicode="&#x149;" horiz-adv-x="432" 
d="M108 0v538h127v-65q45 67 97 67h7q40 0 58.5 -29t18.5 -61v-450h-129v396q0 32 -25 32q-26 0 -26 -36v-392h-128zM87 524h-63q18 55 19 92h-43v128h111v-103q0 -61 -24 -117z" />
    <glyph glyph-name="Eng" unicode="&#x14a;" horiz-adv-x="372" 
d="M353 -101q0 -43 -21 -65t-58 -22h-96v117h39q23 0 23 27v44l-103 412v-412h-118v744h125l93 -404v404h116v-845z" />
    <glyph glyph-name="eng" unicode="&#x14b;" horiz-adv-x="340" 
d="M195 -48v444q0 32 -25 32q-26 0 -26 -36v-392h-128v538h124v-68q47 70 97 70h12q39 0 57 -29t18 -61v-566q0 -30 -20.5 -51t-53.5 -21h-95v119h22q10 0 14 4.5t4 16.5z" />
    <glyph glyph-name="Omacron" unicode="&#x14c;" horiz-adv-x="381" 
d="M365 564v-394q0 -83 -42 -132t-116 -49h-30q-78 0 -119.5 47t-41.5 134v393q0 190 160 190h30q159 0 159 -189zM226 166v408q0 49 -35 49q-36 0 -36 -49v-408q0 -44 37 -44q34 0 34 44zM94 778v88h193v-88h-193z" />
    <glyph glyph-name="omacron" unicode="&#x14d;" horiz-adv-x="337" 
d="M153 -10q-70 0 -105 42t-35 110v255q0 72 37 111.5t103 39.5h30q66 0 103.5 -39t37.5 -110v-255q0 -67 -38 -110.5t-103 -43.5h-30zM142 144q0 -38 26 -38q27 0 27 38v256q0 37 -27 37q-26 0 -26 -37v-256zM73 578v87h191v-87h-191z" />
    <glyph glyph-name="Obreve" unicode="&#x14e;" horiz-adv-x="381" 
d="M365 564v-394q0 -83 -42 -132t-116 -49h-30q-78 0 -119.5 47t-41.5 134v393q0 190 160 190h30q159 0 159 -189zM226 166v408q0 49 -35 49q-36 0 -36 -49v-408q0 -44 37 -44q34 0 34 44zM299 871q0 -47 -31 -75t-75 -28h-4q-47 0 -77 28t-30 75v5h85v-3q0 -26 23 -26h2
q23 0 23 26v3h84v-5z" />
    <glyph glyph-name="obreve" unicode="&#x14f;" horiz-adv-x="337" 
d="M153 -10q-70 0 -105 42t-35 110v255q0 72 37 111.5t103 39.5h30q66 0 103.5 -39t37.5 -110v-255q0 -67 -38 -110.5t-103 -43.5h-30zM142 144q0 -38 26 -38q27 0 27 38v256q0 37 -27 37q-26 0 -26 -37v-256zM277 674q0 -51 -30.5 -80t-75.5 -29h-3q-48 0 -78 28.5
t-30 80.5v8h85v-6q0 -33 24 -33h1q24 0 24 33v6h83v-8z" />
    <glyph glyph-name="Ohungarumlaut" unicode="&#x150;" horiz-adv-x="381" 
d="M93 771l24 114h90l-27 -114h-87zM204 771l26 114h89l-29 -114h-86zM365 564v-394q0 -83 -42 -132t-116 -49h-30q-78 0 -119.5 47t-41.5 134v393q0 190 160 190h30q159 0 159 -189zM226 166v408q0 49 -35 49q-36 0 -36 -49v-408q0 -44 37 -44q34 0 34 44z" />
    <glyph glyph-name="ohungarumlaut" unicode="&#x151;" horiz-adv-x="337" 
d="M78 566l24 134h88l-26 -134h-86zM187 566l25 134h88l-28 -134h-85zM153 -10q-70 0 -105 42t-35 110v255q0 72 37 111.5t103 39.5h30q66 0 103.5 -39t37.5 -110v-255q0 -67 -38 -110.5t-103 -43.5h-30zM142 144q0 -38 26 -38q27 0 27 38v256q0 37 -27 37q-26 0 -26 -37
v-256z" />
    <glyph glyph-name="OE" unicode="&#x152;" horiz-adv-x="514" 
d="M231 45q-30 -55 -97 -55q-56 0 -87 45.5t-31 136.5v399q0 82 30.5 131t91.5 49q58 0 93 -50v43h266v-132h-138v-161h107v-135h-107v-182h148v-134h-276v45zM226 569q0 54 -35 54q-36 0 -36 -54v-393q0 -54 36 -54q35 0 35 54v393z" />
    <glyph glyph-name="oe" unicode="&#x153;" horiz-adv-x="501" 
d="M489 116q0 -61 -38 -94.5t-97 -33.5h-27q-23 0 -45 10.5t-32 22.5q-31 -31 -75 -31h-24q-69 0 -103.5 41.5t-34.5 110.5v255q0 72 36 111.5t101 39.5h26q54 0 79 -31q25 31 76 31h27q63 0 97 -35t34 -103v-158h-171v-118q0 -32 25 -32q24 0 24 32v81h122v-99zM318 412
v-64h52v64q0 36 -26 36t-26 -36zM142 144q0 -38 26 -38q27 0 27 38v256q0 37 -27 37q-26 0 -26 -37v-256z" />
    <glyph glyph-name="Racute" unicode="&#x154;" horiz-adv-x="365" 
d="M152 318v-318h-133v744h210q60 0 91 -32t31 -92v-119q0 -41 -18 -66t-41 -34q57 -21 57 -88v-253q0 -35 11 -55v-5h-133q-12 16 -12 57v217q0 25 -7.5 34.5t-27.5 9.5h-28zM152 629v-188h26q20 0 28.5 9.5t8.5 35.5v101q0 25 -6.5 33.5t-26.5 8.5h-30zM124 770l43 115
h106l-45 -115h-104z" />
    <glyph glyph-name="racute" unicode="&#x155;" horiz-adv-x="304" 
d="M144 403v-403h-128v538h127v-67q29 70 85 70h6q61 0 61 -66v-195h-119v123q0 26 -16 26t-16 -26zM110 564l42 136h105l-44 -136h-103z" />
    <glyph glyph-name="uni0156" unicode="&#x156;" horiz-adv-x="365" 
d="M152 318v-318h-133v744h210q60 0 91 -32t31 -92v-119q0 -41 -18 -66t-41 -34q57 -21 57 -88v-253q0 -35 11 -55v-5h-133q-12 16 -12 57v217q0 25 -7.5 34.5t-27.5 9.5h-28zM152 629v-188h26q20 0 28.5 9.5t8.5 35.5v101q0 25 -6.5 33.5t-26.5 8.5h-30zM216 -203h-51
q11 31 14 67h-43v110h102v-70q0 -52 -22 -107z" />
    <glyph glyph-name="uni0157" unicode="&#x157;" horiz-adv-x="304" 
d="M144 403v-403h-128v538h127v-67q29 70 85 70h6q61 0 61 -66v-195h-119v123q0 26 -16 26t-16 -26zM108 -203h-51q11 31 14 67h-43v110h102v-70q0 -52 -22 -107z" />
    <glyph glyph-name="Rcaron" unicode="&#x158;" horiz-adv-x="365" 
d="M152 318v-318h-133v744h210q60 0 91 -32t31 -92v-119q0 -41 -18 -66t-41 -34q57 -21 57 -88v-253q0 -35 11 -55v-5h-133q-12 16 -12 57v217q0 25 -7.5 34.5t-27.5 9.5h-28zM152 629v-188h26q20 0 28.5 9.5t8.5 35.5v101q0 25 -6.5 33.5t-26.5 8.5h-30zM125 770l-66 115
h90l27 -48l27 48h89l-66 -115h-101z" />
    <glyph glyph-name="rcaron" unicode="&#x159;" horiz-adv-x="304" 
d="M144 403v-403h-128v538h127v-67q29 70 85 70h6q61 0 61 -66v-195h-119v123q0 26 -16 26t-16 -26zM110 564l-62 136h91l24 -62l25 62h89l-62 -136h-105z" />
    <glyph glyph-name="Sacute" unicode="&#x15a;" horiz-adv-x="355" 
d="M128 771l43 114h106l-45 -114h-104zM348 175q0 -86 -41 -135t-121 -49h-26q-152 0 -152 154v134h131v-119q0 -45 34 -45q33 0 33 54v14q0 41 -7.5 63t-35.5 53l-77 85q-71 77 -71 189v32q0 71 40.5 109.5t110.5 38.5h27q76 0 109.5 -35.5t33.5 -110.5v-100h-128v93
q0 39 -29 39t-29 -40v-17q0 -50 41 -96l76 -85q47 -53 64 -96t17 -95v-35z" />
    <glyph glyph-name="sacute" unicode="&#x15b;" horiz-adv-x="298" 
d="M101 566l42 134h105l-44 -134h-103zM294 129q0 -60 -33.5 -99t-99.5 -39h-26q-66 0 -98 32.5t-32 84.5v88h118v-72q0 -30 23 -30h1q21 0 21 31v12q0 40 -28 67l-68 65q-34 33 -47 65.5t-13 76.5v17q0 56 32 88t94 32h27q122 0 122 -102v-73h-114v56q0 28 -21 28t-21 -28
v-11q0 -29 23 -52l71 -70q40 -40 54.5 -72.5t14.5 -76.5v-18z" />
    <glyph glyph-name="Scircumflex" unicode="&#x15c;" horiz-adv-x="355" 
d="M232 885l66 -114h-89l-28 46l-27 -46h-89l65 114h102zM348 175q0 -86 -41 -135t-121 -49h-26q-152 0 -152 154v134h131v-119q0 -45 34 -45q33 0 33 54v14q0 41 -7.5 63t-35.5 53l-77 85q-71 77 -71 189v32q0 71 40.5 109.5t110.5 38.5h27q76 0 109.5 -35.5t33.5 -110.5
v-100h-128v93q0 39 -29 39t-29 -40v-17q0 -50 41 -96l76 -85q47 -53 64 -96t17 -95v-35z" />
    <glyph glyph-name="scircumflex" unicode="&#x15d;" horiz-adv-x="298" 
d="M206 700l62 -134h-91l-24 60l-25 -60h-89l61 134h106zM294 129q0 -60 -33.5 -99t-99.5 -39h-26q-66 0 -98 32.5t-32 84.5v88h118v-72q0 -30 23 -30h1q21 0 21 31v12q0 40 -28 67l-68 65q-34 33 -47 65.5t-13 76.5v17q0 56 32 88t94 32h27q122 0 122 -102v-73h-114v56
q0 28 -21 28t-21 -28v-11q0 -29 23 -52l71 -70q40 -40 54.5 -72.5t14.5 -76.5v-18z" />
    <glyph glyph-name="uni015E" unicode="&#x15e;" horiz-adv-x="355" 
d="M259 -111q0 -38 -26 -57.5t-70 -19.5h-61v63h50q22 0 22 17v1q0 15 -22 15h-35v87q-109 19 -109 150v134h131v-119q0 -45 34 -45q33 0 33 54v14q0 41 -7.5 63t-35.5 53l-77 85q-71 77 -71 189v32q0 71 40.5 109.5t110.5 38.5h27q76 0 109.5 -35.5t33.5 -110.5v-100h-128
v93q0 39 -29 39t-29 -40v-17q0 -50 41 -96l76 -85q47 -53 64 -96t17 -95v-35q0 -86 -41 -135t-121 -49h-9v-27h3q79 -3 79 -72v-3z" />
    <glyph glyph-name="uni015F" unicode="&#x15f;" horiz-adv-x="298" 
d="M232 -111q0 -38 -26 -57.5t-70 -19.5h-61v63h50q22 0 22 17v1q0 15 -22 15h-35v88q-85 20 -85 112v88h118v-72q0 -30 23 -30h1q21 0 21 31v12q0 40 -28 67l-68 65q-34 33 -47 65.5t-13 76.5v17q0 56 32 88t94 32h27q122 0 122 -102v-73h-114v56q0 28 -21 28t-21 -28v-11
q0 -29 23 -52l71 -70q40 -40 54.5 -72.5t14.5 -76.5v-18q0 -60 -33.5 -99t-99.5 -39h-11v-27h3q79 -3 79 -72v-3z" />
    <glyph glyph-name="Scaron" unicode="&#x160;" horiz-adv-x="355" 
d="M129 771l-66 114h90l27 -49l27 49h89l-66 -114h-101zM348 175q0 -86 -41 -135t-121 -49h-26q-152 0 -152 154v134h131v-119q0 -45 34 -45q33 0 33 54v14q0 41 -7.5 63t-35.5 53l-77 85q-71 77 -71 189v32q0 71 40.5 109.5t110.5 38.5h27q76 0 109.5 -35.5t33.5 -110.5
v-100h-128v93q0 39 -29 39t-29 -40v-17q0 -50 41 -96l76 -85q47 -53 64 -96t17 -95v-35z" />
    <glyph glyph-name="scaron" unicode="&#x161;" horiz-adv-x="298" 
d="M99 566l-61 134h91l24 -62l25 62h89l-61 -134h-107zM294 129q0 -60 -33.5 -99t-99.5 -39h-26q-66 0 -98 32.5t-32 84.5v88h118v-72q0 -30 23 -30h1q21 0 21 31v12q0 40 -28 67l-68 65q-34 33 -47 65.5t-13 76.5v17q0 56 32 88t94 32h27q122 0 122 -102v-73h-114v56
q0 28 -21 28t-21 -28v-11q0 -29 23 -52l71 -70q40 -40 54.5 -72.5t14.5 -76.5v-18z" />
    <glyph glyph-name="Tcommaaccent" unicode="&#x162;" 
d="M197 -203h-51q11 31 14 67h-43v110h102v-70q0 -52 -22 -107zM329 613h-95v-613h-133v613h-95v131h323v-131z" />
    <glyph glyph-name="tcommaaccent" unicode="&#x163;" horiz-adv-x="263" 
d="M254 0h-128q-26 0 -43.5 19t-17.5 47v353h-61v119h61v178h127v-178h62v-119h-62v-276q0 -12 3.5 -17t15.5 -5h43v-121zM198 -203h-51q11 31 14 67h-43v110h102v-70q0 -52 -22 -107z" />
    <glyph glyph-name="Tcaron" unicode="&#x164;" 
d="M329 613h-95v-613h-133v613h-95v131h323v-131zM117 770l-66 115h90l27 -48l27 48h89l-66 -115h-101z" />
    <glyph glyph-name="tcaron" unicode="&#x165;" horiz-adv-x="263" 
d="M209 594l6 150h87l-12 -150h-81zM254 0h-128q-26 0 -43.5 19t-17.5 47v353h-61v119h61v178h127v-178h62v-119h-62v-276q0 -12 3.5 -17t15.5 -5h43v-121z" />
    <glyph glyph-name="Tbar" unicode="&#x166;" 
d="M329 613h-95v-150h68v-114h-68v-349h-133v349h-68v114h68v150h-95v131h323v-131z" />
    <glyph glyph-name="tbar" unicode="&#x167;" horiz-adv-x="263" 
d="M254 121v-121h-128q-26 0 -43.5 19t-17.5 47v169h-61v104h61v80h-61v119h61v178h127v-178h62v-119h-62v-80h62v-104h-62v-92q0 -12 3.5 -17t15.5 -5h43z" />
    <glyph glyph-name="Utilde" unicode="&#x168;" horiz-adv-x="375" 
d="M357 173q0 -90 -41 -137t-113 -47h-33q-73 0 -112.5 46.5t-39.5 137.5v571h137v-576q0 -46 33 -46q32 0 32 46v576h137v-571zM155 785v-16h-72v34q0 37 15 57t42 20q25 0 54 -13q21 -10 27 -10t6 10v16h72v-34q0 -38 -17 -57t-40 -19q-22 0 -54 14q-22 9 -25 9
q-8 0 -8 -11z" />
    <glyph glyph-name="utilde" unicode="&#x169;" 
d="M319 538v-538h-124v66q-45 -68 -97 -68h-4q-36 0 -57 28.5t-21 64.5v447h129v-395q0 -33 22 -33q25 0 25 36v392h127zM135 579v-16h-72v47q0 31 14.5 49.5t40.5 18.5q20 0 59 -18q19 -8 23 -8q6 0 6 10v16h73v-56q0 -25 -15 -42t-39 -17q-22 0 -60 19q-19 9 -23 9
q-7 0 -7 -12z" />
    <glyph glyph-name="Umacron" unicode="&#x16a;" horiz-adv-x="375" 
d="M357 173q0 -90 -41 -137t-113 -47h-33q-73 0 -112.5 46.5t-39.5 137.5v571h137v-576q0 -46 33 -46q32 0 32 46v576h137v-571zM91 777v88h193v-88h-193z" />
    <glyph glyph-name="umacron" unicode="&#x16b;" 
d="M319 538v-538h-124v66q-45 -68 -97 -68h-4q-36 0 -57 28.5t-21 64.5v447h129v-395q0 -33 22 -33q25 0 25 36v392h127zM73 576v87h191v-87h-191z" />
    <glyph glyph-name="Ubreve" unicode="&#x16c;" horiz-adv-x="375" 
d="M357 173q0 -90 -41 -137t-113 -47h-33q-73 0 -112.5 46.5t-39.5 137.5v571h137v-576q0 -46 33 -46q32 0 32 46v576h137v-571zM296 870q0 -47 -31 -75t-75 -28h-4q-47 0 -77 28t-30 75v5h85v-3q0 -26 23 -26h2q23 0 23 26v3h84v-5z" />
    <glyph glyph-name="ubreve" unicode="&#x16d;" 
d="M319 0v538h-127v-392q0 -36 -25 -36q-22 0 -22 33v395h-129v-447q0 -36 21 -64.5t57 -28.5h4q52 0 97 68v-66h124zM276 672q0 -51 -30.5 -80t-75.5 -29h-3q-48 0 -78 28.5t-30 80.5v8h85v-6q0 -33 24 -33h1q24 0 24 33v6h83v-8z" />
    <glyph glyph-name="Uring" unicode="&#x16e;" horiz-adv-x="375" 
d="M357 173q0 -90 -41 -137t-113 -47h-33q-73 0 -112.5 46.5t-39.5 137.5v571h137v-576q0 -46 33 -46q32 0 32 46v576h137v-571zM267 844q0 -35 -22.5 -57t-57.5 -22t-57.5 22t-22.5 57t22.5 57t57.5 22t57.5 -22t22.5 -57zM155 844q0 -14 8.5 -23.5t23.5 -9.5t23.5 9.5
t8.5 23.5t-8.5 23.5t-23.5 9.5t-23.5 -9.5t-8.5 -23.5z" />
    <glyph glyph-name="uring" unicode="&#x16f;" 
d="M319 538v-538h-124v66q-45 -68 -97 -68h-4q-36 0 -57 28.5t-21 64.5v447h129v-395q0 -33 22 -33q25 0 25 36v392h127zM247 641q0 -35 -22.5 -57t-57.5 -22t-57.5 22t-22.5 57t22.5 57t57.5 22t57.5 -22t22.5 -57zM135 641q0 -14 8.5 -23.5t23.5 -9.5t23.5 9.5t8.5 23.5
t-8.5 23.5t-23.5 9.5t-23.5 -9.5t-8.5 -23.5z" />
    <glyph glyph-name="Uhungarumlaut" unicode="&#x170;" horiz-adv-x="375" 
d="M357 173q0 -90 -41 -137t-113 -47h-33q-73 0 -112.5 46.5t-39.5 137.5v571h137v-576q0 -46 33 -46q32 0 32 46v576h137v-571zM89 770l24 115h90l-27 -115h-87zM200 770l26 115h89l-29 -115h-86z" />
    <glyph glyph-name="uhungarumlaut" unicode="&#x171;" 
d="M319 538v-538h-124v66q-45 -68 -97 -68h-4q-36 0 -57 28.5t-21 64.5v447h129v-395q0 -33 22 -33q25 0 25 36v392h127zM73 564l24 136h88l-26 -136h-86zM182 564l25 136h88l-28 -136h-85z" />
    <glyph glyph-name="Uogonek" unicode="&#x172;" horiz-adv-x="375" 
d="M287 -108v-80h-58q-34 0 -56 17t-22 47v15q0 46 65 98h-46q-73 0 -112.5 46.5t-39.5 137.5v571h137v-576q0 -46 33 -46q32 0 32 46v576h137v-571q0 -16 -1 -30.5t-4.5 -27.5t-5.5 -23t-8 -21t-8.5 -17t-10.5 -16t-10 -13t-11 -13t-10 -12q-45 -53 -45 -84v-4
q0 -20 26 -20h18z" />
    <glyph glyph-name="uogonek" unicode="&#x173;" 
d="M183 -124v15q0 45 74 109h-62v66q-45 -68 -97 -68h-4q-36 0 -57 28.5t-21 64.5v447h129v-395q0 -33 22 -33q25 0 25 36v392h127v-538q-44 -55 -44 -84v-4q0 -20 26 -20h18v-80h-58q-34 0 -56 17t-22 47z" />
    <glyph glyph-name="Wcircumflex" unicode="&#x174;" horiz-adv-x="568" 
d="M325 0l-39 409l-39 -409h-157l-93 744h138l43 -476l47 476h127l47 -472l44 472h128l-95 -744h-151zM336 885l66 -115h-89l-28 47l-27 -47h-89l65 115h102z" />
    <glyph glyph-name="wcircumflex" unicode="&#x175;" horiz-adv-x="494" 
d="M283 0l-34 292l-35 -292h-137l-81 538h126l36 -333l36 333h113l36 -337l35 337h120l-82 -538h-133zM300 700l62 -136h-91l-24 62l-25 -62h-89l61 136h106z" />
    <glyph glyph-name="Ycircumflex" unicode="&#x176;" horiz-adv-x="327" 
d="M235 293v-293h-133v288l-110 456h133l45 -264l45 264h120zM220 885l66 -115h-89l-28 47l-27 -47h-89l65 115h102z" />
    <glyph glyph-name="ycircumflex" unicode="&#x177;" horiz-adv-x="311" 
d="M203 -107q-14 -81 -74 -81h-116v119h53q12 0 16 6t6 21l2 21q1 14 -1 30l-93 529h126l37 -297l34 297h123zM209 700l62 -136h-91l-24 62l-25 -62h-89l61 136h106z" />
    <glyph glyph-name="Ydieresis" unicode="&#x178;" horiz-adv-x="327" 
d="M235 293v-293h-133v288l-110 456h133l45 -264l45 264h120zM283 876v-106h-100v106h100zM158 876v-106h-100v106h100z" />
    <glyph glyph-name="Zacute" unicode="&#x179;" horiz-adv-x="330" 
d="M18 744h294v-118l-162 -496h173v-130h-316v120l162 496h-151v128zM107 770l43 115h106l-45 -115h-104z" />
    <glyph glyph-name="zacute" unicode="&#x17a;" horiz-adv-x="266" 
d="M14 538h241v-106l-124 -318h131v-114h-258v107l125 319h-115v112zM81 564l42 136h105l-44 -136h-103z" />
    <glyph glyph-name="Zdotaccent" unicode="&#x17b;" horiz-adv-x="330" 
d="M18 744h294v-118l-162 -496h173v-130h-316v120l162 496h-151v128zM230 896v-126h-128v126h128z" />
    <glyph glyph-name="zdotaccent" unicode="&#x17c;" horiz-adv-x="266" 
d="M14 538h241v-106l-124 -318h131v-114h-258v107l125 319h-115v112zM199 690v-126h-128v126h128z" />
    <glyph glyph-name="Zcaron" unicode="&#x17d;" horiz-adv-x="330" 
d="M18 744h294v-118l-162 -496h173v-130h-316v120l162 496h-151v128zM115 770l-66 115h90l27 -48l27 48h89l-66 -115h-101z" />
    <glyph glyph-name="zcaron" unicode="&#x17e;" horiz-adv-x="266" 
d="M14 538h241v-106l-124 -318h131v-114h-258v107l125 319h-115v112zM82 564l-62 136h91l24 -62l25 62h89l-62 -136h-105z" />
    <glyph glyph-name="uni0192" unicode="&#x192;" horiz-adv-x="272" 
d="M264 362h-75l-26 -550h-127l26 550h-58v119h64l8 175q2 44 26 66t79 22h83v-113h-37q-14 0 -19.5 -5.5t-6.5 -21.5l-6 -123h69v-119z" />
    <glyph glyph-name="Aringacute" unicode="&#x1fa;" horiz-adv-x="345" 
d="M248 844q0 -35 -22.5 -57t-57.5 -22t-57.5 22t-22.5 57t22.5 57t57.5 22t57.5 -22t22.5 -57zM136 844q0 -14 8.5 -23.5t23.5 -9.5t23.5 9.5t8.5 23.5t-8.5 23.5t-23.5 9.5t-23.5 -9.5t-8.5 -23.5zM118 939l43 115h106l-45 -115h-104zM220 0l-13 125h-80l-13 -125h-118
l94 744h158l101 -744h-129zM140 253h53l-27 256z" />
    <glyph glyph-name="aringacute" unicode="&#x1fb;" 
d="M110 736l42 136h105l-44 -136h-103zM239 641q0 -35 -22.5 -57t-57.5 -22t-57.5 22t-22.5 57t22.5 57t57.5 22t57.5 -22t22.5 -57zM127 641q0 -14 8.5 -23.5t23.5 -9.5t23.5 9.5t8.5 23.5t-8.5 23.5t-23.5 9.5t-23.5 -9.5t-8.5 -23.5zM12 88v117q0 75 56 110q13 8 55 28.5
t49 24.5q8 5 8 20v29q0 29 -22 29h-4q-22 0 -22 -29v-53h-114v74q0 44 28 75t98 31h23q75 0 105.5 -30.5t30.5 -87.5v-297q0 -9 3.5 -12t15.5 -3h14v-114h-119q-37 0 -37 61q-36 -66 -91 -66h-4q-35 0 -54 27.5t-19 65.5zM180 134v131q-24 -13 -33 -25q-12 -15 -12 -41v-65
q0 -32 21 -32q24 0 24 32z" />
    <glyph glyph-name="AEacute" unicode="&#x1fc;" horiz-adv-x="511" 
d="M223 0v131h-81l-22 -131h-128l140 744h362v-132h-138v-161h107v-135h-107v-182h148v-134h-281zM164 258h59v344zM257 770l43 115h106l-45 -115h-104z" />
    <glyph glyph-name="aeacute" unicode="&#x1fd;" horiz-adv-x="485" 
d="M474 124q0 -62 -35 -98t-102 -36h-21q-98 0 -125 73q-40 -68 -101 -68h-4q-35 0 -54.5 27.5t-19.5 65.5v98q0 75 56 110q13 8 55 28.5t49 24.5q8 5 8 20v48q0 29 -22 29h-4q-22 0 -22 -29v-72h-114v93q0 44 28 75t98 31h23q53 0 80 -27q25 31 80 31h15q132 0 132 -147
v-150h-171v-117q0 -32 24 -32q25 0 25 32v80h122v-90zM303 417v-70h52v69q0 32 -26 32t-26 -31zM180 134v112q-24 -13 -33 -25q-12 -15 -12 -41v-46q0 -32 21 -32q24 0 24 32zM193 564l42 136h105l-44 -136h-103z" />
    <glyph glyph-name="Oslashacute" unicode="&#x1fe;" horiz-adv-x="377" 
d="M135 771l43 114h106l-45 -114h-104zM361 170q0 -83 -42 -132t-116 -49h-25q-58 0 -96 35l-10 -24h-74l34 83q-16 38 -16 87v393q0 190 160 190h25q58 0 93 -32l10 23h74l-33 -84q16 -36 16 -96v-394zM151 574v-224l75 209v15q0 49 -37 49q-38 0 -38 -49zM151 166
q0 -44 39 -44q36 0 36 44v228l-75 -206v-22z" />
    <glyph glyph-name="oslashacute" unicode="&#x1ff;" horiz-adv-x="332" 
d="M114 566l42 134h105l-44 -134h-103zM319 144q0 -68 -37.5 -111t-102.5 -43h-26q-49 0 -85 30l-10 -20h-67l36 70q-14 29 -14 72v255q0 72 37 111.5t103 39.5h26q52 0 87 -28l10 18h66l-35 -69q12 -33 12 -70v-255zM138 401v-137l56 123v14q0 37 -28 37t-28 -37zM138 143
q0 -38 28 -38t28 38v129l-56 -121v-8z" />
    <glyph glyph-name="uni0218" unicode="&#x218;" horiz-adv-x="355" 
d="M348 175q0 -86 -41 -135t-121 -49h-26q-152 0 -152 154v134h131v-119q0 -45 34 -45q33 0 33 54v14q0 41 -7.5 63t-35.5 53l-77 85q-71 77 -71 189v32q0 71 40.5 109.5t110.5 38.5h27q76 0 109.5 -35.5t33.5 -110.5v-100h-128v93q0 39 -29 39t-29 -40v-17q0 -50 41 -96
l76 -85q47 -53 64 -96t17 -95v-35zM205 -205h-51q11 31 14 67h-43v110h102v-70q0 -52 -22 -107z" />
    <glyph glyph-name="uni0219" unicode="&#x219;" horiz-adv-x="298" 
d="M294 129q0 -60 -33.5 -99t-99.5 -39h-26q-66 0 -98 32.5t-32 84.5v88h118v-72q0 -30 23 -30h1q21 0 21 31v12q0 40 -28 67l-68 65q-34 33 -47 65.5t-13 76.5v17q0 56 32 88t94 32h27q122 0 122 -102v-73h-114v56q0 28 -21 28t-21 -28v-11q0 -29 23 -52l71 -70
q40 -40 54.5 -72.5t14.5 -76.5v-18zM177 -204h-51q11 31 14 67h-43v110h102v-70q0 -52 -22 -107z" />
    <glyph glyph-name="uni021A" unicode="&#x21a;" 
d="M197 -203h-51q11 31 14 67h-43v110h102v-70q0 -52 -22 -107zM329 613h-95v-613h-133v613h-95v131h323v-131z" />
    <glyph glyph-name="uni021B" unicode="&#x21b;" horiz-adv-x="263" 
d="M254 0h-128q-26 0 -43.5 19t-17.5 47v353h-61v119h61v178h127v-178h62v-119h-62v-276q0 -12 3.5 -17t15.5 -5h43v-121zM198 -203h-51q11 31 14 67h-43v110h102v-70q0 -52 -22 -107z" />
    <glyph glyph-name="uni0237" unicode="&#x237;" horiz-adv-x="161" 
d="M-53 -69h52q10 0 14 4.5t4 16.5v586h128v-654q0 -30 -20.5 -51t-53.5 -21h-124v119z" />
    <glyph glyph-name="uni02BC" unicode="&#x2bc;" horiz-adv-x="135" 
d="M99 524h-63q18 55 19 92h-43v128h111v-103q0 -61 -24 -117z" />
    <glyph glyph-name="circumflex" unicode="&#x2c6;" horiz-adv-x="338" 
d="M222 700l62 -136h-91l-24 62l-25 -62h-89l61 136h106z" />
    <glyph glyph-name="caron" unicode="&#x2c7;" horiz-adv-x="338" 
d="M117 564l-62 136h91l24 -62l25 62h89l-62 -136h-105z" />
    <glyph glyph-name="breve" unicode="&#x2d8;" horiz-adv-x="338" 
d="M278 672q0 -51 -30.5 -80t-75.5 -29h-3q-48 0 -78 28.5t-30 80.5v8h85v-6q0 -33 24 -33h1q24 0 24 33v6h83v-8z" />
    <glyph glyph-name="dotaccent" unicode="&#x2d9;" horiz-adv-x="338" 
d="M233 690v-126h-128v126h128z" />
    <glyph glyph-name="ring" unicode="&#x2da;" horiz-adv-x="338" 
d="M249 641q0 -35 -22.5 -57t-57.5 -22t-57.5 22t-22.5 57t22.5 57t57.5 22t57.5 -22t22.5 -57zM137 641q0 -14 8.5 -23.5t23.5 -9.5t23.5 9.5t8.5 23.5t-8.5 23.5t-23.5 9.5t-23.5 -9.5t-8.5 -23.5z" />
    <glyph glyph-name="ogonek" unicode="&#x2db;" horiz-adv-x="338" 
d="M100 -124v15q0 45 74 109h62q-44 -55 -44 -84v-4q0 -20 26 -20h18v-80h-58q-34 0 -56 17t-22 47z" />
    <glyph glyph-name="tilde" unicode="&#x2dc;" horiz-adv-x="338" 
d="M133 579v-16h-72v47q0 31 14.5 49.5t40.5 18.5q20 0 59 -18q19 -8 23 -8q6 0 6 10v16h73v-56q0 -25 -15 -42t-39 -17q-22 0 -60 19q-19 9 -23 9q-7 0 -7 -12z" />
    <glyph glyph-name="hungarumlaut" unicode="&#x2dd;" horiz-adv-x="338" 
d="M58 564l24 136h88l-26 -136h-86zM167 564l25 136h88l-28 -136h-85z" />
    <glyph glyph-name="uni0401" unicode="&#x401;" horiz-adv-x="311" 
d="M19 744h278v-131h-145v-162h114v-134h-114v-183h152v-134h-285v744zM273 876v-106h-100v106h100zM148 876v-106h-100v106h100z" />
    <glyph glyph-name="uni0402" unicode="&#x402;" horiz-adv-x="432" 
d="M329 613h-115v-167q34 11 83 11q61 0 90.5 -32t29.5 -87v-285q0 -88 -32.5 -130t-111.5 -42h-31v119h3q24 0 31.5 13t7.5 40v236q0 29 -8.5 38.5t-29.5 9.5q-22 0 -32 -5v-332h-133v613h-75v131h323v-131z" />
    <glyph glyph-name="uni0403" unicode="&#x403;" horiz-adv-x="302" 
d="M84 770l43 115h106l-45 -115h-104zM19 0v744h275v-131h-142v-613h-133z" />
    <glyph glyph-name="uni0404" unicode="&#x404;" horiz-adv-x="368" 
d="M354 160q0 -75 -36 -123.5t-118 -48.5h-27q-88 0 -122.5 48t-34.5 128v420q0 75 37 122t120 47h27q87 0 120.5 -45t33.5 -119v-105h-132v100q0 43 -34 43q-33 0 -33 -43v-127h99v-140h-99v-153q0 -45 34 -45q33 0 33 45v127h132v-131z" />
    <glyph glyph-name="uni0405" unicode="&#x405;" horiz-adv-x="355" 
d="M348 175q0 -86 -41 -135t-121 -49h-26q-152 0 -152 154v134h131v-119q0 -45 34 -45q33 0 33 54v14q0 41 -7.5 63t-35.5 53l-77 85q-71 77 -71 189v32q0 71 40.5 109.5t110.5 38.5h27q76 0 109.5 -35.5t33.5 -110.5v-100h-128v93q0 39 -29 39t-29 -40v-17q0 -50 41 -96
l76 -85q47 -53 64 -96t17 -95v-35z" />
    <glyph glyph-name="uni0406" unicode="&#x406;" horiz-adv-x="171" 
d="M152 744v-744h-133v744h133z" />
    <glyph glyph-name="uni0407" unicode="&#x407;" horiz-adv-x="171" 
d="M152 744v-744h-133v744h133zM198 876v-106h-100v106h100zM73 876v-106h-100v106h100z" />
    <glyph glyph-name="uni0408" unicode="&#x408;" horiz-adv-x="350" 
d="M11 327h128v-172q0 -33 26 -33h4q25 0 25 33v589h138v-593q0 -77 -37 -118t-104 -41h-44q-68 0 -102 34.5t-34 110.5v190z" />
    <glyph glyph-name="uni0409" unicode="&#x409;" horiz-adv-x="565" 
d="M38 0h-33v135h8q20 0 27 11.5t8 38.5q7 166 7 559h305v-268h63q130 0 130 -150v-180q0 -74 -28.5 -110t-108.5 -36h-189v613h-46q0 -353 -9 -482q-5 -69 -34 -100t-100 -31zM360 115h25q21 0 27.5 10.5t6.5 32.5v155q0 20 -6.5 31t-27.5 11h-25v-240z" />
    <glyph glyph-name="uni040A" unicode="&#x40a;" horiz-adv-x="560" 
d="M222 0v335h-70v-335h-133v744h133v-274h70v274h133v-274h63q130 0 130 -150v-174q0 -74 -28.5 -110t-108.5 -36h-189zM355 115h25q21 0 27.5 10.5t6.5 32.5v149q0 20 -6.5 31t-27.5 11h-25v-234z" />
    <glyph glyph-name="uni040B" unicode="&#x40b;" horiz-adv-x="432" 
d="M329 613h-115v-167q34 11 83 11q61 0 90.5 -32t29.5 -87v-338h-133v289q0 29 -8.5 38.5t-29.5 9.5q-22 0 -32 -5v-332h-133v613h-75v131h323v-131z" />
    <glyph glyph-name="uni040C" unicode="&#x40c;" horiz-adv-x="372" 
d="M241 0l-89 315v-315h-133v744h133v-286l87 286h131l-105 -338l116 -406h-140zM124 770l43 115h106l-45 -115h-104z" />
    <glyph glyph-name="uni040E" unicode="&#x40e;" horiz-adv-x="329" 
d="M214 81q-14 -81 -74 -81h-111v119h43q12 0 16 6t6 21l2 21q2 18 -1 30l-103 547h133l44 -309l43 309h125zM278 870q0 -47 -31 -75t-75 -28h-4q-47 0 -77 28t-30 75v5h85v-3q0 -26 23 -26h2q23 0 23 26v3h84v-5z" />
    <glyph glyph-name="uni040F" unicode="&#x40f;" horiz-adv-x="364" 
d="M244 -105h-123v105h-102v744h133v-613h60v613h133v-744h-101v-105z" />
    <glyph glyph-name="uni0410" unicode="&#x410;" horiz-adv-x="345" 
d="M220 0l-13 125h-80l-13 -125h-118l94 744h158l101 -744h-129zM140 253h53l-27 256z" />
    <glyph glyph-name="uni0411" unicode="&#x411;" horiz-adv-x="357" 
d="M19 0v744h295v-131h-162v-147h63q130 0 130 -150v-170q0 -74 -28.5 -110t-108.5 -36h-189zM152 115h25q21 0 27.5 10.5t6.5 32.5v145q0 20 -6.5 31t-27.5 11h-25v-230z" />
    <glyph glyph-name="uni0412" unicode="&#x412;" horiz-adv-x="372" 
d="M19 0v744h201q68 0 98.5 -30.5t30.5 -102.5v-99q0 -42 -19.5 -69t-43.5 -35q74 -19 74 -117v-124q0 -87 -30 -127t-92 -40h-219zM184 630h-32v-177h30q36 0 36 44v93q0 40 -34 40zM184 333h-32v-215h37q18 0 26 9.5t8 39.5v121q0 24 -8.5 34.5t-30.5 10.5z" />
    <glyph glyph-name="uni0413" unicode="&#x413;" horiz-adv-x="302" 
d="M19 0v744h275v-131h-142v-613h-133z" />
    <glyph glyph-name="uni0414" unicode="&#x414;" horiz-adv-x="395" 
d="M267 -105v105h-139v-105h-123v239h25q8 24 10 93q5 153 5 517h310v-610h35v-239h-123zM162 236q-1 -29 -4 -54.5t-5 -36.5l-2 -11h74v479h-58q0 -269 -5 -377z" />
    <glyph glyph-name="uni0415" unicode="&#x415;" horiz-adv-x="311" 
d="M19 744h278v-131h-145v-162h114v-134h-114v-183h152v-134h-285v744z" />
    <glyph glyph-name="uni0416" unicode="&#x416;" horiz-adv-x="561" 
d="M214 0v317l-83 -317h-140l113 406l-102 338h131l81 -287v287h133v-287l81 287h131l-102 -338l113 -406h-140l-83 317v-317h-133z" />
    <glyph glyph-name="uni0417" unicode="&#x417;" horiz-adv-x="350" 
d="M147 589v-74h-132v96q0 59 34 100.5t108 41.5h28q146 0 146 -143v-83q0 -85 -48 -113q55 -18 55 -85v-186q0 -72 -38.5 -113t-109.5 -41h-28q-78 0 -113 38t-35 96v150h133v-118q0 -35 28 -35q27 0 27 35v145q0 17 -4.5 23.5t-20.5 6.5h-69v133h62q16 0 22 7.5t6 25.5v93
q0 20 -6 27t-20 7q-25 0 -25 -34z" />
    <glyph glyph-name="uni0418" unicode="&#x418;" horiz-adv-x="384" 
d="M235 0v395l-86 -395h-130v744h130v-398l86 398h130v-744h-130z" />
    <glyph glyph-name="uni0419" unicode="&#x419;" horiz-adv-x="384" 
d="M235 0v395l-86 -395h-130v744h130v-398l86 398h130v-744h-130zM299 870q0 -47 -31 -75t-75 -28h-4q-47 0 -77 28t-30 75v5h85v-3q0 -26 23 -26h2q23 0 23 26v3h84v-5z" />
    <glyph glyph-name="uni041A" unicode="&#x41a;" horiz-adv-x="378" 
d="M247 0l-89 315v-315h-133v744h133v-286l87 286h131l-105 -338l116 -406h-140z" />
    <glyph glyph-name="uni041B" unicode="&#x41b;" horiz-adv-x="384" 
d="M232 0v613h-51q0 -353 -9 -482q-5 -69 -34 -100t-100 -31h-33v135h8q20 0 27 11.5t8 38.5q7 166 7 559h310v-744h-133z" />
    <glyph glyph-name="uni041C" unicode="&#x41c;" horiz-adv-x="457" 
d="M19 0v744h164l51 -376l51 376h153v-744h-120v440l-66 -440h-50l-67 440v-440h-116z" />
    <glyph glyph-name="uni041D" unicode="&#x41d;" horiz-adv-x="374" 
d="M222 0v314h-70v-314h-133v744h133v-284h70v284h133v-744h-133z" />
    <glyph glyph-name="uni041E" unicode="&#x41e;" horiz-adv-x="381" 
d="M365 564v-394q0 -83 -42 -132t-116 -49h-30q-78 0 -119.5 47t-41.5 134v393q0 190 160 190h30q159 0 159 -189zM226 166v408q0 49 -35 49q-36 0 -36 -49v-408q0 -44 37 -44q34 0 34 44z" />
    <glyph glyph-name="uni041F" unicode="&#x41f;" horiz-adv-x="364" 
d="M19 0v744h326v-744h-133v613h-60v-613h-133z" />
    <glyph glyph-name="uni0420" unicode="&#x420;" horiz-adv-x="357" 
d="M215 298h-63v-298h-133v744h189q80 0 108.5 -36t28.5 -111v-149q0 -150 -130 -150zM152 629v-210h25q21 0 27.5 11t6.5 31v124q0 22 -6.5 33t-27.5 11h-25z" />
    <glyph glyph-name="uni0421" unicode="&#x421;" horiz-adv-x="368" 
d="M189 119q33 0 33 45v164h132v-168q0 -75 -36 -123.5t-118 -48.5h-27q-88 0 -122.5 48t-34.5 128v420q0 75 37 122t120 47h27q87 0 120.5 -45t33.5 -119v-125h-132v120q0 43 -34 43q-33 0 -33 -43v-420q0 -45 34 -45z" />
    <glyph glyph-name="uni0422" unicode="&#x422;" 
d="M329 613h-95v-613h-133v613h-95v131h323v-131z" />
    <glyph glyph-name="uni0423" unicode="&#x423;" horiz-adv-x="329" 
d="M214 81q-14 -81 -74 -81h-111v119h43q12 0 16 6t6 21l2 21q2 18 -1 30l-103 547h133l44 -309l43 309h125z" />
    <glyph glyph-name="uni0424" unicode="&#x424;" horiz-adv-x="555" 
d="M211 754h133v-61h7q188 0 188 -196v-229q0 -199 -188 -199h-7v-79h-133v79h-7q-188 0 -188 196v229q0 97 44.5 148t143.5 51h7v61zM211 560h-1q-30 0 -42.5 -12t-12.5 -44v-243q0 -30 12 -44.5t43 -14.5h1v358zM344 560v-358h1q30 0 42.5 12t12.5 44v243q0 30 -12 44.5
t-43 14.5h-1z" />
    <glyph glyph-name="uni0425" unicode="&#x425;" horiz-adv-x="358" 
d="M178 258l-53 -258h-130l94 398l-81 346h134l41 -223l40 223h126l-79 -346l93 -398h-134z" />
    <glyph glyph-name="uni0426" unicode="&#x426;" horiz-adv-x="385" 
d="M257 -105v105h-238v744h133v-613h60v613h133v-610h35v-239h-123z" />
    <glyph glyph-name="uni0427" unicode="&#x427;" horiz-adv-x="370" 
d="M218 0v298q-33 -11 -80 -11h-3q-61 0 -90.5 32t-29.5 87v338h133v-289q0 -29 8.5 -38.5t29.5 -9.5h2q20 0 30 5v332h133v-744h-133z" />
    <glyph glyph-name="uni0428" unicode="&#x428;" horiz-adv-x="547" 
d="M19 0v744h133v-610h55v610h133v-610h55v610h133v-744h-509z" />
    <glyph glyph-name="uni0429" unicode="&#x429;" horiz-adv-x="568" 
d="M19 0v744h133v-610h55v610h133v-610h55v610h133v-610h35v-239h-123v105h-421z" />
    <glyph glyph-name="uni042A" unicode="&#x42a;" horiz-adv-x="424" 
d="M6 613v131h213v-268h63q130 0 130 -150v-180q0 -74 -28.5 -110t-108.5 -36h-189v613h-80zM219 115h25q21 0 27.5 10.5t6.5 32.5v155q0 20 -6.5 31t-27.5 11h-25v-240z" />
    <glyph glyph-name="uni042B" unicode="&#x42b;" horiz-adv-x="526" 
d="M215 476q130 0 130 -150v-180q0 -74 -28.5 -110t-108.5 -36h-189v744h133v-268h63zM152 115h25q21 0 27.5 10.5t6.5 32.5v155q0 20 -6.5 31t-27.5 11h-25v-240zM507 744v-744h-133v744h133z" />
    <glyph glyph-name="uni042C" unicode="&#x42c;" horiz-adv-x="357" 
d="M215 476q130 0 130 -150v-180q0 -74 -28.5 -110t-108.5 -36h-189v744h133v-268h63zM152 115h25q21 0 27.5 10.5t6.5 32.5v155q0 20 -6.5 31t-27.5 11h-25v-240z" />
    <glyph glyph-name="uni042D" unicode="&#x42d;" horiz-adv-x="368" 
d="M352 164q0 -80 -34.5 -128t-122.5 -48h-27q-82 0 -118 48.5t-36 123.5v131h132v-127q0 -45 33 -45q34 0 34 45v153h-99v140h99v127q0 43 -33 43q-34 0 -34 -43v-100h-132v105q0 74 33.5 119t120.5 45h27q83 0 120 -47t37 -122v-420z" />
    <glyph glyph-name="uni042E" unicode="&#x42e;" horiz-adv-x="561" 
d="M545 170q0 -83 -42 -132t-116 -49h-30q-78 0 -119.5 47t-41.5 134v144h-44v-314h-133v744h133v-284h44v103q0 190 160 190h30q159 0 159 -189v-394zM406 166v408q0 49 -35 49q-36 0 -36 -49v-408q0 -44 37 -44q34 0 34 44z" />
    <glyph glyph-name="uni042F" unicode="&#x42f;" horiz-adv-x="370" 
d="M218 278h-11l-72 -278h-140l83 313q-53 26 -53 115v170q0 74 29 110t109 36h188v-744h-133v278zM218 399v230h-25q-21 0 -27.5 -10.5t-6.5 -32.5v-145q0 -20 6.5 -31t27.5 -11h25z" />
    <glyph glyph-name="uni0430" unicode="&#x430;" 
d="M12 88v117q0 75 56 110q13 8 55 28.5t49 24.5q8 5 8 20v29q0 29 -22 29h-4q-22 0 -22 -29v-53h-114v74q0 44 28 75t98 31h23q75 0 105.5 -30.5t30.5 -87.5v-297q0 -9 3.5 -12t15.5 -3h14v-114h-119q-37 0 -37 61q-36 -66 -91 -66h-4q-35 0 -54 27.5t-19 65.5zM180 134
v131q-24 -13 -33 -25q-12 -15 -12 -41v-65q0 -32 21 -32q24 0 24 32z" />
    <glyph glyph-name="uni0431" unicode="&#x431;" horiz-adv-x="338" 
d="M324 140q0 -63 -36.5 -106t-106.5 -43h-20q-76 0 -112 41t-36 108v406q0 94 35 136.5t133 42.5h9q13 0 17.5 3.5t4.5 15.5h113q0 -72 -20.5 -100t-82.5 -28h-17q-39 0 -51.5 -13.5t-12.5 -56.5v-42q39 42 91 42h5q47 0 67 -33.5t20 -101.5v-271zM168 105q27 0 27 32v259
q0 41 -27 41q-26 0 -26 -41v-259q0 -32 26 -32z" />
    <glyph glyph-name="uni0432" unicode="&#x432;" horiz-adv-x="332" 
d="M194 0h-178v538h168q76 0 101.5 -20t25.5 -81v-59q0 -70 -51 -88q19 -7 29 -13.5t18.5 -26.5t8.5 -53v-80q0 -66 -24.5 -91.5t-97.5 -25.5zM144 334h14q26 0 26 36v36q0 30 -26 30h-14v-102zM144 102h14q31 0 31 37v59q0 35 -31 35h-14v-131z" />
    <glyph glyph-name="uni0433" unicode="&#x433;" horiz-adv-x="242" 
d="M16 0v538h221v-119h-93v-419h-128z" />
    <glyph glyph-name="uni0434" unicode="&#x434;" horiz-adv-x="368" 
d="M117 -100h-117v219h16q11 9 16 47q5 42 5 372h291v-419h35v-219h-117v100h-129v-100zM147 162q-3 -25 -9 -43h62v300h-44q0 -180 -9 -257z" />
    <glyph glyph-name="uni0435" unicode="&#x435;" horiz-adv-x="319" 
d="M307 117q0 -61 -38 -94t-97 -33h-24q-62 0 -98.5 33t-36.5 94v296q0 59 33 97t102 38h24q135 0 135 -137v-159h-171v-117q0 -33 25 -33q23 0 23 33v80h123v-98zM136 413v-65h52v65q0 36 -26 36q-16 0 -21 -8.5t-5 -27.5z" />
    <glyph glyph-name="uni0436" unicode="&#x436;" horiz-adv-x="514" 
d="M195 0v222l-74 -222h-127l96 282l-89 256h122l72 -215v215h124v-215l72 215h122l-89 -256l96 -282h-127l-74 222v-222h-124z" />
    <glyph glyph-name="uni0437" unicode="&#x437;" horiz-adv-x="321" 
d="M305 126q0 -137 -141 -137h-21q-67 0 -99.5 37.5t-32.5 98.5v89h119v-81q0 -31 24 -31q25 0 25 27v72q0 29 -36 29h-52v112h52q20 0 28 7t8 30v27q0 37 -25 37t-25 -38v-49h-118v62q0 57 32 93.5t100 36.5h25q74 0 103 -33t29 -103v-36q0 -70 -51 -88q19 -7 29 -13.5
t18.5 -26.5t8.5 -53v-69z" />
    <glyph glyph-name="uni0438" unicode="&#x438;" horiz-adv-x="348" 
d="M332 0h-125v282l-66 -282h-125v538h125v-283l66 283h125v-538z" />
    <glyph glyph-name="uni0439" unicode="&#x439;" horiz-adv-x="348" 
d="M332 0h-125v282l-66 -282h-125v538h125v-283l66 283h125v-538zM282 672q0 -51 -30.5 -80t-75.5 -29h-3q-48 0 -78 28.5t-30 80.5v8h85v-6q0 -33 24 -33h1q24 0 24 33v6h83v-8z" />
    <glyph glyph-name="uni043A" unicode="&#x43a;" horiz-adv-x="342" 
d="M221 0l-77 216v-216h-128v538h128v-210l75 210h122l-94 -255l101 -283h-127z" />
    <glyph glyph-name="uni043B" unicode="&#x43b;" horiz-adv-x="350" 
d="M42 166q5 42 5 372h287v-538h-128v419h-40q0 -229 -9 -311q-7 -61 -34 -84.5t-83 -23.5h-35v121h6q15 0 21.5 10t9.5 35z" />
    <glyph glyph-name="uni043C" unicode="&#x43c;" horiz-adv-x="428" 
d="M185 0l-56 318v-318h-113v538h155l50 -281l50 281h141v-538h-113v320l-56 -320h-58z" />
    <glyph glyph-name="uni043D" unicode="&#x43d;" horiz-adv-x="338" 
d="M144 0h-128v538h128v-206h50v206h128v-538h-128v213h-50v-213z" />
    <glyph glyph-name="uni043E" unicode="&#x43e;" horiz-adv-x="337" 
d="M153 -10q-70 0 -105 42t-35 110v255q0 72 37 111.5t103 39.5h30q66 0 103.5 -39t37.5 -110v-255q0 -67 -38 -110.5t-103 -43.5h-30zM142 144q0 -38 26 -38q27 0 27 38v256q0 37 -27 37q-26 0 -26 -37v-256z" />
    <glyph glyph-name="uni043F" unicode="&#x43f;" horiz-adv-x="333" 
d="M144 0h-128v538h301v-538h-128v419h-45v-419z" />
    <glyph glyph-name="uni0440" unicode="&#x440;" horiz-adv-x="340" 
d="M16 538h128v-59q40 65 94 65h2q42 0 63.5 -31.5t21.5 -83.5v-321q0 -53 -26.5 -86t-63.5 -33h-2q-51 0 -89 58v-235h-128v726zM144 130q0 -36 25 -36t25 35v273q0 34 -25 34t-25 -34v-272z" />
    <glyph glyph-name="uni0441" unicode="&#x441;" horiz-adv-x="318" 
d="M307 125q0 -60 -33 -98t-99 -38h-21q-72 0 -106.5 38t-34.5 102v271q0 148 139 148h25q130 0 130 -130v-89h-118v76q0 38 -24 38q-23 0 -23 -37v-271q0 -33 22 -33q24 0 24 31v108h119v-116z" />
    <glyph glyph-name="uni0442" unicode="&#x442;" horiz-adv-x="268" 
d="M70 0v419h-65v119h258v-119h-65v-419h-128z" />
    <glyph glyph-name="uni0443" unicode="&#x443;" horiz-adv-x="312" 
d="M203 -107q-14 -81 -74 -81h-116v119h53q12 0 16 6t6 21l2 21q1 14 -1 30l-93 529h126l37 -297l34 297h123z" />
    <glyph glyph-name="uni0444" unicode="&#x444;" horiz-adv-x="502" 
d="M348 -10h-33v-178h-128v178h-34q-70 0 -105 42t-35 110v255q0 72 37 111.5t103 39.5h34v196h128v-196h33q66 0 103.5 -39t37.5 -110v-255q0 -67 -38 -110.5t-103 -43.5zM168 106h19v331h-19q-26 0 -26 -37v-256q0 -38 26 -38zM333 437h-18v-331h18q27 0 27 38v256
q0 37 -27 37z" />
    <glyph glyph-name="uni0445" unicode="&#x445;" horiz-adv-x="311" 
d="M193 0l-38 170l-40 -170h-119l77 289l-72 249h122l35 -153l31 153h117l-68 -245l77 -293h-122z" />
    <glyph glyph-name="uni0446" unicode="&#x446;" horiz-adv-x="357" 
d="M352 119v-219h-117v100h-219v538h128v-419h45v419h128v-419h35z" />
    <glyph glyph-name="uni0447" unicode="&#x447;" horiz-adv-x="325" 
d="M138 336q0 -30 25 -30q10 0 18 4v228h128v-538h-128v207q-25 -12 -63 -12q-108 0 -108 119v224h128v-202z" />
    <glyph glyph-name="uni0448" unicode="&#x448;" horiz-adv-x="496" 
d="M16 0v538h128v-419h40v419h128v-419h40v419h128v-538h-464z" />
    <glyph glyph-name="uni0449" unicode="&#x449;" horiz-adv-x="520" 
d="M16 0v538h128v-419h40v419h128v-419h40v419h128v-419h35v-219h-117v100h-382z" />
    <glyph glyph-name="uni044A" unicode="&#x44a;" horiz-adv-x="388" 
d="M5 419v119h198v-170h41q72 0 102 -28.5t30 -94.5v-108q0 -71 -30 -104t-102 -33h-169v419h-70zM203 103h14q31 0 31 32v100q0 17 -7 23.5t-24 6.5h-14v-162z" />
    <glyph glyph-name="uni044B" unicode="&#x44b;" horiz-adv-x="481" 
d="M16 0v538h128v-170h41q72 0 102 -28.5t30 -94.5v-108q0 -71 -30 -104t-102 -33h-169zM144 103h14q31 0 31 32v100q0 17 -7 23.5t-24 6.5h-14v-162zM465 538v-538h-128v538h128z" />
    <glyph glyph-name="uni044C" unicode="&#x44c;" horiz-adv-x="329" 
d="M16 0v538h128v-170h41q72 0 102 -28.5t30 -94.5v-108q0 -71 -30 -104t-102 -33h-169zM144 103h14q31 0 31 32v100q0 17 -7 23.5t-24 6.5h-14v-162z" />
    <glyph glyph-name="uni044D" unicode="&#x44d;" horiz-adv-x="318" 
d="M305 129q0 -64 -34.5 -102t-106.5 -38h-21q-66 0 -99 38t-33 98v89h119v-81q0 -31 24 -31q22 0 22 33v95h-85v112h85v64q0 37 -23 37q-24 0 -24 -38v-49h-118v62q0 130 132 130h25q137 0 137 -148v-271z" />
    <glyph glyph-name="uni044E" unicode="&#x44e;" horiz-adv-x="503" 
d="M490 144q0 -67 -38 -110.5t-103 -43.5h-30q-70 0 -105 42t-35 110v71h-35v-213h-128v538h128v-206h35v65q0 72 37 111.5t103 39.5h30q66 0 103.5 -39t37.5 -110v-255zM308 144q0 -38 26 -38q27 0 27 38v256q0 37 -27 37q-26 0 -26 -37v-256z" />
    <glyph glyph-name="uni044F" unicode="&#x44f;" horiz-adv-x="333" 
d="M189 180h-9l-53 -180h-127l62 207q-46 25 -46 96v98q0 71 30 104t102 33h169v-538h-128v180zM189 435h-14q-31 0 -31 -32v-90q0 -17 7 -23.5t24 -6.5h14v152z" />
    <glyph glyph-name="uni0451" unicode="&#x451;" horiz-adv-x="319" 
d="M172 548q135 0 135 -137v-159h-171v-117q0 -33 25 -33q23 0 23 33v80h123v-98q0 -61 -38 -94t-97 -33h-24q-62 0 -98.5 33t-36.5 94v296q0 59 33 97t102 38h24zM273 672v-106h-100v106h100zM149 672v-106h-100v106h100zM136 413v-65h52v65q0 36 -26 36q-16 0 -21 -8.5
t-5 -27.5z" />
    <glyph glyph-name="uni0452" unicode="&#x452;" horiz-adv-x="340" 
d="M324 -116q0 -30 -20.5 -51t-53.5 -21h-125v119h52q10 0 14 4.5t4 16.5v446q0 30 -25 30q-26 0 -26 -34v-394h-128v583h-32v91h32v70h128v-70h75v-91h-75v-107q43 64 96 64h5q36 0 57.5 -23.5t21.5 -60.5v-572z" />
    <glyph glyph-name="uni0453" unicode="&#x453;" horiz-adv-x="242" 
d="M16 0v538h221v-119h-93v-419h-128zM65 564l42 136h105l-44 -136h-103z" />
    <glyph glyph-name="uni0454" unicode="&#x454;" horiz-adv-x="318" 
d="M307 125q0 -60 -33 -98t-99 -38h-21q-72 0 -106.5 38t-34.5 102v271q0 148 139 148h25q130 0 130 -130v-62h-118v49q0 38 -24 38q-23 0 -23 -37v-64h85v-112h-85v-95q0 -33 22 -33q24 0 24 31v81h119v-89z" />
    <glyph glyph-name="uni0455" unicode="&#x455;" horiz-adv-x="299" 
d="M294 129q0 -60 -33.5 -99t-99.5 -39h-26q-66 0 -98 32.5t-32 84.5v88h118v-72q0 -30 23 -30h1q21 0 21 31v12q0 40 -28 67l-68 65q-34 33 -47 65.5t-13 76.5v17q0 56 32 88t94 32h27q122 0 122 -102v-73h-114v56q0 28 -21 28t-21 -28v-11q0 -29 23 -52l71 -70
q40 -40 54.5 -72.5t14.5 -76.5v-18z" />
    <glyph glyph-name="uni0456" unicode="&#x456;" horiz-adv-x="160" 
d="M144 690v-126h-128v126h128zM144 538v-538h-128v538h128z" />
    <glyph glyph-name="uni0457" unicode="&#x457;" horiz-adv-x="160" 
d="M75 690v-126h-80v126h80zM165 690v-126h-80v126h80zM144 538v-538h-128v538h128z" />
    <glyph glyph-name="uni0458" unicode="&#x458;" horiz-adv-x="161" 
d="M145 690v-126h-128v126h128zM-53 -69h52q10 0 14 4.5t4 16.5v586h128v-654q0 -30 -20.5 -51t-53.5 -21h-124v119z" />
    <glyph glyph-name="uni0459" unicode="&#x459;" horiz-adv-x="519" 
d="M47 538h287v-170h41q72 0 102 -28.5t30 -94.5v-108q0 -71 -30 -104t-102 -33h-169v419h-40q0 -229 -9 -311q-7 -61 -34 -84.5t-83 -23.5h-35v121h6q15 0 21.5 10t9.5 35q5 42 5 372zM334 265v-162h14q31 0 31 32v100q0 17 -7 23.5t-24 6.5h-14z" />
    <glyph glyph-name="uni045A" unicode="&#x45a;" horiz-adv-x="507" 
d="M144 0h-128v538h128v-190h50v190h128v-190h41q72 0 102 -28.5t30 -94.5v-88q0 -71 -30 -104t-102 -33h-169v229h-50v-229zM322 245v-142h14q31 0 31 32v80q0 17 -7 23.5t-24 6.5h-14z" />
    <glyph glyph-name="uni045B" unicode="&#x45b;" horiz-adv-x="340" 
d="M144 394v-394h-128v583h-32v91h32v70h128v-70h75v-91h-75v-107q43 64 96 64h5q36 0 57.5 -23.5t21.5 -60.5v-456h-129v398q0 30 -25 30q-26 0 -26 -34z" />
    <glyph glyph-name="uni045C" unicode="&#x45c;" horiz-adv-x="342" 
d="M130 564l42 136h105l-44 -136h-103zM221 0l-77 216v-216h-128v538h128v-210l75 210h122l-94 -255l101 -283h-127z" />
    <glyph glyph-name="uni045E" unicode="&#x45e;" horiz-adv-x="312" 
d="M203 -107q-14 -81 -74 -81h-116v119h53q12 0 16 6t6 21l2 21q1 14 -1 30l-93 529h126l37 -297l34 297h123zM268 672q0 -51 -30.5 -80t-75.5 -29h-3q-48 0 -78 28.5t-30 80.5v8h85v-6q0 -33 24 -33h1q24 0 24 33v6h83v-8z" />
    <glyph glyph-name="uni045F" unicode="&#x45f;" horiz-adv-x="333" 
d="M317 0h-92v-100h-117v100h-92v538h128v-419h45v419h128v-538z" />
    <glyph glyph-name="uni0490" unicode="&#x490;" horiz-adv-x="304" 
d="M21 0v744h152v105h123v-236h-142v-613h-133z" />
    <glyph glyph-name="uni0491" unicode="&#x491;" horiz-adv-x="242" 
d="M16 0v538h114v100h107v-219h-93v-419h-128z" />
    <glyph glyph-name="uni0492" unicode="&#x492;" horiz-adv-x="306" 
d="M23 0v325h-25v118h25v301h275v-131h-142v-170h60v-118h-60v-325h-133z" />
    <glyph glyph-name="uni0493" unicode="&#x493;" horiz-adv-x="252" 
d="M26 0v209h-26v104h26v225h221v-119h-93v-106h48v-104h-48v-209h-128z" />
    <glyph glyph-name="uni0496" unicode="&#x496;" horiz-adv-x="580" 
d="M214 0v317l-83 -317h-140l113 406l-102 338h131l81 -287v287h133v-287l81 287h131l-102 -338l75 -272h43v-239h-123v105h-22l-83 317v-317h-133z" />
    <glyph glyph-name="uni0497" unicode="&#x497;" horiz-adv-x="524" 
d="M195 0v222l-74 -222h-127l96 282l-89 256h122l72 -215v215h124v-215l72 215h122l-89 -256l55 -163h45v-219h-107v100h-24l-74 222v-222h-124z" />
    <glyph glyph-name="uni049A" unicode="&#x49a;" horiz-adv-x="388" 
d="M241 0l-89 315v-315h-133v744h133v-286l87 286h131l-105 -338l77 -272h41v-239h-123v105h-19z" />
    <glyph glyph-name="uni049B" unicode="&#x49b;" horiz-adv-x="353" 
d="M221 0l-77 216v-216h-128v538h128v-210l75 210h122l-94 -255l58 -164h48v-219h-107v100h-25z" />
    <glyph glyph-name="uni04A2" unicode="&#x4a2;" horiz-adv-x="395" 
d="M222 0v314h-70v-314h-133v744h133v-284h70v284h133v-610h35v-239h-123v105h-45z" />
    <glyph glyph-name="uni04A3" unicode="&#x4a3;" horiz-adv-x="362" 
d="M144 0h-128v538h128v-206h50v206h128v-419h35v-219h-107v100h-56v213h-50v-213z" />
    <glyph glyph-name="uni04AE" unicode="&#x4ae;" horiz-adv-x="327" 
d="M235 293v-293h-133v288l-110 456h133l45 -264l45 264h120z" />
    <glyph glyph-name="uni04AF" unicode="&#x4af;" horiz-adv-x="309" 
d="M215 0v-188h-128v188l-91 538h124l36 -343l35 343h122z" />
    <glyph glyph-name="uni04B0" unicode="&#x4b0;" horiz-adv-x="327" 
d="M305 196h-70v-196h-133v196h-70v114h64l-104 434h133l45 -264l45 264h120l-96 -434h66v-114z" />
    <glyph glyph-name="uni04B1" unicode="&#x4b1;" horiz-adv-x="309" 
d="M215 0h60v-91h-60v-97h-128v97h-60v91h60l-91 538h124l36 -343l35 343h122z" />
    <glyph glyph-name="uni04B2" unicode="&#x4b2;" horiz-adv-x="375" 
d="M178 258l-53 -258h-130l94 398l-81 346h134l41 -223l40 223h126l-79 -346l61 -264h39v-239h-123v105h-18z" />
    <glyph glyph-name="uni04B3" unicode="&#x4b3;" horiz-adv-x="320" 
d="M193 0l-38 170l-40 -170h-119l77 289l-72 249h122l35 -153l31 153h117l-68 -245l45 -174h37v-219h-107v100h-20z" />
    <glyph glyph-name="uni04BA" unicode="&#x4ba;" horiz-adv-x="370" 
d="M152 744v-298q33 11 80 11h3q61 0 90.5 -32t29.5 -87v-338h-133v289q0 29 -8.5 38.5t-29.5 9.5h-2q-20 0 -30 -5v-332h-133v744h133z" />
    <glyph glyph-name="uni04BB" unicode="&#x4bb;" horiz-adv-x="340" 
d="M16 0v744h128v-268q43 64 96 64h5q36 0 57.5 -23.5t21.5 -60.5v-456h-129v398q0 30 -25 30q-26 0 -26 -34v-394h-128z" />
    <glyph glyph-name="uni04C0" unicode="&#x4c0;" horiz-adv-x="171" 
d="M152 744v-744h-133v744h133z" />
    <glyph glyph-name="uni04CF" unicode="&#x4cf;" horiz-adv-x="160" 
d="M144 744v-744h-128v744h128z" />
    <glyph glyph-name="uni04D8" unicode="&#x4d8;" horiz-adv-x="370" 
d="M16 160v277h199v147q0 43 -33 43q-34 0 -34 -43v-100h-132v105q0 74 33.5 119t120.5 45h27q83 0 120 -47t37 -122v-420q0 -80 -34.5 -128t-122.5 -48h-27q-82 0 -118 48.5t-36 123.5zM148 164q0 -45 33 -45q34 0 34 45v143h-67v-143z" />
    <glyph glyph-name="uni04D9" unicode="&#x4d9;" horiz-adv-x="319" 
d="M306 123q0 -59 -33 -97t-102 -38h-24q-135 0 -135 137v169h171v107q0 33 -25 33q-23 0 -23 -33v-70h-123v88q0 61 38 94t97 33h24q62 0 98.5 -33t36.5 -94v-296zM157 87q16 0 21 8.5t5 27.5v75h-52v-75q0 -36 26 -36z" />
    <glyph glyph-name="uni04E8" unicode="&#x4e8;" horiz-adv-x="385" 
d="M369 564v-394q0 -83 -42 -132t-116 -49h-34q-78 0 -119.5 47t-41.5 134v393q0 190 160 190h34q159 0 159 -189zM154 580v-135h77v135q0 51 -38 51q-39 0 -39 -51zM154 160q0 -46 40 -46q37 0 37 46v160h-77v-160z" />
    <glyph glyph-name="uni04E9" unicode="&#x4e9;" horiz-adv-x="343" 
d="M153 -10q-70 0 -105 42t-35 110v255q0 72 37 111.5t103 39.5h36q66 0 103.5 -39t37.5 -110v-255q0 -67 -38 -110.5t-103 -43.5h-36zM141 404v-80h61v80q0 38 -31 38q-30 0 -30 -38zM141 140q0 -39 30 -39q31 0 31 39v81h-61v-81z" />
    <glyph glyph-name="Wgrave" unicode="&#x1e80;" horiz-adv-x="568" 
d="M325 0l-39 409l-39 -409h-157l-93 744h138l43 -476l47 476h127l47 -472l44 472h128l-95 -744h-151zM296 885l43 -115h-104l-44 115h105z" />
    <glyph glyph-name="wgrave" unicode="&#x1e81;" horiz-adv-x="494" 
d="M283 0l-34 292l-35 -292h-137l-81 538h126l36 -333l36 333h113l36 -337l35 337h120l-82 -538h-133zM258 700l41 -136h-102l-45 136h106z" />
    <glyph glyph-name="Wacute" unicode="&#x1e82;" horiz-adv-x="568" 
d="M325 0l-39 409l-39 -409h-157l-93 744h138l43 -476l47 476h127l47 -472l44 472h128l-95 -744h-151zM236 770l43 115h106l-45 -115h-104z" />
    <glyph glyph-name="wacute" unicode="&#x1e83;" horiz-adv-x="494" 
d="M200 564l42 136h105l-44 -136h-103zM283 0l-34 292l-35 -292h-137l-81 538h126l36 -333l36 333h113l36 -337l35 337h120l-82 -538h-133z" />
    <glyph glyph-name="Wdieresis" unicode="&#x1e84;" horiz-adv-x="568" 
d="M325 0l-39 409l-39 -409h-157l-93 744h138l43 -476l47 476h127l47 -472l44 472h128l-95 -744h-151zM398 876v-106h-100v106h100zM273 876v-106h-100v106h100z" />
    <glyph glyph-name="wdieresis" unicode="&#x1e85;" horiz-adv-x="494" 
d="M283 0l-34 292l-35 -292h-137l-81 538h126l36 -333l36 333h113l36 -337l35 337h120l-82 -538h-133zM236 670v-106h-100v106h100zM360 670v-106h-100v106h100z" />
    <glyph glyph-name="Ygrave" unicode="&#x1ef2;" horiz-adv-x="327" 
d="M235 293v-293h-133v288l-110 456h133l45 -264l45 264h120zM179 885l43 -115h-104l-44 115h105z" />
    <glyph glyph-name="ygrave" unicode="&#x1ef3;" horiz-adv-x="311" 
d="M203 -107q-14 -81 -74 -81h-116v119h53q12 0 16 6t6 21l2 21q1 14 -1 30l-93 529h126l37 -297l34 297h123zM171 700l41 -136h-102l-45 136h106z" />
    <glyph glyph-name="uni2009" unicode="&#x2009;" horiz-adv-x="12" 
 />
    <glyph glyph-name="endash" unicode="&#x2013;" horiz-adv-x="334" 
d="M13 345h308v-90h-308v90z" />
    <glyph glyph-name="emdash" unicode="&#x2014;" horiz-adv-x="506" 
d="M13 345h480v-90h-480v90z" />
    <glyph glyph-name="quoteleft" unicode="&#x2018;" horiz-adv-x="135" 
d="M36 744h63q-18 -55 -19 -92h43v-128h-111v103q0 61 24 117z" />
    <glyph glyph-name="quoteright" unicode="&#x2019;" horiz-adv-x="135" 
d="M99 524h-63q18 55 19 92h-43v128h111v-103q0 -61 -24 -117z" />
    <glyph glyph-name="quotesinglbase" unicode="&#x201a;" horiz-adv-x="135" 
d="M123 25q0 -61 -24 -117h-63q18 55 19 92h-43v128h111v-103z" />
    <glyph glyph-name="quotedblleft" unicode="&#x201c;" horiz-adv-x="263" 
d="M36 744h63q-18 -55 -19 -92h43v-128h-111v103q0 61 24 117zM164 744h63q-18 -55 -19 -92h43v-128h-111v103q0 61 24 117z" />
    <glyph glyph-name="quotedblright" unicode="&#x201d;" horiz-adv-x="263" 
d="M99 524h-63q18 55 19 92h-43v128h111v-103q0 -61 -24 -117zM227 524h-63q18 55 19 92h-43v128h111v-103q0 -61 -24 -117z" />
    <glyph glyph-name="quotedblbase" unicode="&#x201e;" horiz-adv-x="263" 
d="M123 25q0 -61 -24 -117h-63q18 55 19 92h-43v128h111v-103zM251 25q0 -61 -24 -117h-63q18 55 19 92h-43v128h111v-103z" />
    <glyph glyph-name="dagger" unicode="&#x2020;" horiz-adv-x="267" 
d="M69 0v475h-64v126h64v143h129v-143h64v-126h-64v-475h-129z" />
    <glyph glyph-name="daggerdbl" unicode="&#x2021;" horiz-adv-x="267" 
d="M69 144h-64v125h64v206h-64v125h64v144h129v-144h64v-125h-64v-206h64v-125h-64v-144h-129v144z" />
    <glyph glyph-name="bullet" unicode="&#x2022;" horiz-adv-x="232" 
d="M116 221q-46 0 -75.5 31t-29.5 77t29.5 77.5t75.5 31.5q45 0 75 -31.5t30 -77.5t-30 -77t-75 -31z" />
    <glyph glyph-name="ellipsis" unicode="&#x2026;" horiz-adv-x="424" 
d="M292 144h119v-144h-119v144zM152 0v144h119v-144h-119zM132 0h-119v144h119v-144z" />
    <glyph glyph-name="perthousand" unicode="&#x2030;" horiz-adv-x="725" 
d="M10 515v128q0 52 26.5 79.5t72.5 27.5h20q46 0 72 -28t26 -79v-128q0 -50 -26 -79t-72 -29h-20q-46 0 -72.5 28t-26.5 80zM344 744h83l-279 -744h-83zM135 508v143q0 20 -17 20q-16 0 -16 -20v-143q0 -20 16 -20q17 0 17 20zM616 -5h-19q-46 0 -73 28t-27 79v128
q0 52 27 80t73 28h19q47 0 73 -28.5t26 -79.5v-128q0 -50 -26.5 -78.5t-72.5 -28.5zM382 -5h-20q-46 0 -72.5 27.5t-26.5 79.5v128q0 52 26.5 80t72.5 28h20q46 0 72 -28.5t26 -79.5v-128q0 -50 -26 -78.5t-72 -28.5zM606 75q17 0 17 20v143q0 20 -17 20q-16 0 -16 -20v-143
q0 -20 16 -20zM371 75q17 0 17 20v143q0 20 -17 20q-16 0 -16 -20v-143q0 -20 16 -20z" />
    <glyph glyph-name="uni2032" unicode="&#x2032;" horiz-adv-x="115" 
d="M115 744l-22 -191h-93l21 191h94z" />
    <glyph glyph-name="uni2033" unicode="&#x2033;" horiz-adv-x="224" 
d="M113 744l-22 -191h-91l21 191h92zM224 744l-22 -191h-92l23 191h91z" />
    <glyph glyph-name="guilsinglleft" unicode="&#x2039;" horiz-adv-x="159" 
d="M108 286l45 -167h-99l-44 137v60l44 135h100z" />
    <glyph glyph-name="guilsinglright" unicode="&#x203a;" horiz-adv-x="159" 
d="M50 285l-44 166h100l43 -136v-60l-43 -136h-101z" />
    <glyph glyph-name="fraction" unicode="&#x2044;" horiz-adv-x="348" 
d="M267 744h81l-267 -744h-81z" />
    <glyph glyph-name="zero.sup" unicode="&#x2070;" horiz-adv-x="227" 
d="M108 750h12q97 0 97 -98v-163q0 -42 -26.5 -67t-70.5 -25h-14q-44 0 -69.5 24.5t-25.5 67.5v163q0 46 24.5 72t72.5 26zM129 654q0 21 -15 21t-15 -21v-161q0 -19 14 -19q16 0 16 19v161z" />
    <glyph glyph-name="four.sup" unicode="&#x2074;" horiz-adv-x="208" 
d="M5 520q55 134 86 225h83v-211h28v-72h-28v-59h-80v59h-89v58zM63 534h31v87q-14 -47 -31 -87z" />
    <glyph glyph-name="five.sup" unicode="&#x2075;" horiz-adv-x="211" 
d="M203 491q0 -94 -90 -94h-15q-89 0 -89 82v40h83v-41q0 -15 12 -15t12 15v83q0 18 -12 18q-13 0 -13 -18v-16h-78v199h180v-71h-103v-61q28 37 58 37q55 0 55 -65v-93z" />
    <glyph glyph-name="six.sup" unicode="&#x2076;" horiz-adv-x="222" 
d="M213 487q0 -40 -26 -65t-74 -25q-52 0 -77 25t-25 66v174q0 38 22.5 63t76.5 25t75 -22.5t21 -62.5v-26h-84v26q0 16 -13 16q-11 0 -11 -16v-74q25 32 61 32q27 0 40.5 -17.5t13.5 -43.5v-75zM98 486q0 -20 13 -20q15 0 15 20v54q0 21 -15 21q-13 0 -13 -21v-54z" />
    <glyph glyph-name="seven.sup" unicode="&#x2077;" horiz-adv-x="194" 
d="M161 561q-13 -64 -13 -158h-98q0 71 28 150q40 108 40 129h-35v-59h-74v121h180v-36q0 -9 -2.5 -23.5t-5.5 -29t-9 -43t-11 -51.5z" />
    <glyph glyph-name="eight.sup" unicode="&#x2078;" horiz-adv-x="213" 
d="M202 671v-26q0 -41 -32 -61q35 -15 35 -64v-38q0 -40 -23.5 -62.5t-70.5 -22.5h-9q-93 0 -93 86v37q0 48 33 64q-30 20 -30 61v26q0 79 90 79h9q91 0 91 -79zM119 630v37q0 18 -13 18q-12 0 -12 -18v-37q0 -17 13 -17q12 0 12 17zM120 483v48q0 19 -14 19q-13 0 -13 -19
v-48q0 -17 13 -17q14 0 14 17z" />
    <glyph glyph-name="nine.sup" unicode="&#x2079;" horiz-adv-x="222" 
d="M211 485q0 -37 -22.5 -62.5t-77.5 -25.5t-75 22t-20 61v28h84v-26q0 -16 13 -16q11 0 11 16v74q-23 -32 -59 -32q-26 0 -41 18.5t-15 43.5v74q0 41 24.5 65.5t75.5 24.5q102 0 102 -90v-175zM110 681q-15 0 -15 -20v-55q0 -20 15 -20q14 0 14 20v55q0 20 -14 20z" />
    <glyph glyph-name="zero.sub" unicode="&#x2080;" horiz-adv-x="227" 
d="M108 246h12q97 0 97 -98v-163q0 -42 -26.5 -67t-70.5 -25h-14q-44 0 -69.5 24.5t-25.5 67.5v163q0 46 24.5 72t72.5 26zM129 150q0 21 -15 21t-15 -21v-161q0 -19 14 -19q16 0 16 19v161z" />
    <glyph glyph-name="one.sub" unicode="&#x2081;" horiz-adv-x="147" 
d="M47 132h-43v66q29 0 40.5 10.5t14.5 29.5h72v-340h-84v234z" />
    <glyph glyph-name="two.sub" unicode="&#x2082;" horiz-adv-x="220" 
d="M211 20v-122h-206v44q0 28 15 55t65 83q22 25 26.5 36.5t4.5 30.5v16q0 17 -14 17q-13 0 -13 -17v-53h-78v57q0 34 19.5 56.5t63.5 22.5h15q94 0 94 -79v-18q0 -34 -14 -58.5t-49 -56.5q-41 -37 -48.5 -46.5t-7.5 -21.5h53v54h74z" />
    <glyph glyph-name="three.sub" unicode="&#x2083;" horiz-adv-x="210" 
d="M87 126h-77v36q0 84 85 84h12q88 0 88 -81v-23q0 -42 -30 -54q37 -14 37 -54v-55q0 -86 -92 -86h-14q-87 0 -87 79v51h80v-46q0 -17 13 -17q12 0 12 17v49q0 15 -13 15h-39v69h37q14 0 14 16v38q0 18 -13 18t-13 -18v-38z" />
    <glyph glyph-name="four.sub" unicode="&#x2084;" horiz-adv-x="208" 
d="M5 -43v58q55 134 86 225h83v-211h28v-72h-28v-59h-80v59h-89zM63 29h31v87q-14 -47 -31 -87z" />
    <glyph glyph-name="five.sub" unicode="&#x2085;" horiz-adv-x="211" 
d="M203 -13q0 -94 -90 -94h-15q-89 0 -89 82v40h83v-41q0 -15 12 -15t12 15v83q0 18 -12 18q-13 0 -13 -18v-16h-78v199h180v-71h-103v-61q28 37 58 37q55 0 55 -65v-93z" />
    <glyph glyph-name="six.sub" unicode="&#x2086;" horiz-adv-x="222" 
d="M213 -17q0 -40 -26 -65t-74 -25q-52 0 -77 25t-25 66v174q0 38 22.5 63t76.5 25t75 -22.5t21 -62.5v-26h-84v26q0 16 -13 16q-11 0 -11 -16v-74q25 32 61 32q27 0 40.5 -17.5t13.5 -43.5v-75zM98 -18q0 -20 13 -20q15 0 15 20v54q0 21 -15 21q-13 0 -13 -21v-54z" />
    <glyph glyph-name="seven.sub" unicode="&#x2087;" horiz-adv-x="194" 
d="M161 56q-13 -64 -13 -158h-98q0 71 28 150q40 108 40 129h-35v-59h-74v121h180v-36q0 -9 -2.5 -23.5t-5.5 -29t-9 -43t-11 -51.5z" />
    <glyph glyph-name="eight.sub" unicode="&#x2088;" horiz-adv-x="213" 
d="M202 167v-26q0 -41 -32 -61q35 -15 35 -64v-38q0 -40 -23.5 -62.5t-70.5 -22.5h-9q-93 0 -93 86v37q0 48 33 64q-30 20 -30 61v26q0 79 90 79h9q91 0 91 -79zM119 126v37q0 18 -13 18q-12 0 -12 -18v-37q0 -17 13 -17q12 0 12 17zM120 -21v48q0 19 -14 19q-13 0 -13 -19
v-48q0 -17 13 -17q14 0 14 17z" />
    <glyph glyph-name="nine.sub" unicode="&#x2089;" horiz-adv-x="222" 
d="M211 -19q0 -37 -22.5 -62.5t-77.5 -25.5t-75 22t-20 61v28h84v-26q0 -16 13 -16q11 0 11 16v74q-23 -32 -59 -32q-26 0 -41 18.5t-15 43.5v74q0 41 24.5 65.5t75.5 24.5q102 0 102 -90v-175zM110 177q-15 0 -15 -20v-55q0 -20 15 -20q14 0 14 20v55q0 20 -14 20z" />
    <glyph glyph-name="Euro" unicode="&#x20ac;" horiz-adv-x="412" 
d="M398 161q0 -75 -36 -123.5t-117 -48.5h-31q-154 0 -154 176v126h-55v84h55v26h-55v84h55v99q0 74 37.5 121.5t116.5 47.5h31q153 0 153 -164v-81h-132v76q0 43 -34 43q-33 0 -33 -43v-99h131v-84h-131v-26h131v-84h-131v-126q0 -45 34 -45q33 0 33 45v101h132v-105z" />
    <glyph glyph-name="uni20B4" unicode="&#x20b4;" horiz-adv-x="369" 
d="M364 481v-84h-359v84h162l5 5q41 46 41 96v17q0 40 -29 40t-29 -39v-93h-128v100q0 75 33.5 110.5t109.5 35.5h27q70 0 110.5 -38.5t40.5 -109.5v-20q0 -59 -31 -104h47zM355 145q0 -154 -152 -154h-26q-80 0 -121 49t-41 135v16q0 47 26 96h-36v84h359v-84h-174
q-21 -25 -27 -45.5t-6 -58.5v-14q0 -54 33 -54q34 0 34 45v101h131v-116z" />
    <glyph glyph-name="uni20B8" unicode="&#x20b8;" horiz-adv-x="337" 
d="M6 660v84h323v-84h-323zM329 503h-95v-503h-133v503h-95v131h323v-131z" />
    <glyph glyph-name="uni20BD" unicode="&#x20bd;" horiz-adv-x="398" 
d="M330 188h-137v-188h-133v188h-55v84h55v26h-55v84h55v362h190q79 0 107.5 -36t28.5 -111v-148q0 -151 -130 -151h-63v-26h137v-84zM193 629v-220h25q21 0 27.5 11t6.5 31v135q0 22 -6.5 32.5t-27.5 10.5h-25z" />
    <glyph glyph-name="uni2116" unicode="&#x2116;" horiz-adv-x="643" 
d="M495 391q-50 0 -81 28t-31 79v144q0 50 30.5 78.5t81.5 28.5h19q51 0 80.5 -28.5t29.5 -78.5v-144q0 -49 -29 -78t-81 -29h-19zM502 477q21 0 21 23v141q0 23 -21 23q-18 0 -18 -23v-141q0 -23 18 -23zM388 272v93h230v-93h-230zM19 744h125l91 -380v380h118v-744h-113
l-103 408v-408h-118v744z" />
    <glyph glyph-name="trademark" unicode="&#x2122;" horiz-adv-x="345" 
d="M137 680h-31v-217h-72v217h-30v64h133v-64zM150 463v281h79l15 -122l13 122h78v-281h-57v159l-22 -159h-28l-21 159v-159h-57z" />
    <glyph glyph-name="onethird" unicode="&#x2153;" horiz-adv-x="415" 
d="M47 638h-43v66q29 0 40.5 10.5t14.5 29.5h72v-340h-84v234zM275 744h81l-267 -744h-81zM292 228h-77v36q0 84 85 84h12q88 0 88 -81v-23q0 -42 -30 -54q37 -14 37 -54v-55q0 -86 -92 -86h-14q-87 0 -87 79v51h80v-46q0 -17 13 -17q12 0 12 17v49q0 15 -13 15h-39v69h37
q14 0 14 16v38q0 18 -13 18t-13 -18v-38z" />
    <glyph glyph-name="twothirds" unicode="&#x2154;" horiz-adv-x="490" 
d="M211 524v-122h-206v44q0 29 15 55.5t65 82.5q22 25 26.5 36.5t4.5 30.5v16q0 17 -14 17q-13 0 -13 -17v-53h-78v57q0 34 19.5 56.5t63.5 22.5h15q94 0 94 -79v-18q0 -34 -14 -58.5t-49 -56.5q-41 -37 -48.5 -46.5t-7.5 -21.5h53v54h74zM367 228h-77v36q0 84 85 84h12
q88 0 88 -81v-23q0 -42 -30 -54q37 -14 37 -54v-55q0 -86 -92 -86h-14q-87 0 -87 79v51h80v-46q0 -17 13 -17q12 0 12 17v49q0 15 -13 15h-39v69h37q14 0 14 16v38q0 18 -13 18t-13 -18v-38zM350 744h81l-267 -744h-81z" />
    <glyph glyph-name="oneeighth" unicode="&#x215b;" horiz-adv-x="416" 
d="M405 243v26q0 79 -91 79h-9q-90 0 -90 -79v-26q0 -41 30 -61q-33 -16 -33 -64v-37q0 -86 93 -86h9q47 0 70.5 22.5t23.5 62.5v38q0 49 -35 64q32 20 32 61zM275 744h81l-267 -744h-81zM47 638h-43v66q29 0 40.5 10.5t14.5 29.5h72v-340h-84v234zM323 129v-48
q0 -17 -14 -17q-13 0 -13 17v48q0 19 13 19q14 0 14 -19zM322 265v-37q0 -17 -12 -17q-13 0 -13 17v37q0 18 12 18q13 0 13 -18z" />
    <glyph glyph-name="threeeighths" unicode="&#x215c;" horiz-adv-x="468" 
d="M457 243v26q0 79 -91 79h-9q-90 0 -90 -79v-26q0 -41 30 -61q-33 -16 -33 -64v-37q0 -86 93 -86h9q47 0 70.5 22.5t23.5 62.5v38q0 49 -35 64q32 20 32 61zM327 744h81l-267 -744h-81zM87 630h-77v36q0 84 85 84h12q88 0 88 -81v-23q0 -42 -30 -54q37 -14 37 -54v-55
q0 -86 -92 -86h-14q-87 0 -87 79v51h80v-46q0 -17 13 -17q12 0 12 17v49q0 15 -13 15h-39v69h37q14 0 14 16v38q0 18 -13 18t-13 -18v-38zM375 129v-48q0 -17 -14 -17q-13 0 -13 17v48q0 19 13 19q14 0 14 -19zM374 265v-37q0 -17 -12 -17q-13 0 -13 17v37q0 18 12 18
q13 0 13 -18z" />
    <glyph glyph-name="fiveeighths" unicode="&#x215d;" horiz-adv-x="468" 
d="M457 243v26q0 79 -91 79h-9q-90 0 -90 -79v-26q0 -41 30 -61q-33 -16 -33 -64v-37q0 -86 93 -86h9q47 0 70.5 22.5t23.5 62.5v38q0 49 -35 64q32 20 32 61zM327 744h81l-267 -744h-81zM203 491q0 -94 -90 -94h-15q-89 0 -89 82v40h83v-41q0 -15 12 -15t12 15v83
q0 18 -12 18q-13 0 -13 -18v-16h-78v199h180v-71h-103v-61q28 37 58 37q55 0 55 -65v-93zM375 129v-48q0 -17 -14 -17q-13 0 -13 17v48q0 19 13 19q14 0 14 -19zM374 265v-37q0 -17 -12 -17q-13 0 -13 17v37q0 18 12 18q13 0 13 -18z" />
    <glyph glyph-name="seveneighths" unicode="&#x215e;" horiz-adv-x="433" 
d="M422 243v26q0 79 -91 79h-9q-90 0 -90 -79v-26q0 -41 30 -61q-33 -16 -33 -64v-37q0 -86 93 -86h9q47 0 70.5 22.5t23.5 62.5v38q0 49 -35 64q32 20 32 61zM292 744h81l-267 -744h-81zM161 561q-13 -64 -13 -158h-98q0 71 28 150q40 108 40 129h-35v-59h-74v121h180v-36
q0 -9 -2.5 -23.5t-5.5 -29t-9 -43t-11 -51.5zM340 129v-48q0 -17 -14 -17q-13 0 -13 17v48q0 19 13 19q14 0 14 -19zM339 265v-37q0 -17 -12 -17q-13 0 -13 17v37q0 18 12 18q13 0 13 -18z" />
    <glyph glyph-name="minus" unicode="&#x2212;" horiz-adv-x="316" 
d="M13 346h290v-91h-290v91z" />
    <glyph glyph-name="uni24C5" unicode="&#x24c5;" horiz-adv-x="515" 
d="M264 -11h-10q-237 0 -237 255v258q0 123 62.5 188t175.5 65h12q113 0 172 -63.5t59 -189.5v-258q0 -129 -63.5 -192t-170.5 -63zM95 259q0 -203 161 -203h8q158 0 158 203v230q0 199 -156 199h-10q-86 0 -123.5 -50t-37.5 -149v-230zM294 312h-44v-192h-103v506h147
q49 0 71.5 -22t22.5 -78v-112q0 -102 -94 -102zM250 542v-146h15q21 0 21 30v88q0 16 -4.5 22t-16.5 6h-15z" />
    <glyph glyph-name="zero.den" unicode="&#xe402;" horiz-adv-x="227" 
d="M108 348h12q97 0 97 -98v-163q0 -42 -26.5 -67t-70.5 -25h-14q-44 0 -69.5 24.5t-25.5 67.5v163q0 46 24.5 72t72.5 26zM129 252q0 21 -15 21t-15 -21v-161q0 -19 14 -19q16 0 16 19v161z" />
    <glyph glyph-name="one.den" unicode="&#xe403;" horiz-adv-x="147" 
d="M47 234h-43v66q29 0 40.5 10.5t14.5 29.5h72v-340h-84v234z" />
    <glyph glyph-name="two.den" unicode="&#xe404;" horiz-adv-x="220" 
d="M211 0h-206v44q0 28 15 55t65 83q22 25 26.5 36.5t4.5 30.5v16q0 17 -14 17q-13 0 -13 -17v-53h-78v57q0 34 19.5 56.5t63.5 22.5h15q94 0 94 -79v-18q0 -34 -14 -58.5t-49 -56.5q-41 -37 -48.5 -46.5t-7.5 -21.5h53v54h74v-122z" />
    <glyph glyph-name="three.den" unicode="&#xe405;" horiz-adv-x="210" 
d="M87 228h-77v36q0 84 85 84h12q88 0 88 -81v-23q0 -42 -30 -54q37 -14 37 -54v-55q0 -86 -92 -86h-14q-87 0 -87 79v51h80v-46q0 -17 13 -17q12 0 12 17v49q0 15 -13 15h-39v69h37q14 0 14 16v38q0 18 -13 18t-13 -18v-38z" />
    <glyph glyph-name="four.den" unicode="&#xe406;" horiz-adv-x="208" 
d="M5 59v58q55 134 86 225h83v-211h28v-72h-28v-59h-80v59h-89zM63 131h31v87q-14 -47 -31 -87z" />
    <glyph glyph-name="five.den" unicode="&#xe407;" horiz-adv-x="211" 
d="M203 89q0 -94 -90 -94h-15q-89 0 -89 82v40h83v-41q0 -15 12 -15t12 15v83q0 18 -12 18q-13 0 -13 -18v-16h-78v199h180v-71h-103v-61q28 37 58 37q55 0 55 -65v-93z" />
    <glyph glyph-name="six.den" unicode="&#xe408;" horiz-adv-x="222" 
d="M213 85q0 -40 -26 -65t-74 -25q-52 0 -77 25t-25 66v174q0 38 22.5 63t76.5 25t75 -22.5t21 -62.5v-26h-84v26q0 16 -13 16q-11 0 -11 -16v-74q25 32 61 32q27 0 40.5 -17.5t13.5 -43.5v-75zM98 84q0 -20 13 -20q15 0 15 20v54q0 21 -15 21q-13 0 -13 -21v-54z" />
    <glyph glyph-name="seven.den" unicode="&#xe409;" horiz-adv-x="194" 
d="M161 158q-13 -64 -13 -158h-98q0 71 28 150q40 108 40 129h-35v-59h-74v121h180v-36q0 -9 -2.5 -23.5t-5.5 -29t-9 -43t-11 -51.5z" />
    <glyph glyph-name="eight.den" unicode="&#xe40a;" horiz-adv-x="213" 
d="M202 269v-26q0 -41 -32 -61q35 -15 35 -64v-38q0 -40 -23.5 -62.5t-70.5 -22.5h-9q-93 0 -93 86v37q0 48 33 64q-30 20 -30 61v26q0 79 90 79h9q91 0 91 -79zM120 81v48q0 19 -14 19q-13 0 -13 -19v-48q0 -17 13 -17q14 0 14 17zM119 228v37q0 18 -13 18q-12 0 -12 -18
v-37q0 -17 13 -17q12 0 12 17z" />
    <glyph glyph-name="nine.den" unicode="&#xe40b;" horiz-adv-x="222" 
d="M211 83q0 -37 -22.5 -62.5t-77.5 -25.5t-75 22t-20 61v28h84v-26q0 -16 13 -16q11 0 11 16v74q-23 -32 -59 -32q-26 0 -41 18.5t-15 43.5v74q0 41 24.5 65.5t75.5 24.5q102 0 102 -90v-175zM110 279q-15 0 -15 -20v-55q0 -20 15 -20q14 0 14 20v55q0 20 -14 20z" />
    <glyph glyph-name="zero.num" unicode="&#xe416;" horiz-adv-x="227" 
d="M108 750h12q97 0 97 -98v-163q0 -42 -26.5 -67t-70.5 -25h-14q-44 0 -69.5 24.5t-25.5 67.5v163q0 46 24.5 72t72.5 26zM129 654q0 21 -15 21t-15 -21v-161q0 -19 14 -19q16 0 16 19v161z" />
    <glyph glyph-name="one.num" unicode="&#xe417;" horiz-adv-x="147" 
d="M47 638h-43v66q29 0 40.5 10.5t14.5 29.5h72v-340h-84v234z" />
    <glyph glyph-name="two.num" unicode="&#xe418;" horiz-adv-x="220" 
d="M211 524v-122h-206v44q0 29 15 55.5t65 82.5q22 25 26.5 36.5t4.5 30.5v16q0 17 -14 17q-13 0 -13 -17v-53h-78v57q0 34 19.5 56.5t63.5 22.5h15q94 0 94 -79v-18q0 -34 -14 -58.5t-49 -56.5q-41 -37 -48.5 -46.5t-7.5 -21.5h53v54h74z" />
    <glyph glyph-name="three.num" unicode="&#xe419;" horiz-adv-x="210" 
d="M87 630h-77v36q0 84 85 84h12q88 0 88 -81v-23q0 -42 -30 -54q37 -14 37 -54v-55q0 -86 -92 -86h-14q-87 0 -87 79v51h80v-46q0 -17 13 -17q12 0 12 17v49q0 15 -13 15h-39v69h37q14 0 14 16v38q0 18 -13 18t-13 -18v-38z" />
    <glyph glyph-name="four.num" unicode="&#xe41a;" horiz-adv-x="208" 
d="M5 462v58q55 134 86 225h83v-211h28v-72h-28v-59h-80v59h-89zM63 534h31v87q-14 -47 -31 -87z" />
    <glyph glyph-name="five.num" unicode="&#xe41b;" horiz-adv-x="211" 
d="M203 491q0 -94 -90 -94h-15q-89 0 -89 82v40h83v-41q0 -15 12 -15t12 15v83q0 18 -12 18q-13 0 -13 -18v-16h-78v199h180v-71h-103v-61q28 37 58 37q55 0 55 -65v-93z" />
    <glyph glyph-name="six.num" unicode="&#xe41c;" horiz-adv-x="222" 
d="M213 487q0 -40 -26 -65t-74 -25q-52 0 -77 25t-25 66v174q0 38 22.5 63t76.5 25t75 -22.5t21 -62.5v-26h-84v26q0 16 -13 16q-11 0 -11 -16v-74q25 32 61 32q27 0 40.5 -17.5t13.5 -43.5v-75zM98 486q0 -20 13 -20q15 0 15 20v54q0 21 -15 21q-13 0 -13 -21v-54z" />
    <glyph glyph-name="seven.num" unicode="&#xe41d;" horiz-adv-x="194" 
d="M161 561q-13 -64 -13 -158h-98q0 71 28 150q40 108 40 129h-35v-59h-74v121h180v-36q0 -9 -2.5 -23.5t-5.5 -29t-9 -43t-11 -51.5z" />
    <glyph glyph-name="eight.num" unicode="&#xe41e;" horiz-adv-x="213" 
d="M202 671v-26q0 -41 -32 -61q35 -15 35 -64v-38q0 -40 -23.5 -62.5t-70.5 -22.5h-9q-93 0 -93 86v37q0 48 33 64q-30 20 -30 61v26q0 79 90 79h9q91 0 91 -79zM119 630v37q0 18 -13 18q-12 0 -12 -18v-37q0 -17 13 -17q12 0 12 17zM120 483v48q0 19 -14 19q-13 0 -13 -19
v-48q0 -17 13 -17q14 0 14 17z" />
    <glyph glyph-name="nine.num" unicode="&#xe41f;" horiz-adv-x="222" 
d="M211 485q0 -37 -22.5 -62.5t-77.5 -25.5t-75 22t-20 61v28h84v-26q0 -16 13 -16q11 0 11 16v74q-23 -32 -59 -32q-26 0 -41 18.5t-15 43.5v74q0 41 24.5 65.5t75.5 24.5q102 0 102 -90v-175zM110 681q-15 0 -15 -20v-55q0 -20 15 -20q14 0 14 20v55q0 20 -14 20z" />
    <glyph glyph-name="f_f_i" unicode="&#xfb03;" horiz-adv-x="631" 
d="M275 0v419h-84v-419h-127v419h-60v119h60v132q0 30 21 52t61 22h112v-113h-47q-12 0 -16 -5t-4 -18v-70h84v132q0 30 21 52t61 22h107v-113h-42q-12 0 -16 -5t-4 -18v-70h62v-119h-62v-419h-127zM615 690v-126h-128v126h128zM615 538v-538h-128v538h128z" />
    <glyph glyph-name="f_f_l" unicode="&#xfb04;" horiz-adv-x="631" 
d="M275 0v419h-84v-419h-127v419h-60v119h60v132q0 30 21 52t61 22h112v-113h-47q-12 0 -16 -5t-4 -18v-70h84v132q0 30 21 52t61 22h107v-113h-42q-12 0 -16 -5t-4 -18v-70h62v-119h-62v-419h-127zM615 744v-744h-128v744h128z" />
    <glyph glyph-name="idotaccent" horiz-adv-x="160" 
d="M144 690v-126h-128v126h128zM144 538v-538h-128v538h128z" />
    <glyph glyph-name="space_uni0326" horiz-adv-x="338" 
d="M198 -203h-51q11 31 14 67h-43v110h102v-70q0 -52 -22 -107z" />
    <glyph glyph-name="E.alt" horiz-adv-x="306" 
d="M19 744h275v-131h-142v-162h135v-134h-135v-183h146v-134h-279v744z" />
    <glyph glyph-name="F.alt" horiz-adv-x="302" 
d="M19 744h274v-131h-141v-162h134v-134h-134v-317h-133v744z" />
    <glyph glyph-name="J.alt" horiz-adv-x="236" 
d="M7 0v134h54q19 0 19 25v585h138v-657q0 -43 -21 -65t-57 -22h-133z" />
    <glyph glyph-name="IJ.alt" horiz-adv-x="407" 
d="M152 744v-744h-133v744h133zM178 0v134h54q19 0 19 25v585h138v-657q0 -43 -21 -65t-57 -22h-133z" />
    <glyph glyph-name="a.alt" horiz-adv-x="320" 
d="M180 61q-36 -66 -91 -66h-4q-35 0 -54 27.5t-19 65.5v117q0 75 56 110q13 8 55 28.5t49 24.5q8 5 8 20v29q0 29 -22 29h-4q-22 0 -22 -29v-53h-114v74q0 44 28 75t98 31h23q75 0 105.5 -30.5t30.5 -87.5v-303q0 -85 11 -118v-5h-122q-12 14 -12 61zM180 134v131
q-24 -13 -33 -25q-12 -15 -12 -41v-65q0 -32 21 -32q24 0 24 32z" />
    <glyph glyph-name="a.alt2" 
d="M193 538h126v-538h-126v60q-12 -26 -35 -48.5t-52 -22.5h-3q-38 0 -63 33.5t-25 81.5v333q0 41 21 74t56 33h7q54 0 94 -63v57zM143 138q0 -37 24 -37q26 0 26 42v253q0 41 -26 41q-24 0 -24 -37v-262z" />
    <glyph glyph-name="r.alt" horiz-adv-x="271" 
d="M143 538v-80q31 84 84 84h7q16 0 28 -4v-146q-25 9 -55 9h-4q-32 0 -45.5 -10.5t-13.5 -32.5v-358h-128v538h127z" />
    <glyph glyph-name="Eacute.alt" horiz-adv-x="311" 
d="M19 744h278v-131h-145v-162h114v-134h-114v-183h152v-134h-285v744zM104 770l43 115h106l-45 -115h-104z" />
    <glyph glyph-name="Ebreve.alt" horiz-adv-x="306" 
d="M19 744h275v-131h-142v-162h135v-134h-135v-183h146v-134h-279v744zM267 870q0 -47 -31 -75t-75 -28h-4q-47 0 -77 28t-30 75v5h85v-3q0 -26 23 -26h2q23 0 23 26v3h84v-5z" />
    <glyph glyph-name="Ecaron.alt" horiz-adv-x="306" 
d="M19 744h275v-131h-142v-162h135v-134h-135v-183h146v-134h-279v744zM109 770l-66 115h90l27 -48l27 48h89l-66 -115h-101z" />
    <glyph glyph-name="Ecircumflex.alt" horiz-adv-x="311" 
d="M19 744h278v-131h-145v-162h114v-134h-114v-183h152v-134h-285v744zM208 885l66 -115h-89l-28 47l-27 -47h-89l65 115h102z" />
    <glyph glyph-name="Edieresis.alt" horiz-adv-x="311" 
d="M19 744h278v-131h-145v-162h114v-134h-114v-183h152v-134h-285v744zM273 876v-106h-100v106h100zM148 876v-106h-100v106h100z" />
    <glyph glyph-name="Edotaccent.alt" horiz-adv-x="306" 
d="M19 744h275v-131h-142v-162h135v-134h-135v-183h146v-134h-279v744zM224 896v-126h-128v126h128z" />
    <glyph glyph-name="Egrave.alt" horiz-adv-x="311" 
d="M19 744h278v-131h-145v-162h114v-134h-114v-183h152v-134h-285v744zM177 885l43 -115h-104l-44 115h105z" />
    <glyph glyph-name="Emacron.alt" horiz-adv-x="306" 
d="M19 744h275v-131h-142v-162h135v-134h-135v-183h146v-134h-279v744zM63 777v88h193v-88h-193z" />
    <glyph glyph-name="Eogonek.alt" horiz-adv-x="306" 
d="M19 744h275v-131h-142v-162h135v-134h-135v-183h146v-134h-42q-44 -55 -44 -84v-4q0 -20 26 -20h18v-80h-58q-34 0 -56 17t-22 47v15q0 45 74 109h-175v744z" />
    <glyph glyph-name="Jcircumflex.alt" horiz-adv-x="236" 
d="M7 0v134h54q19 0 19 25v585h138v-657q0 -43 -21 -65t-57 -22h-133zM198 885l66 -115h-89l-28 47l-27 -47h-89l65 115h102z" />
    <glyph glyph-name="aacute.alt" horiz-adv-x="320" 
d="M106 564l42 136h105l-44 -136h-103zM180 61q-36 -66 -91 -66h-4q-35 0 -54 27.5t-19 65.5v117q0 75 56 110q13 8 55 28.5t49 24.5q8 5 8 20v29q0 29 -22 29h-4q-22 0 -22 -29v-53h-114v74q0 44 28 75t98 31h23q75 0 105.5 -30.5t30.5 -87.5v-303q0 -85 11 -118v-5h-122
q-12 14 -12 61zM180 134v131q-24 -13 -33 -25q-12 -15 -12 -41v-65q0 -32 21 -32q24 0 24 32z" />
    <glyph glyph-name="aacute.alt2" 
d="M193 538h126v-538h-126v60q-12 -26 -35 -48.5t-52 -22.5h-3q-38 0 -63 33.5t-25 81.5v333q0 41 21 74t56 33h7q54 0 94 -63v57zM143 138q0 -37 24 -37q26 0 26 42v253q0 41 -26 41q-24 0 -24 -37v-262zM113 564l42 136h105l-44 -136h-103z" />
    <glyph glyph-name="abreve.alt" horiz-adv-x="320" 
d="M180 61q-36 -66 -91 -66h-4q-35 0 -54 27.5t-19 65.5v117q0 75 56 110q13 8 55 28.5t49 24.5q8 5 8 20v29q0 29 -22 29h-4q-22 0 -22 -29v-53h-114v74q0 44 28 75t98 31h23q75 0 105.5 -30.5t30.5 -87.5v-303q0 -85 11 -118v-5h-122q-12 14 -12 61zM180 134v131
q-24 -13 -33 -25q-12 -15 -12 -41v-65q0 -32 21 -32q24 0 24 32zM258 672q0 -51 -30.5 -80t-75.5 -29h-3q-48 0 -78 28.5t-30 80.5v8h85v-6q0 -33 24 -33h1q24 0 24 33v6h83v-8z" />
    <glyph glyph-name="abreve.alt2" 
d="M193 538h126v-538h-126v60q-12 -26 -35 -48.5t-52 -22.5h-3q-38 0 -63 33.5t-25 81.5v333q0 41 21 74t56 33h7q54 0 94 -63v57zM143 138q0 -37 24 -37q26 0 26 42v253q0 41 -26 41q-24 0 -24 -37v-262zM273 672q0 -51 -30.5 -80t-75.5 -29h-3q-48 0 -78 28.5t-30 80.5v8
h85v-6q0 -33 24 -33h1q24 0 24 33v6h83v-8z" />
    <glyph glyph-name="acircumflex.alt" horiz-adv-x="320" 
d="M211 700l62 -136h-91l-24 62l-25 -62h-89l61 136h106zM180 61q-36 -66 -91 -66h-4q-35 0 -54 27.5t-19 65.5v117q0 75 56 110q13 8 55 28.5t49 24.5q8 5 8 20v29q0 29 -22 29h-4q-22 0 -22 -29v-53h-114v74q0 44 28 75t98 31h23q75 0 105.5 -30.5t30.5 -87.5v-303
q0 -85 11 -118v-5h-122q-12 14 -12 61zM180 134v131q-24 -13 -33 -25q-12 -15 -12 -41v-65q0 -32 21 -32q24 0 24 32z" />
    <glyph glyph-name="acircumflex.alt2" 
d="M193 538h126v-538h-126v60q-12 -26 -35 -48.5t-52 -22.5h-3q-38 0 -63 33.5t-25 81.5v333q0 41 21 74t56 33h7q54 0 94 -63v57zM143 138q0 -37 24 -37q26 0 26 42v253q0 41 -26 41q-24 0 -24 -37v-262zM217 700l62 -136h-91l-24 62l-25 -62h-89l61 136h106z" />
    <glyph glyph-name="adieresis.alt" horiz-adv-x="320" 
d="M180 61q-36 -66 -91 -66h-4q-35 0 -54 27.5t-19 65.5v117q0 75 56 110q13 8 55 28.5t49 24.5q8 5 8 20v29q0 29 -22 29h-4q-22 0 -22 -29v-53h-114v74q0 44 28 75t98 31h23q75 0 105.5 -30.5t30.5 -87.5v-303q0 -85 11 -118v-5h-122q-12 14 -12 61zM180 134v131
q-24 -13 -33 -25q-12 -15 -12 -41v-65q0 -32 21 -32q24 0 24 32zM144 670v-106h-100v106h100zM268 670v-106h-100v106h100z" />
    <glyph glyph-name="adieresis.alt2" 
d="M193 538h126v-538h-126v60q-12 -26 -35 -48.5t-52 -22.5h-3q-38 0 -63 33.5t-25 81.5v333q0 41 21 74t56 33h7q54 0 94 -63v57zM143 138q0 -37 24 -37q26 0 26 42v253q0 41 -26 41q-24 0 -24 -37v-262zM154 670v-106h-100v106h100zM278 670v-106h-100v106h100z" />
    <glyph glyph-name="agrave.alt" horiz-adv-x="320" 
d="M168 700l41 -136h-102l-45 136h106zM180 61q-36 -66 -91 -66h-4q-35 0 -54 27.5t-19 65.5v117q0 75 56 110q13 8 55 28.5t49 24.5q8 5 8 20v29q0 29 -22 29h-4q-22 0 -22 -29v-53h-114v74q0 44 28 75t98 31h23q75 0 105.5 -30.5t30.5 -87.5v-303q0 -85 11 -118v-5h-122
q-12 14 -12 61zM180 134v131q-24 -13 -33 -25q-12 -15 -12 -41v-65q0 -32 21 -32q24 0 24 32z" />
    <glyph glyph-name="agrave.alt2" 
d="M193 538h126v-538h-126v60q-12 -26 -35 -48.5t-52 -22.5h-3q-38 0 -63 33.5t-25 81.5v333q0 41 21 74t56 33h7q54 0 94 -63v57zM143 138q0 -37 24 -37q26 0 26 42v253q0 41 -26 41q-24 0 -24 -37v-262zM174 700l41 -136h-102l-45 136h106z" />
    <glyph glyph-name="amacron.alt" horiz-adv-x="320" 
d="M180 61q-36 -66 -91 -66h-4q-35 0 -54 27.5t-19 65.5v117q0 75 56 110q13 8 55 28.5t49 24.5q8 5 8 20v29q0 29 -22 29h-4q-22 0 -22 -29v-53h-114v74q0 44 28 75t98 31h23q75 0 105.5 -30.5t30.5 -87.5v-303q0 -85 11 -118v-5h-122q-12 14 -12 61zM180 134v131
q-24 -13 -33 -25q-12 -15 -12 -41v-65q0 -32 21 -32q24 0 24 32zM62 576v87h191v-87h-191z" />
    <glyph glyph-name="amacron.alt2" 
d="M193 538h126v-538h-126v60q-12 -26 -35 -48.5t-52 -22.5h-3q-38 0 -63 33.5t-25 81.5v333q0 41 21 74t56 33h7q54 0 94 -63v57zM143 138q0 -37 24 -37q26 0 26 42v253q0 41 -26 41q-24 0 -24 -37v-262zM69 576v87h191v-87h-191z" />
    <glyph glyph-name="aogonek.alt" horiz-adv-x="320" 
d="M178 -124v15q0 45 74 109h-60q-12 14 -12 61q-36 -66 -91 -66h-4q-35 0 -54 27.5t-19 65.5v117q0 75 56 110q13 8 55 28.5t49 24.5q8 5 8 20v29q0 29 -22 29h-4q-22 0 -22 -29v-53h-114v74q0 44 28 75t98 31h23q75 0 105.5 -30.5t30.5 -87.5v-303q0 -85 11 -118v-5
q-44 -55 -44 -84v-4q0 -20 26 -20h18v-80h-58q-34 0 -56 17t-22 47zM180 134v131q-24 -13 -33 -25q-12 -15 -12 -41v-65q0 -32 21 -32q24 0 24 32z" />
    <glyph glyph-name="aogonek.alt2" 
d="M183 -124v15q0 45 74 109h-64v60q-12 -26 -35 -48.5t-52 -22.5h-3q-38 0 -63 33.5t-25 81.5v333q0 41 21 74t56 33h7q54 0 94 -63v57h126v-538q-44 -55 -44 -84v-4q0 -20 26 -20h18v-80h-58q-34 0 -56 17t-22 47zM143 138q0 -37 24 -37q26 0 26 42v253q0 41 -26 41
q-24 0 -24 -37v-262z" />
    <glyph glyph-name="aring.alt" horiz-adv-x="320" 
d="M180 61q-36 -66 -91 -66h-4q-35 0 -54 27.5t-19 65.5v117q0 75 56 110q13 8 55 28.5t49 24.5q8 5 8 20v29q0 29 -22 29h-4q-22 0 -22 -29v-53h-114v74q0 44 28 75t98 31h23q75 0 105.5 -30.5t30.5 -87.5v-303q0 -85 11 -118v-5h-122q-12 14 -12 61zM180 134v131
q-24 -13 -33 -25q-12 -15 -12 -41v-65q0 -32 21 -32q24 0 24 32zM232 641q0 -35 -22.5 -57t-57.5 -22t-57.5 22t-22.5 57t22.5 57t57.5 22t57.5 -22t22.5 -57zM120 641q0 -14 8.5 -23.5t23.5 -9.5t23.5 9.5t8.5 23.5t-8.5 23.5t-23.5 9.5t-23.5 -9.5t-8.5 -23.5z" />
    <glyph glyph-name="aring.alt2" 
d="M193 538h126v-538h-126v60q-12 -26 -35 -48.5t-52 -22.5h-3q-38 0 -63 33.5t-25 81.5v333q0 41 21 74t56 33h7q54 0 94 -63v57zM143 138q0 -37 24 -37q26 0 26 42v253q0 41 -26 41q-24 0 -24 -37v-262zM241 641q0 -35 -22.5 -57t-57.5 -22t-57.5 22t-22.5 57t22.5 57
t57.5 22t57.5 -22t22.5 -57zM129 641q0 -14 8.5 -23.5t23.5 -9.5t23.5 9.5t8.5 23.5t-8.5 23.5t-23.5 9.5t-23.5 -9.5t-8.5 -23.5z" />
    <glyph glyph-name="aringacute.alt" horiz-adv-x="320" 
d="M235 641q0 -35 -22.5 -57t-57.5 -22t-57.5 22t-22.5 57t22.5 57t57.5 22t57.5 -22t22.5 -57zM123 641q0 -14 8.5 -23.5t23.5 -9.5t23.5 9.5t8.5 23.5t-8.5 23.5t-23.5 9.5t-23.5 -9.5t-8.5 -23.5zM106 736l42 136h105l-44 -136h-103zM180 61q-36 -66 -91 -66h-4
q-35 0 -54 27.5t-19 65.5v117q0 75 56 110q13 8 55 28.5t49 24.5q8 5 8 20v29q0 29 -22 29h-4q-22 0 -22 -29v-53h-114v74q0 44 28 75t98 31h23q75 0 105.5 -30.5t30.5 -87.5v-303q0 -85 11 -118v-5h-122q-12 14 -12 61zM180 134v131q-24 -13 -33 -25q-12 -15 -12 -41v-65
q0 -32 21 -32q24 0 24 32z" />
    <glyph glyph-name="aringacute.alt2" 
d="M114 736l42 136h105l-44 -136h-103zM243 641q0 -35 -22.5 -57t-57.5 -22t-57.5 22t-22.5 57t22.5 57t57.5 22t57.5 -22t22.5 -57zM131 641q0 -14 8.5 -23.5t23.5 -9.5t23.5 9.5t8.5 23.5t-8.5 23.5t-23.5 9.5t-23.5 -9.5t-8.5 -23.5zM193 538h126v-538h-126v60
q-12 -26 -35 -48.5t-52 -22.5h-3q-38 0 -63 33.5t-25 81.5v333q0 41 21 74t56 33h7q54 0 94 -63v57zM143 138q0 -37 24 -37q26 0 26 42v253q0 41 -26 41q-24 0 -24 -37v-262z" />
    <glyph glyph-name="atilde.alt" horiz-adv-x="320" 
d="M180 61q-36 -66 -91 -66h-4q-35 0 -54 27.5t-19 65.5v117q0 75 56 110q13 8 55 28.5t49 24.5q8 5 8 20v29q0 29 -22 29h-4q-22 0 -22 -29v-53h-114v74q0 44 28 75t98 31h23q75 0 105.5 -30.5t30.5 -87.5v-303q0 -85 11 -118v-5h-122q-12 14 -12 61zM180 134v131
q-24 -13 -33 -25q-12 -15 -12 -41v-65q0 -32 21 -32q24 0 24 32zM120 579v-16h-72v47q0 31 14.5 49.5t40.5 18.5q20 0 59 -18q19 -8 23 -8q6 0 6 10v16h73v-56q0 -25 -15 -42t-39 -17q-22 0 -60 19q-19 9 -23 9q-7 0 -7 -12z" />
    <glyph glyph-name="atilde.alt2" 
d="M193 538h126v-538h-126v60q-12 -26 -35 -48.5t-52 -22.5h-3q-38 0 -63 33.5t-25 81.5v333q0 41 21 74t56 33h7q54 0 94 -63v57zM143 138q0 -37 24 -37q26 0 26 42v253q0 41 -26 41q-24 0 -24 -37v-262zM129 579v-16h-72v47q0 31 14.5 49.5t40.5 18.5q20 0 59 -18
q19 -8 23 -8q6 0 6 10v16h73v-56q0 -25 -15 -42t-39 -17q-22 0 -60 19q-19 9 -23 9q-7 0 -7 -12z" />
    <glyph glyph-name="racute.alt" horiz-adv-x="271" 
d="M143 538v-80q31 84 84 84h7q16 0 28 -4v-146q-25 9 -55 9h-4q-32 0 -45.5 -10.5t-13.5 -32.5v-358h-128v538h127zM90 564l42 136h105l-44 -136h-103z" />
    <glyph glyph-name="rcaron.alt" horiz-adv-x="271" 
d="M143 538v-80q31 84 84 84h7q16 0 28 -4v-146q-25 9 -55 9h-4q-32 0 -45.5 -10.5t-13.5 -32.5v-358h-128v538h127zM90 564l-62 136h91l24 -62l25 62h89l-62 -136h-105z" />
    <glyph glyph-name="rcommaaccent.alt" horiz-adv-x="271" 
d="M143 538v-80q31 84 84 84h7q16 0 28 -4v-146q-25 9 -55 9h-4q-32 0 -45.5 -10.5t-13.5 -32.5v-358h-128v538h127zM109 -203h-51q11 31 14 67h-43v110h102v-70q0 -52 -22 -107z" />
    <glyph glyph-name="space_uni0326.alt" horiz-adv-x="338" 
d="M139 742h53q-12 -41 -14 -69h42v-109h-103v69q0 62 22 109z" />
    <glyph glyph-name="ordfeminine.alt" horiz-adv-x="196" 
d="M108 488q-20 -40 -55 -40q-21 0 -33 16t-12 39v53q0 40 34 62q8 5 32.5 17.5t28.5 14.5q5 3 5 12v9q0 16 -12 16h-1q-12 0 -12 -17v-20h-72v34q0 26 17 45t59 19h14q46 0 64 -18.5t18 -52.5v-159q0 -45 6 -63v-4h-75q-6 9 -6 37zM108 589q-10 -4 -17 -11t-7 -23v-28
q0 -17 11 -17q13 0 13 18v61z" />
    <glyph glyph-name="ordfeminine.alt2" horiz-adv-x="212" 
d="M119 744h79v-293h-79v35q-18 -41 -52 -41h-2q-23 0 -38 18t-15 48v174q0 26 13 44t35 18h4q35 0 55 -38v35zM91 529q0 -20 13 -20q15 0 15 23v131q0 22 -15 22q-13 0 -13 -20v-136z" />
    <glyph glyph-name="caron.alt" horiz-adv-x="338" 
d="M122 594l6 150h87l-12 -150h-81z" />
    <glyph glyph-name="plus.uc" horiz-adv-x="340" 
d="M327 296h-108v-121h-98v121h-108v91h108v122h98v-122h108v-91z" />
    <glyph glyph-name="minus.uc" horiz-adv-x="316" 
d="M13 387h290v-91h-290v91z" />
    <glyph glyph-name="multiply.uc" horiz-adv-x="311" 
d="M304 255l-63 -65l-86 87l-84 -87l-63 60l86 89l-87 88l65 66l85 -87l84 87l63 -62l-85 -88z" />
    <glyph glyph-name="divide.uc" horiz-adv-x="339" 
d="M221 519v-103h-103v103h103zM13 387h313v-91h-313v91zM221 264v-103h-103v103h103z" />
    <glyph glyph-name="equal.uc" horiz-adv-x="331" 
d="M15 439h301v-84h-301v84zM15 328h301v-83h-301v83z" />
    <glyph glyph-name="less.uc" horiz-adv-x="286" 
d="M273 193l-263 105v87l263 105v-94l-155 -54l155 -54v-95z" />
    <glyph glyph-name="greater.uc" horiz-adv-x="285" 
d="M13 490l262 -105v-87l-262 -105v95l155 54l-155 54v94z" />
    <glyph glyph-name="questiondown.uc" horiz-adv-x="329" 
d="M130 577h104v-128q0 -36 -6.5 -57t-27.5 -55l-35 -56q-21 -33 -21 -85v-49q0 -20 5.5 -27.5t19.5 -7.5q15 0 20 8t5 27v114h124v-118q0 -72 -28.5 -112t-107.5 -40h-27q-77 0 -110.5 37.5t-33.5 107.5v52q0 47 9 78.5t36 66.5l49 67q16 22 20.5 36.5t4.5 48.5v92z
M122 600v144h119v-144h-119z" />
    <glyph glyph-name="exclamdown.uc" horiz-adv-x="160" 
d="M152 0h-145l47 577h51zM139 744v-144h-119v144h119z" />
    <glyph glyph-name="hyphen.uc" horiz-adv-x="179" 
d="M13 400h153v-121h-153v121z" />
    <glyph glyph-name="endash.uc" horiz-adv-x="334" 
d="M13 386h308v-90h-308v90z" />
    <glyph glyph-name="emdash.uc" horiz-adv-x="506" 
d="M13 386h480v-90h-480v90z" />
    <glyph glyph-name="guilsinglleft.uc" horiz-adv-x="159" 
d="M108 308l45 -167h-99l-44 137v60l44 135h100z" />
    <glyph glyph-name="guilsinglright.uc" horiz-adv-x="159" 
d="M50 307l-44 166h100l43 -136v-60l-43 -136h-101z" />
    <glyph glyph-name="guillemotleft.uc" horiz-adv-x="269" 
d="M100 308l50 -167h-92l-48 137v60l48 135h92zM220 308l43 -167h-93l-48 167l48 165h94z" />
    <glyph glyph-name="guillemotright.uc" horiz-adv-x="268" 
d="M118 141l50 166l-50 166h93l47 -137v-59l-48 -136h-92zM5 141l44 166l-44 166h93l48 -166l-48 -166h-93z" />
    <glyph glyph-name="parenleft.uc" horiz-adv-x="209" 
d="M143 376q0 -223 71 -457h-77q-112 229 -112 454q0 228 109 443h77q-28 -80 -48 -198t-20 -242z" />
    <glyph glyph-name="parenright.uc" horiz-adv-x="209" 
d="M184 373q0 -225 -112 -454h-77q71 234 71 457q0 124 -20 242t-48 198h77q109 -215 109 -443z" />
    <glyph glyph-name="bracketleft.uc" horiz-adv-x="196" 
d="M32 -73v890h160v-96h-54v-698h54v-96h-160z" />
    <glyph glyph-name="bracketright.uc" horiz-adv-x="196" 
d="M4 721v96h160v-890h-160v96h54v698h-54z" />
    <glyph glyph-name="braceleft.uc" horiz-adv-x="206" 
d="M35 324h-20v101h20q30 0 30 33q0 36 -15.5 130t-15.5 121q0 52 32.5 80t91.5 28h44v-92h-21q-39 0 -39 -38q0 -23 14 -111.5t14 -110.5q0 -36 -11 -58t-40 -33q30 -11 40.5 -31t10.5 -54q0 -23 -14 -111.5t-14 -112.5q0 -47 43 -47h17v-91h-44q-60 0 -92 29.5t-32 83.5
q0 23 15.5 117.5t15.5 128.5q0 38 -30 38z" />
    <glyph glyph-name="braceright.uc" horiz-adv-x="206" 
d="M170 425h21v-101h-21q-30 0 -30 -38q0 -34 16 -128.5t16 -117.5q0 -54 -32 -83.5t-92 -29.5h-44v91h16q44 0 44 47q0 24 -14.5 112.5t-14.5 111.5q0 33 11 53.5t40 31.5q-29 11 -40 33t-11 58q0 22 14.5 110.5t14.5 111.5q0 38 -39 38h-21v92h44q58 0 91 -28t33 -80
q0 -27 -16 -121.5t-16 -129.5q0 -33 30 -33z" />
    <glyph glyph-name="slash.uc" horiz-adv-x="215" 
d="M217 816l-126 -897h-94l125 897h95z" />
    <glyph glyph-name="backslash.uc" horiz-adv-x="216" 
d="M124 -81l-125 897h94l126 -897h-95z" />
    <glyph glyph-name="bar.uc" horiz-adv-x="167" 
d="M129 816v-897h-91v897h91z" />
    <glyph glyph-name="at.uc" horiz-adv-x="580" 
d="M457 76l50 -59q-15 -22 -36.5 -42.5t-69 -42t-102.5 -21.5h-10q-39 0 -71.5 6t-71.5 29.5t-65.5 63t-45 113t-18.5 173.5v111q0 179 71 276.5t206 97.5h18q254 0 254 -305v-104q0 -283 -136 -283h-7q-75 0 -102 67q-36 -67 -91 -67h-5q-31 0 -55.5 31t-22.5 84l13 293
q2 40 22.5 68t54.5 28h6q40 0 76 -54l2 50h123l-22 -402q0 -18 13 -18q46 0 46 200v105q0 127 -42.5 178.5t-126.5 51.5h-18q-90 0 -139 -73.5t-50 -225.5v-107q0 -81 13 -140t31 -90.5t45 -50t48.5 -23t46.5 -4.5h10q95 0 158 86zM303 217l13 249q1 19 -3 26t-14 7
t-13.5 -7.5t-4.5 -25.5l-13 -250q-1 -19 2.5 -26.5t13.5 -7.5q18 0 19 35z" />
    <glyph glyph-name="grave.uc" horiz-adv-x="338" 
d="M200 885l43 -115h-104l-44 115h105z" />
    <glyph glyph-name="dieresis.uc" horiz-adv-x="338" 
d="M282 876v-106h-100v106h100zM157 876v-106h-100v106h100z" />
    <glyph glyph-name="macron.uc" horiz-adv-x="338" 
d="M73 777v88h193v-88h-193z" />
    <glyph glyph-name="acute.uc" horiz-adv-x="338" 
d="M94 770l43 115h106l-45 -115h-104z" />
    <glyph glyph-name="circumflex.uc" horiz-adv-x="338" 
d="M219 885l66 -115h-89l-28 47l-27 -47h-89l65 115h102z" />
    <glyph glyph-name="caron.uc" horiz-adv-x="338" 
d="M118 770l-66 115h90l27 -48l27 48h89l-66 -115h-101z" />
    <glyph glyph-name="breve.uc" horiz-adv-x="338" 
d="M278 870q0 -47 -31 -75t-75 -28h-4q-47 0 -77 28t-30 75v5h85v-3q0 -26 23 -26h2q23 0 23 26v3h84v-5z" />
    <glyph glyph-name="dotaccent.uc" horiz-adv-x="338" 
d="M233 896v-126h-128v126h128z" />
    <glyph glyph-name="ring.uc" horiz-adv-x="338" 
d="M249 844q0 -35 -22.5 -57t-57.5 -22t-57.5 22t-22.5 57t22.5 57t57.5 22t57.5 -22t22.5 -57zM137 844q0 -14 8.5 -23.5t23.5 -9.5t23.5 9.5t8.5 23.5t-8.5 23.5t-23.5 9.5t-23.5 -9.5t-8.5 -23.5z" />
    <glyph glyph-name="tilde.uc" horiz-adv-x="338" 
d="M133 785v-16h-72v34q0 37 15 57t42 20q25 0 54 -13q21 -10 27 -10t6 10v16h72v-34q0 -38 -17 -57t-40 -19q-22 0 -54 14q-22 9 -25 9q-8 0 -8 -11z" />
    <glyph glyph-name="hungarumlaut.uc" horiz-adv-x="338" 
d="M56 770l24 115h90l-27 -115h-87zM167 770l26 115h89l-29 -115h-86z" />
    <glyph glyph-name="emdash.altuc" horiz-adv-x="986" 
d="M13 386h960v-90h-960v90z" />
    <glyph glyph-name="f.short" horiz-adv-x="260" 
d="M253 744v-113h-42q-12 0 -16 -5t-4 -18v-70h62v-119h-62v-419h-127v419h-60v119h60v132q0 30 21 52t61 22h107z" />
    <glyph glyph-name="f_f.short" horiz-adv-x="471" 
d="M275 0v419h-84v-419h-127v419h-60v119h60v132q0 30 21 52t61 22h112v-113h-47q-12 0 -16 -5t-4 -18v-70h84v132q0 30 21 52t61 22h107v-113h-42q-12 0 -16 -5t-4 -18v-70h62v-119h-62v-419h-127z" />
    <glyph glyph-name="j.short" horiz-adv-x="161" 
d="M145 690v-126h-128v126h128zM-28 -69h27q10 0 14 4.5t4 16.5v586h128v-654q0 -30 -20.5 -51t-53.5 -21h-99v119z" />
    <glyph glyph-name="uni0401.alt" horiz-adv-x="311" 
d="M19 744h278v-131h-145v-162h114v-134h-114v-183h152v-134h-285v744zM273 876v-106h-100v106h100zM148 876v-106h-100v106h100z" />
    <glyph glyph-name="uni0408.alt" horiz-adv-x="237" 
d="M7 0v134h54q19 0 19 25v585h138v-657q0 -43 -21 -65t-57 -22h-133z" />
    <glyph glyph-name="uni0414.bgr" horiz-adv-x="416" 
d="M128 0v-105h-123v239h39l78 610h169l82 -610h38v-239h-123v105h-160zM239 134l-36 367l-36 -367h72z" />
    <glyph glyph-name="uni0415.alt" horiz-adv-x="311" 
d="M19 744h275v-131h-142v-162h135v-134h-135v-183h146v-134h-279v744z" />
    <glyph glyph-name="uni0416.bgr" horiz-adv-x="561" 
d="M214 0v317l-83 -317h-140l113 406l-102 338h131l81 -287v287h133v-287l81 287h131l-102 -338l113 -406h-140l-83 317v-317h-133z" />
    <glyph glyph-name="uni041A.bgr" horiz-adv-x="372" 
d="M241 0l-89 315v-315h-133v744h133v-286l87 286h131l-105 -338l116 -406h-140z" />
    <glyph glyph-name="uni041B.bgr" horiz-adv-x="355" 
d="M-4 0l95 744h169l99 -744h-138l-49 499l-49 -499h-127z" />
    <glyph glyph-name="uni042F.alt" horiz-adv-x="370" 
d="M218 0v298h-23q-20 0 -27.5 -9.5t-7.5 -34.5v-197q0 -41 -12 -57h-133v5q11 20 11 55v228q0 69 52 88q-23 9 -41 34t-18 66v143q0 60 31 92.5t91 32.5h210v-744h-133zM218 421v208h-30q-20 0 -26.5 -8.5t-6.5 -33.5v-121q0 -26 8.5 -35.5t28.5 -9.5h26z" />
    <glyph glyph-name="uni0430.alt" horiz-adv-x="320" 
d="M180 61q-36 -66 -91 -66h-4q-35 0 -54 27.5t-19 65.5v117q0 75 56 110q13 8 55 28.5t49 24.5q8 5 8 20v29q0 29 -22 29h-4q-22 0 -22 -29v-53h-114v74q0 44 28 75t98 31h23q75 0 105.5 -30.5t30.5 -87.5v-303q0 -85 11 -118v-5h-122q-12 14 -12 61zM180 134v131
q-24 -13 -33 -25q-12 -15 -12 -41v-65q0 -32 21 -32q24 0 24 32z" />
    <glyph glyph-name="uni0430.alt2" 
d="M193 538h126v-538h-126v60q-12 -26 -35 -48.5t-52 -22.5h-3q-38 0 -63 33.5t-25 81.5v333q0 41 21 74t56 33h7q54 0 94 -63v57zM143 138q0 -37 24 -37q26 0 26 42v253q0 41 -26 41q-24 0 -24 -37v-262z" />
    <glyph glyph-name="uni0431.alt" horiz-adv-x="337" 
d="M324 140q0 -63 -36.5 -106t-106.5 -43h-20q-76 0 -112 41t-36 108v406q0 98 35 142.5t133 44.5h49q28 0 48 3t26 6l6 3v-109q-15 -12 -80 -12h-25q-39 0 -51.5 -15t-12.5 -63v-42q39 42 91 42h5q47 0 67 -33.5t20 -101.5v-271zM168 105q27 0 27 32v259q0 41 -27 41
q-26 0 -26 -41v-259q0 -32 26 -32z" />
    <glyph glyph-name="uni0431.locl" horiz-adv-x="338" 
d="M324 144q0 -67 -38 -110.5t-103 -43.5h-30q-70 0 -105 42t-35 110v254q0 77 55 112q-48 33 -48 94q0 57 36.5 90t106.5 33h27q13 0 17.5 3.5t4.5 15.5h113q0 -72 -20.5 -100t-82.5 -28h-37q-52 0 -52 -35q0 -29 35 -33l34 -4q122 -14 122 -145v-255zM142 144
q0 -38 26 -38q27 0 27 38v256q0 37 -27 37q-26 0 -26 -37v-256z" />
    <glyph glyph-name="uni0431.loclalt" horiz-adv-x="337" 
d="M324 144q0 -67 -38 -110.5t-103 -43.5h-30q-70 0 -105 42t-35 110v254q0 77 55 112q-48 32 -48 94q0 61 36.5 96t106.5 35h67q28 0 48 3t26 6l6 3v-109q-15 -12 -80 -12h-45q-52 0 -52 -40q0 -32 35 -36l34 -4q122 -14 122 -145v-255zM142 144q0 -38 26 -38q27 0 27 38
v256q0 37 -27 37q-26 0 -26 -37v-256z" />
    <glyph glyph-name="uni0432.bgr" horiz-adv-x="338" 
d="M13 135v484q0 58 38 95t103 37h28q68 0 103.5 -36.5t35.5 -100.5v-106q0 -65 -43 -86q47 -25 47 -101v-185q0 -63 -41 -104t-108 -41h-14q-65 0 -107 36.5t-42 107.5zM141 607v-148h35q20 0 20 34v113q0 38 -26 38h-4q-25 0 -25 -37zM141 143q0 -40 28 -40t28 40v187
q0 29 -23 29h-33v-216z" />
    <glyph glyph-name="uni0433.bgr" horiz-adv-x="298" 
d="M294 119q0 -128 -130 -128h-26q-66 0 -99.5 39t-33.5 99v18q0 44 14.5 76.5t54.5 72.5l71 70q23 23 23 52v11q0 28 -21 28t-21 -28v-56h-114v56q0 56 30 87.5t92 31.5h27q62 0 94 -32t32 -88v-17q0 -44 -13 -76.5t-47 -65.5l-68 -65q-28 -27 -28 -67v-12q0 -31 21 -31h1
q23 0 23 30v72h118v-77z" />
    <glyph glyph-name="uni0433.locl" horiz-adv-x="242" 
d="M16 0v538h221v-119h-93v-419h-128z" />
    <glyph glyph-name="uni0434.bgr" horiz-adv-x="338" 
d="M322 -74q0 -51 -32 -86t-113 -35h-18q-139 0 -139 98v72h123v-44q0 -23 22 -23h5q24 0 24 27v125q-38 -70 -87 -70q-40 0 -66 29t-26 76v321q0 57 22 91t63 34h1q53 0 95 -68v65h126v-612zM145 128q0 -32 24 -32q25 0 25 33v270q0 34 -25 34q-24 0 -24 -33v-272z" />
    <glyph glyph-name="uni0434.locl" horiz-adv-x="368" 
d="M117 -100h-117v219h16q11 9 16 47q5 42 5 372h291v-419h35v-219h-117v100h-129v-100zM147 162q-3 -25 -9 -43h62v300h-44q0 -180 -9 -257z" />
    <glyph glyph-name="uni0436.bgr" horiz-adv-x="514" 
d="M193 0v216l-72 -216h-127l96 282l-89 256h122l70 -209v415h128v-415l70 209h122l-89 -256l96 -282h-127l-72 216v-216h-128z" />
    <glyph glyph-name="uni0437.bgr" horiz-adv-x="318" 
d="M305 -58q0 -137 -141 -137h-21q-67 0 -99.5 37.5t-32.5 98.5v169h119v-161q0 -31 24 -31q25 0 25 27v196q0 29 -36 29h-56v112h56q20 0 28 7t8 30v87q0 37 -25 37t-25 -38v-79h-118v92q0 57 32 93.5t100 36.5h25q74 0 103 -33t29 -103v-96q0 -70 -51 -88q19 -7 29 -13.5
t18.5 -26.5t8.5 -53v-193z" />
    <glyph glyph-name="uni0438.bgr" 
d="M319 538v-538h-124v66q-45 -68 -97 -68h-4q-36 0 -57 28.5t-21 64.5v447h129v-395q0 -33 22 -33q25 0 25 36v392h127z" />
    <glyph glyph-name="uni0439.bgr" 
d="M319 0v538h-127v-392q0 -36 -25 -36q-22 0 -22 33v395h-129v-447q0 -36 21 -64.5t57 -28.5h4q52 0 97 68v-66h124zM276 672q0 -51 -30.5 -80t-75.5 -29h-3q-48 0 -78 28.5t-30 80.5v8h85v-6q0 -33 24 -33h1q24 0 24 33v6h83v-8z" />
    <glyph glyph-name="uni043A.bgr" horiz-adv-x="342" 
d="M221 0l-77 239v-239h-128v744h128v-393l75 187h122l-94 -226l101 -312h-127z" />
    <glyph glyph-name="uni043B.bgr" horiz-adv-x="309" 
d="M-4 0l88 538h147l82 -538h-124l-36 343l-35 -343h-122z" />
    <glyph glyph-name="uni043D.bgr" horiz-adv-x="338" 
d="M144 0h-128v538h128v-206h50v206h128v-538h-128v213h-50v-213z" />
    <glyph glyph-name="uni043F.bgr" horiz-adv-x="340" 
d="M16 0v538h127v-65q45 67 97 67h7q40 0 58.5 -29t18.5 -61v-450h-129v396q0 32 -25 32q-26 0 -26 -36v-392h-128z" />
    <glyph glyph-name="uni043F.locl" horiz-adv-x="333" 
d="M144 0h-128v538h301v-538h-128v419h-45v-419z" />
    <glyph glyph-name="uni0442.bgr" horiz-adv-x="512" 
d="M144 392v-392h-128v538h127v-63q43 67 92 67h4q31 0 52 -19t27 -47q44 66 96 66h5q36 0 56.5 -24.5t20.5 -61.5v-456h-128v392q0 36 -24 36t-24 -36v-392h-128v392q0 36 -25 36q-23 0 -23 -36z" />
    <glyph glyph-name="uni0442.locl" horiz-adv-x="268" 
d="M70 0v419h-65v119h258v-119h-65v-419h-128z" />
    <glyph glyph-name="uni0446.bgr" horiz-adv-x="359" 
d="M319 538v-419h35v-219h-117v100h-42v66q-45 -68 -97 -68h-4q-36 0 -57 28.5t-21 64.5v447h129v-395q0 -33 22 -33q25 0 25 36v392h127z" />
    <glyph glyph-name="uni0447.bgr" horiz-adv-x="325" 
d="M138 336q0 -30 25 -30q10 0 18 4v228h128v-538h-128v207q-25 -12 -63 -12q-108 0 -108 119v224h128v-202z" />
    <glyph glyph-name="uni0448.bgr" horiz-adv-x="512" 
d="M368 146v392h128v-538h-127v63q-43 -67 -92 -67h-4q-31 0 -52 19t-27 47q-44 -66 -96 -66h-5q-36 0 -56.5 24.5t-20.5 61.5v456h128v-392q0 -36 24 -36t24 36v392h128v-392q0 -36 25 -36q23 0 23 36z" />
    <glyph glyph-name="uni0449.bgr" horiz-adv-x="536" 
d="M368 146v392h128v-419h35v-219h-117v100h-45v63q-43 -67 -92 -67h-4q-31 0 -52 19t-27 47q-44 -66 -96 -66h-5q-36 0 -56.5 24.5t-20.5 61.5v456h128v-392q0 -36 24 -36t24 36v392h128v-392q0 -36 25 -36q23 0 23 36z" />
    <glyph glyph-name="uni044A.bgr" horiz-adv-x="395" 
d="M216 -9q-72 0 -106.5 39.5t-34.5 99.5v289h-70v119h198v-180h17q84 0 123.5 -31t39.5 -108v-89q0 -58 -39.5 -98.5t-109.5 -40.5h-18zM203 143q0 -38 26 -38t26 38v64q0 28 -8 38t-33 10h-11v-112z" />
    <glyph glyph-name="uni044C.bgr" horiz-adv-x="333" 
d="M154 -9q-72 0 -106.5 39.5t-34.5 99.5v408h128v-180h17q84 0 123.5 -31t39.5 -108v-89q0 -58 -39.5 -98.5t-109.5 -40.5h-18zM141 143q0 -38 26 -38t26 38v64q0 28 -8 38t-33 10h-11v-112z" />
    <glyph glyph-name="uni044E.bgr" horiz-adv-x="503" 
d="M490 144q0 -67 -38 -110.5t-103 -43.5h-30q-70 0 -105 42t-35 110v71h-35v-213h-128v744h128v-412h35v65q0 72 37 111.5t103 39.5h30q66 0 103.5 -39t37.5 -110v-255zM308 144q0 -38 26 -38q27 0 27 38v256q0 37 -27 37q-26 0 -26 -37v-256z" />
    <glyph glyph-name="uni044F.alt" horiz-adv-x="333" 
d="M149 61q0 -43 -11 -61h-128v5q11 24 11 55v82q0 50 29 73q-34 27 -34 88v98q0 71 30 104t102 33h169v-538h-128v180h-19q-21 0 -21 -34v-85zM189 283v152h-14q-31 0 -31 -32v-90q0 -17 7 -23.5t24 -6.5h14z" />
    <glyph glyph-name="uni0458.short" horiz-adv-x="161" 
d="M145 690v-126h-128v126h128zM-28 -69h27q10 0 14 4.5t4 16.5v586h128v-654q0 -30 -20.5 -51t-53.5 -21h-99v119z" />
    <glyph glyph-name="f_b" horiz-adv-x="596" 
d="M253 744v-113h-42q-12 0 -16 -5t-4 -18v-70h62v-119h-62v-419h-127v419h-60v119h60v132q0 30 21 52t61 22h107zM276 744h128v-266q40 66 91 66h6q37 0 58.5 -28.5t21.5 -66.5v-338q0 -46 -28.5 -83t-70.5 -37h-2q-26 0 -47 14.5t-30.5 28t-23.5 38.5q-13 -46 -13 -72h-90
v744zM404 137q0 -35 24 -35t24 33v264q0 35 -25 35q-23 0 -23 -35v-262z" />
    <glyph glyph-name="f_h" horiz-adv-x="600" 
d="M253 744v-113h-42q-12 0 -16 -5t-4 -18v-70h62v-119h-62v-419h-127v419h-60v119h60v132q0 30 21 52t61 22h107zM276 0v744h128v-268q43 64 96 64h5q36 0 57.5 -23.5t21.5 -60.5v-456h-129v398q0 30 -25 30q-26 0 -26 -34v-394h-128z" />
    <glyph glyph-name="f_k" horiz-adv-x="602" 
d="M253 744v-113h-42q-12 0 -16 -5t-4 -18v-70h62v-119h-62v-419h-127v419h-60v119h60v132q0 30 21 52t61 22h107zM481 0l-77 239v-239h-128v744h128v-393l75 187h122l-94 -226l101 -312h-127z" />
    <glyph glyph-name="f_j" horiz-adv-x="421" 
d="M253 744v-113h-42q-12 0 -16 -5t-4 -18v-70h62v-119h-62v-419h-127v419h-60v119h60v132q0 30 21 52t61 22h107zM405 690v-126h-128v126h128zM207 -69h52q10 0 14 4.5t4 16.5v586h128v-654q0 -30 -20.5 -51t-53.5 -21h-124v119z" />
    <glyph glyph-name="f_f_b" horiz-adv-x="807" 
d="M275 0v419h-84v-419h-127v419h-60v119h60v132q0 30 21 52t61 22h112v-113h-47q-12 0 -16 -5t-4 -18v-70h84v132q0 30 21 52t61 22h107v-113h-42q-12 0 -16 -5t-4 -18v-70h62v-119h-62v-419h-127zM487 744h128v-266q40 66 91 66h6q37 0 58.5 -28.5t21.5 -66.5v-338
q0 -46 -28.5 -83t-70.5 -37h-2q-26 0 -47 14.5t-30.5 28t-23.5 38.5q-13 -46 -13 -72h-90v744zM615 137q0 -35 24 -35t24 33v264q0 35 -25 35q-23 0 -23 -35v-262z" />
    <glyph glyph-name="f_f_h" horiz-adv-x="811" 
d="M275 0v419h-84v-419h-127v419h-60v119h60v132q0 30 21 52t61 22h112v-113h-47q-12 0 -16 -5t-4 -18v-70h84v132q0 30 21 52t61 22h107v-113h-42q-12 0 -16 -5t-4 -18v-70h62v-119h-62v-419h-127zM487 0v744h128v-268q43 64 96 64h5q36 0 57.5 -23.5t21.5 -60.5v-456h-129
v398q0 30 -25 30q-26 0 -26 -34v-394h-128z" />
    <glyph glyph-name="f_f_k" horiz-adv-x="813" 
d="M275 0v419h-84v-419h-127v419h-60v119h60v132q0 30 21 52t61 22h112v-113h-47q-12 0 -16 -5t-4 -18v-70h84v132q0 30 21 52t61 22h107v-113h-42q-12 0 -16 -5t-4 -18v-70h62v-119h-62v-419h-127zM692 0l-77 239v-239h-128v744h128v-393l75 187h122l-94 -226l101 -312
h-127z" />
    <glyph glyph-name="f_f_j" horiz-adv-x="632" 
d="M275 0v419h-84v-419h-127v419h-60v119h60v132q0 30 21 52t61 22h112v-113h-47q-12 0 -16 -5t-4 -18v-70h84v132q0 30 21 52t61 22h107v-113h-42q-12 0 -16 -5t-4 -18v-70h62v-119h-62v-419h-127zM616 690v-126h-128v126h128zM418 -69h52q10 0 14 4.5t4 16.5v586h128v-654
q0 -30 -20.5 -51t-53.5 -21h-124v119z" />
    </font>
</defs>
</svg>
