<?xml version="1.0" standalone="no"?>
<!DOCTYPE svg PUBLIC "-//W3C//DTD SVG 1.1//EN" "http://www.w3.org/Graphics/SVG/1.1/DTD/svg11.dtd" >
<svg xmlns="http://www.w3.org/2000/svg" xmlns:xlink="http://www.w3.org/1999/xlink" version="1.1">
<metadata>
Created by FontForge 20190801 at Wed May  3 00:42:02 2017
 By www-data
Copyright (C)2017 Commercial Type.
</metadata>
<defs>
<font id="DrukWideBoldCy" horiz-adv-x="700" >
  <font-face 
    font-family="DrukWideBoldCy"
    font-weight="700"
    font-stretch="normal"
    units-per-em="1000"
    panose-1="0 0 0 0 0 0 0 0 0 0"
    ascent="805"
    descent="-195"
    x-height="538"
    cap-height="744"
    bbox="-117 -299 2644 1201"
    underline-thickness="84"
    underline-position="-20"
    unicode-range="U+0020-FB04"
  />
<missing-glyph horiz-adv-x="500" 
 />
    <glyph glyph-name="f_f" unicode="ff" horiz-adv-x="967" 
d="M558 0v373h-172v-373h-270v373h-106v165h106v53q0 153 197 153h193v-144h-83q-22 0 -29.5 -9t-7.5 -30v-23h172v53q0 153 197 153h194v-144h-84q-22 0 -29.5 -9t-7.5 -30v-23h121v-165h-121v-373h-270z" />
    <glyph glyph-name="f_i" unicode="fi" horiz-adv-x="866" 
d="M829 744v-161h-272v161h272zM829 538v-538h-272v538h272zM504 744v-144h-81q-22 0 -29.5 -9t-7.5 -30v-23h118v-165h-118v-373h-270v373h-106v165h106v53q0 153 197 153h191z" />
    <glyph glyph-name="f_l" unicode="fl" horiz-adv-x="866" 
d="M504 744v-144h-81q-22 0 -29.5 -9t-7.5 -30v-23h118v-165h-118v-373h-270v373h-106v165h106v53q0 153 197 153h191zM829 744v-744h-272v744h272z" />
    <glyph glyph-name="emdash.alt" unicode="&#x2014;&#x2014;" horiz-adv-x="2674" 
d="M2644 369v-142h-2614v142h2614z" />
    <glyph glyph-name=".notdef" horiz-adv-x="500" 
 />
    <glyph glyph-name=".null" horiz-adv-x="0" 
 />
    <glyph glyph-name="nonmarkingreturn" horiz-adv-x="333" 
 />
    <glyph glyph-name="space" unicode=" " horiz-adv-x="304" 
 />
    <glyph glyph-name="exclam" unicode="!" horiz-adv-x="375" 
d="M13 744h349l-92 -504h-166zM329 195v-195h-283v195h283z" />
    <glyph glyph-name="quotedbl" unicode="&#x22;" horiz-adv-x="536" 
d="M245 744v-262h-216v262h216zM507 744v-262h-217v262h217z" />
    <glyph glyph-name="numbersign" unicode="#" horiz-adv-x="829" 
d="M374 0l57 203h-138l-57 -203h-166l57 203h-127l34 124h127l34 124h-127l35 124h127l47 169h167l-48 -169h139l47 169h167l-48 -169h128l-35 -124h-127l-35 -124h128l-35 -124h-128l-57 -203h-166zM327 327h138l35 124h-138z" />
    <glyph glyph-name="dollar" unicode="$" horiz-adv-x="1001" 
d="M989 239q0 -42 -10 -75.5t-39 -68t-77.5 -57t-131 -37t-193.5 -14.5v-62h-97v62q-431 6 -431 263v11h292q2 -93 139 -108v146l-70 3q-351 11 -351 221v9q0 38 11 69t40 60t75 49t121 31.5t174 11.5v59h97v-59q425 -5 425 -231v-9h-289q-5 72 -136 83v-122l73 -3
q204 -7 291 -57t87 -161v-14zM307 537q0 -24 27.5 -39t106.5 -20v119q-45 -1 -73.5 -6.5t-41 -14.5t-16 -17t-3.5 -20v-2zM690 229q0 29 -30 45t-122 22v-145q91 3 121.5 23.5t30.5 50.5v4z" />
    <glyph glyph-name="percent" unicode="%" horiz-adv-x="1445" 
d="M317 321q-73 0 -128.5 15t-87 36.5t-50.5 51.5t-25 55t-6 52v16q0 34 11.5 65.5t40.5 65t92 54t153 20.5h22q73 0 128.5 -14.5t86.5 -35.5t50 -50t25 -54t6 -51v-16q0 -27 -6 -52t-25 -55t-50 -51.5t-86.5 -36.5t-128.5 -15h-22zM1022 744h215l-816 -744h-215zM327 453
q60 0 87.5 24t27.5 58v6q0 81 -115 81q-60 0 -87 -22.5t-27 -58.5v-5q0 -35 27.5 -59t86.5 -24zM1129 -8h-24q-73 0 -128 15t-86 36.5t-50.5 51.5t-25.5 55t-6 52v16q0 27 6 52t25.5 54t50.5 50t86.5 35.5t128.5 14.5h22q73 0 128.5 -14.5t86.5 -35.5t50.5 -50t25.5 -54
t6 -52v-16q0 -27 -6 -52t-25 -55t-50 -51.5t-86.5 -36.5t-128.5 -15zM1117 124q60 0 87.5 24t27.5 58v7q0 35 -27.5 57.5t-87.5 22.5q-115 0 -115 -80v-5q0 -36 27.5 -60t87.5 -24z" />
    <glyph glyph-name="ampersand" unicode="&#x26;" horiz-adv-x="1138" 
d="M1078 -11q-161 -1 -275 55q-131 -58 -326 -58q-107 0 -189.5 12t-134 32t-85 49t-46.5 59.5t-13 66.5v10q0 148 243 186q-100 76 -100 169v8q0 182 338 182h56q79 0 138.5 -11t93.5 -28t55 -41t27.5 -45.5t6.5 -45.5v-5q0 -65 -58.5 -110.5t-196.5 -71.5l195 -131
q46 75 46 180h245q-2 -143 -112 -267q57 -14 162 -14zM409 577q0 -24 22 -46t80 -62q123 39 123 94q0 32 -26.5 49t-93.5 17q-105 0 -105 -52zM293 252q0 -47 49.5 -80t154.5 -33q77 0 133 12l-281 185q-56 -29 -56 -81v-3z" />
    <glyph glyph-name="quotesingle" unicode="'" horiz-adv-x="275" 
d="M246 744v-262h-217v262h217z" />
    <glyph glyph-name="parenleft" unicode="(" horiz-adv-x="355" 
d="M24 341q0 270 205 467h136q-131 -210 -131 -467q0 -254 131 -472h-136q-205 199 -205 472z" />
    <glyph glyph-name="parenright" unicode=")" horiz-adv-x="355" 
d="M-9 -131q130 219 130 472q0 256 -130 467h135q205 -197 205 -467q0 -274 -205 -472h-135z" />
    <glyph glyph-name="asterisk" unicode="*" horiz-adv-x="464" 
d="M285 629l98 84l68 -127l-135 -34l135 -36l-68 -127l-99 81l31 -116h-166l33 116l-100 -81l-69 127l134 36l-134 34l69 127l98 -84l-31 115h166z" />
    <glyph glyph-name="plus" unicode="+" horiz-adv-x="620" 
d="M593 233h-192v-176h-183v176h-191v151h191v175h183v-175h192v-151z" />
    <glyph glyph-name="comma" unicode="," horiz-adv-x="338" 
d="M252 -111h-147q35 67 42 111h-119v195h282v-159q0 -34 -18 -75.5t-40 -71.5z" />
    <glyph glyph-name="hyphen" unicode="-" horiz-adv-x="390" 
d="M30 390h330v-186h-330v186z" />
    <glyph glyph-name="period" unicode="." horiz-adv-x="338" 
d="M310 195v-195h-282v195h282z" />
    <glyph glyph-name="slash" unicode="/" horiz-adv-x="485" 
d="M500 808l-340 -939h-201l339 939h202z" />
    <glyph glyph-name="zero" unicode="0" horiz-adv-x="1130" 
d="M1110 388v-30q0 -47 -9.5 -91t-43 -97.5t-87.5 -92t-152.5 -65t-229.5 -26.5h-45q-131 0 -230 26.5t-153 65t-87.5 92t-43 97.5t-9.5 91v30q0 33 4.5 64t19 69t37.5 70.5t63.5 64t94 53.5t131.5 35.5t173 13.5h45q95 0 173 -13.5t131 -35.5t93.5 -53.5t63.5 -64
t37.5 -70.5t19 -69t4.5 -64zM815 369v13q0 32 -11.5 60.5t-37.5 56t-77.5 43.5t-123.5 16q-73 0 -125 -16t-78 -43.5t-37 -56t-11 -60.5v-12q0 -32 11.5 -61.5t38 -58t78.5 -45.5t123 -17q72 0 123.5 17t77.5 45t37.5 57.5t11.5 61.5z" />
    <glyph glyph-name="one" unicode="1" horiz-adv-x="525" 
d="M195 440h-180v155q179 9 236 149h226v-744h-282v440z" />
    <glyph glyph-name="two" unicode="2" horiz-adv-x="1005" 
d="M978 275v-275h-956v87q0 27 1.5 47t10 52.5t23.5 57.5t44.5 55.5t71 55t105 48t143.5 40.5q95 20 144 29q66 13 85 25t19 31q0 15 -10 24.5t-48 17t-105 7.5q-60 0 -99.5 -10t-55.5 -28t-21 -30.5t-6 -28.5h-290v7q0 271 442 271h43q109 0 190.5 -12.5t130 -33
t77.5 -51.5t39.5 -62.5t10.5 -71.5v-4q0 -95 -71.5 -144.5t-267.5 -80.5l-160 -27q-199 -34 -199 -84h446v88h263z" />
    <glyph glyph-name="three" unicode="3" horiz-adv-x="1022" 
d="M1010 244q0 -258 -482 -258h-48q-88 0 -160 11.5t-120 29t-84 43t-56 50.5t-32 53.5t-15.5 50t-3.5 42.5v9h293q1 -9 3.5 -17.5t14.5 -25.5t31 -28.5t58.5 -21t91.5 -9.5q54 0 93 5t59.5 12t32.5 17.5t15 18.5t3 19q0 52 -92 52h-249v178h242q84 0 84 43v1q0 16 -9.5 27
t-55.5 20.5t-132 9.5q-175 0 -188 -75v-3h-291v10q0 19 3 37.5t14 44.5t30 48t53.5 45t81 39t117 26t157.5 10h43q123 0 213 -12.5t138.5 -31t76.5 -46t35.5 -50.5t7.5 -52v-6q0 -52 -39.5 -84.5t-91.5 -42.5q64 -13 111 -58t47 -124v-7z" />
    <glyph glyph-name="four" unicode="4" horiz-adv-x="1008" 
d="M10 303l520 445h312v-414h155v-192h-155v-142h-283v142h-549v161zM559 334v222l-260 -222h260z" />
    <glyph glyph-name="five" unicode="5" horiz-adv-x="976" 
d="M961 255q0 -269 -438 -269h-48q-118 0 -205.5 19t-132.5 45t-71.5 63t-32.5 63t-6 54v7h295q20 -67 176 -67q168 0 168 85v4q0 84 -168 84q-153 0 -178 -58h-279v459h868v-181h-587v-121q13 12 35.5 24t85.5 27t142 15h9q87 0 153 -13t106 -35t65 -54.5t34 -67t9 -77.5
v-6z" />
    <glyph glyph-name="six" unicode="6" horiz-adv-x="1036" 
d="M1021 246q0 -39 -9 -71.5t-39 -69t-79.5 -62t-138 -42t-206.5 -16.5h-45q-119 0 -209 24.5t-141 61.5t-82 89.5t-41 99t-10 99.5v24q0 43 7.5 82t26 83.5t54.5 80.5t87 66t129 46.5t176 16.5h42q105 0 186.5 -15.5t129 -39.5t78 -57t41 -63t10.5 -62v-4h-288
q-14 21 -32 32q-46 27 -141 27q-66 0 -113 -17t-68 -44t-29 -51t-8 -49v-5q98 70 309 70h12q91 0 160 -12t112.5 -32t70.5 -49.5t37.5 -61t10.5 -70.5v-9zM335 242q0 -77 197 -77q194 0 194 75v3q0 15 -7 27t-26.5 23.5t-60 18t-100.5 6.5q-197 0 -197 -73v-3z" />
    <glyph glyph-name="seven" unicode="7" horiz-adv-x="975" 
d="M28 744h930v-167q-123 -138 -178 -213q-75 -101 -98.5 -179t-23.5 -179v-6h-318v89q0 82 38 147.5t146 164.5q25 23 56 49.5t47.5 41t33 29.5t23.5 23.5t8 13.5h-389v-144h-275v330z" />
    <glyph glyph-name="eight" unicode="8" horiz-adv-x="1013" 
d="M982 558v-9q0 -64 -50 -105.5t-116 -50.5q77 -12 130.5 -56.5t53.5 -112.5v-11q0 -32 -7.5 -59t-36.5 -60t-77.5 -55.5t-138.5 -38t-212 -15.5h-43q-124 0 -214.5 15.5t-139 38t-76.5 56t-35 59.5t-7 59v11q0 67 54 111t130 58q-69 11 -118 51.5t-49 104.5v9q0 23 5 41.5
t19.5 43.5t46 44t79.5 36t126 26t179 9h44q87 0 157 -7.5t116.5 -19t80.5 -28.5t52.5 -34t29.5 -38.5t14 -37.5t3 -35zM687 531v3q0 12 -5.5 21t-22.5 19t-55.5 15t-97.5 5q-78 0 -120.5 -10.5t-51.5 -21.5t-9 -28v-3q0 -13 5.5 -22t22.5 -19t56 -15.5t97 -5.5t97 5.5
t56 15.5t22.5 19t5.5 22zM707 231v3q0 20 -12 32.5t-58.5 23t-130.5 10.5t-130.5 -10.5t-58 -23t-11.5 -32.5v-3q0 -69 200 -69q201 0 201 69z" />
    <glyph glyph-name="nine" unicode="9" horiz-adv-x="1036" 
d="M1015 363q0 -53 -9.5 -100t-40.5 -100t-81 -90.5t-138.5 -62.5t-205.5 -25h-43q-104 0 -185.5 16t-130 40t-79.5 56.5t-42.5 62.5t-11.5 61v5h287q25 -60 175 -60q54 0 94.5 12t63 29.5t37 41t18.5 42t4 37.5v4q-95 -71 -296 -71h-13q-112 0 -192.5 18.5t-125.5 52
t-65 73.5t-20 90v9q0 39 9 71.5t38 68t77.5 59t135 39.5t203.5 16h45q492 0 492 -371v-24zM701 502q0 75 -197 75q-194 0 -194 -75v-2q0 -75 194 -75q197 0 197 75v2z" />
    <glyph glyph-name="colon" unicode=":" horiz-adv-x="340" 
d="M311 495v-195h-282v195h282zM311 195v-195h-282v195h282z" />
    <glyph glyph-name="semicolon" unicode=";" horiz-adv-x="340" 
d="M311 495v-195h-282v195h282zM253 -111h-147q35 67 42 111h-119v195h282v-159q0 -34 -18 -75.5t-40 -71.5z" />
    <glyph glyph-name="less" unicode="&#x3c;" horiz-adv-x="542" 
d="M513 63l-486 155v170l486 156v-162l-319 -80l319 -78v-161z" />
    <glyph glyph-name="equal" unicode="=" horiz-adv-x="587" 
d="M31 478h525v-140h-525v140zM31 280h525v-139h-525v139z" />
    <glyph glyph-name="greater" unicode="&#x3e;" horiz-adv-x="535" 
d="M29 544l479 -156v-170l-479 -155v161l315 78l-315 80v162z" />
    <glyph glyph-name="question" unicode="?" horiz-adv-x="901" 
d="M539 254v-5h-272v67q0 59 29.5 92t126.5 55l99 23q52 12 70 24.5t18 29.5q0 15 -7 23t-42 15t-101 7q-48 0 -82 -6.5t-51 -14.5t-26.5 -22t-11 -22t-2.5 -21h-275v12q0 25 1.5 42.5t10.5 45.5t24.5 47t46.5 41t74 35.5t110 22.5t151 9h53q101 0 176 -12.5t118.5 -32.5
t69 -49t34 -56.5t8.5 -61.5v-7q0 -152 -189 -197l-101 -24q-38 -9 -49 -21.5t-11 -38.5zM546 195v-195h-281v195h281z" />
    <glyph glyph-name="at" unicode="@" horiz-adv-x="1327" 
d="M1216 -71q-162 -86 -545 -86q-115 0 -209.5 13.5t-161 37t-117 58t-81 72t-49.5 84.5t-26 90t-7 93v12q0 72 15 131.5t58 118.5t112.5 99t185 64.5t269.5 24.5h14q100 0 183.5 -8.5t144 -22.5t109 -36.5t80 -44.5t54.5 -52.5t34.5 -55.5t18 -58.5t8 -55.5t1.5 -52v-11
q0 -57 -15.5 -107t-51 -97t-104.5 -74.5t-164 -27.5h-17q-148 0 -190 77q-81 -77 -225 -77h-14q-76 0 -130 23t-79.5 61.5t-34.5 81.5t-3 90l7 54q5 35 19 67t40.5 62t73.5 47.5t108 17.5h15q153 0 242 -80l9 71h265l-46 -358q-5 -37 32 -37q55 0 90.5 56.5t35.5 155.5v3
q0 28 -1 45t-5.5 44t-13 44t-26 40t-42 37.5t-62 30.5t-86 24.5t-114.5 14.5t-146 6h-14q-123 0 -213.5 -18t-143.5 -47.5t-85 -75t-42.5 -91.5t-10.5 -106v-11q0 -55 10.5 -100t43 -92t86.5 -79t147.5 -52.5t218.5 -20.5q338 0 504 86zM762 280l2 16q7 52 -22 79t-88 27
q-93 0 -105 -91l-3 -23q-6 -45 16.5 -76.5t77.5 -31.5q109 0 122 100z" />
    <glyph glyph-name="A" unicode="A" horiz-adv-x="1101" 
d="M809 0l-58 120h-425l-57 -120h-288l368 744h382l389 -744h-311zM413 306h247l-125 256z" />
    <glyph glyph-name="B" unicode="B" horiz-adv-x="1072" 
d="M45 0v744h700q150 0 212.5 -47.5t62.5 -121.5v-11q0 -62 -40.5 -98.5t-87.5 -47.5q29 -7 55 -18.5t54.5 -33t45 -57.5t16.5 -82v-12q0 -215 -314 -215h-704zM659 575h-330v-105h330q76 0 76 52v2q0 51 -76 51zM677 303h-348v-128h348q88 0 88 64v3q0 61 -88 61z" />
    <glyph glyph-name="C" unicode="C" horiz-adv-x="1120" 
d="M1103 293q0 -28 -7.5 -57t-26.5 -65.5t-57 -68t-92.5 -58.5t-141 -42.5t-193.5 -15.5h-39q-131 0 -230 26t-153.5 64.5t-88.5 91.5t-44 98t-10 94v29q0 50 9.5 94t42.5 96.5t87.5 90t154 63t232.5 25.5h39q94 0 171.5 -12t129.5 -31t92.5 -46t63 -53.5t37 -57.5
t19.5 -54.5t5 -46.5v-13h-295q-3 11 -6.5 20t-20 28t-40.5 32t-70.5 23.5t-107.5 10.5q-249 0 -249 -174v-12q0 -33 11.5 -63t38 -59t78 -46t122.5 -17q62 0 109 11.5t71 25.5t40 35t19 30t6 20h294v-16z" />
    <glyph glyph-name="D" unicode="D" horiz-adv-x="1127" 
d="M45 0v744h528q124 0 220 -20t155 -53t96.5 -79.5t51.5 -95t14 -104.5v-30q0 -55 -12.5 -103t-49 -97.5t-94 -84t-155 -56t-225.5 -21.5h-529zM329 549v-352h211q275 0 275 174v6q0 172 -275 172h-211z" />
    <glyph glyph-name="E" unicode="E" horiz-adv-x="907" 
d="M45 744h823v-182h-543v-93h532v-181h-532v-102h551v-186h-831v744z" />
    <glyph glyph-name="F" unicode="F" horiz-adv-x="884" 
d="M45 744h807v-182h-526v-93h515v-183h-515v-286h-281v744z" />
    <glyph glyph-name="G" unicode="G" horiz-adv-x="1153" 
d="M899 103q-106 -117 -354 -117h-23q-117 0 -208 24.5t-145 62t-89 89t-47.5 100t-12.5 99.5v28q0 53 12 100.5t47.5 98t92 87t153 60t222.5 23.5h39q130 0 228 -20.5t152 -50t87.5 -71t43.5 -75t11 -70.5v-1h-296q-31 94 -241 94q-257 0 -257 -184v-11q0 -79 63 -133.5
t192 -54.5q55 0 100 7.5t72.5 18.5t47 24t27 24t7.5 19h-261v145h551v-419h-179q-8 51 -35 103z" />
    <glyph glyph-name="H" unicode="H" horiz-adv-x="1122" 
d="M794 0v283h-465v-283h-284v744h284v-263h465v263h283v-744h-283z" />
    <glyph glyph-name="I" unicode="I" horiz-adv-x="373" 
d="M328 744v-744h-283v744h283z" />
    <glyph glyph-name="J" unicode="J" horiz-adv-x="942" 
d="M904 363q0 -43 -6.5 -82t-22 -83.5t-46.5 -80t-76 -65.5t-115.5 -46.5t-158.5 -16.5h-61q-101 0 -178 23t-120.5 57.5t-71 81.5t-36 88t-8.5 85v6h279q13 -128 164 -128h8q86 0 125.5 45t39.5 122v375h284v-381z" />
    <glyph glyph-name="K" unicode="K" horiz-adv-x="1040" 
d="M692 0l-363 333v-333h-284v744h284v-294l366 294h353l-433 -338l447 -406h-370z" />
    <glyph glyph-name="L" unicode="L" horiz-adv-x="869" 
d="M45 744h284v-531h516v-213h-800v744z" />
    <glyph glyph-name="M" unicode="M" horiz-adv-x="1314" 
d="M45 0v744h390l228 -418l232 418h374v-744h-281v464l-261 -464h-145l-260 464v-464h-277z" />
    <glyph glyph-name="N" unicode="N" horiz-adv-x="1122" 
d="M45 744h318l432 -423v423h282v-744h-284l-466 451v-451h-282v744z" />
    <glyph glyph-name="O" unicode="O" horiz-adv-x="1170" 
d="M563 758h45q137 0 240 -25.5t159 -63t90 -90.5t43.5 -96.5t9.5 -93.5v-30q0 -34 -4.5 -65t-19 -69.5t-38 -71t-65.5 -64.5t-97 -54t-136.5 -35.5t-181.5 -13.5h-45q-100 0 -181.5 13.5t-137 35.5t-97.5 54t-65.5 64.5t-38 71t-19 69.5t-4.5 65v30q0 34 4.5 65t19 69.5
t38 70.5t65.5 63t97.5 52.5t137 35t181.5 13.5zM856 382q0 33 -12 61.5t-40 55.5t-84 43t-135 16q-80 0 -136 -16t-84 -43t-39.5 -55.5t-11.5 -61.5v-12q0 -33 12 -62.5t40 -58t84.5 -45.5t134.5 -17t134.5 16.5t84.5 45t40 57.5t12 62v14z" />
    <glyph glyph-name="P" unicode="P" horiz-adv-x="1031" 
d="M665 233h-336v-233h-284v744h620q353 0 353 -246v-16q0 -249 -353 -249zM329 558v-139h302q94 0 94 68v3q0 68 -94 68h-302z" />
    <glyph glyph-name="Q" unicode="Q" horiz-adv-x="1170" 
d="M1150 359q0 -44 -8 -83.5t-34 -88t-69.5 -86t-121 -67.5t-181.5 -41l128 -148h-386v144q-115 7 -201 36.5t-134 67t-77 88t-37.5 91.5t-8.5 87v30q0 34 4.5 65.5t19 69.5t38.5 70t65.5 63t97 52.5t137 35t181.5 13.5h45q99 0 180.5 -13.5t136.5 -35t97 -52.5t65.5 -63
t38.5 -70t19.5 -69.5t4.5 -65.5v-30zM856 382q0 34 -12 62.5t-40 55.5t-84 42.5t-135 15.5q-271 0 -271 -176v-12q0 -33 12 -62.5t40 -58t84.5 -45.5t134.5 -17t134.5 16.5t84.5 44.5t40 57.5t12 62.5v14z" />
    <glyph glyph-name="R" unicode="R" horiz-adv-x="1064" 
d="M329 255v-255h-284v744h676q313 0 313 -191v-11q0 -38 -15 -69t-39.5 -50t-48 -30t-47.5 -17q71 -16 112 -61.5t41 -115.5v-110q0 -58 14 -84v-5h-290q-9 12 -9 39v87q0 66 -34.5 97.5t-116.5 31.5h-272zM329 563v-128h326q86 0 86 64v1q0 63 -86 63h-326z" />
    <glyph glyph-name="S" unicode="S" horiz-adv-x="1030" 
d="M1017 239q0 -42 -10 -75.5t-40 -67.5t-79.5 -57.5t-134 -38t-197.5 -14.5h-91q-454 0 -454 264v10h312q8 -105 186 -105h9q57 0 95 5.5t56 16t24.5 22t6.5 26.5v1q0 21 -10 33.5t-50 22t-115 11.5l-138 4q-365 11 -365 224v9q0 39 11 70.5t40.5 61.5t76.5 50.5t123 32.5
t177 12h89q452 0 452 -235v-8h-309q-9 79 -180 79h-10q-70 0 -108 -8.5t-47 -19t-9 -27.5v-1q0 -17 10.5 -28t48 -19.5t103.5 -9.5l134 -3q210 -5 301.5 -58t91.5 -166v-14z" />
    <glyph glyph-name="T" unicode="T" horiz-adv-x="971" 
d="M22 541v203h926v-203h-321v-541h-284v541h-321z" />
    <glyph glyph-name="U" unicode="U" horiz-adv-x="1098" 
d="M37 389v355h285v-333q0 -38 10 -70.5t33 -63t70.5 -48.5t114.5 -18q66 0 113 18t70.5 48.5t33.5 63t10 70.5v333h284v-355q0 -41 -7.5 -80.5t-25.5 -87t-54 -87.5t-87.5 -74t-133 -53t-182.5 -19h-40q-124 0 -217 28.5t-144.5 70.5t-83 99.5t-40.5 104.5t-9 98z" />
    <glyph glyph-name="V" unicode="V" horiz-adv-x="1070" 
d="M1086 744l-349 -744h-377l-376 744h322l250 -519l235 519h295z" />
    <glyph glyph-name="W" unicode="W" horiz-adv-x="1529" 
d="M926 0l-155 470l-150 -470h-346l-290 744h316l169 -491l149 491h320l151 -483l164 483h291l-290 -744h-329z" />
    <glyph glyph-name="X" unicode="X" horiz-adv-x="1077" 
d="M742 0l-208 233l-206 -233h-342l341 382l-330 362h363l189 -219l190 219h337l-322 -359l337 -385h-349z" />
    <glyph glyph-name="Y" unicode="Y" horiz-adv-x="1043" 
d="M668 278v-278h-284v280l-407 464h340l217 -257l221 257h311z" />
    <glyph glyph-name="Z" unicode="Z" horiz-adv-x="948" 
d="M32 744h885v-151l-488 -390h493v-203h-896v152l474 396h-468v196z" />
    <glyph glyph-name="bracketleft" unicode="[" horiz-adv-x="368" 
d="M45 -131v939h312v-118h-111v-702h111v-119h-312z" />
    <glyph glyph-name="backslash" unicode="\" horiz-adv-x="485" 
d="M326 -131l-340 939h203l337 -939h-200z" />
    <glyph glyph-name="bracketright" unicode="]" horiz-adv-x="368" 
d="M11 690v118h312v-939h-312v119h111v702h-111z" />
    <glyph glyph-name="asciicircum" unicode="^" horiz-adv-x="731" 
d="M-1 424l238 320h258l237 -320h-240l-128 176l-130 -176h-235z" />
    <glyph glyph-name="underscore" unicode="_" horiz-adv-x="841" 
d="M-2 -162v142h845v-142h-845z" />
    <glyph glyph-name="grave" unicode="`" 
d="M529 583h-247l-111 161h270z" />
    <glyph glyph-name="a" unicode="a" horiz-adv-x="840" 
d="M523 72q-79 -82 -252 -82h-11q-126 0 -187.5 50t-61.5 123v12q0 70 50.5 108t167.5 48l259 23q30 3 30 26q0 12 -6.5 19.5t-34 14.5t-76.5 7h-4q-40 0 -66 -5.5t-37 -16t-14 -17t-4 -16.5h-252v6q0 27 4.5 47t24.5 47t54.5 44t102 29.5t159.5 12.5h56q96 0 166 -11.5
t106 -28t57 -42t25.5 -45t4.5 -46.5v-199q0 -23 23 -23h29v-157h-226q-75 0 -87 72zM518 231v23l-180 -32q-36 -6 -51 -16t-15 -30v-1q0 -22 20 -38.5t65 -16.5q72 0 116.5 33t44.5 78z" />
    <glyph glyph-name="b" unicode="b" horiz-adv-x="929" 
d="M37 744h272v-279q103 83 261 83h21q88 0 152.5 -21.5t99.5 -60t51.5 -84t16.5 -100.5v-21q0 -54 -17.5 -101t-55 -86t-103.5 -61.5t-154 -22.5h-20q-159 0 -257 81q-11 -32 -14 -71h-253v744zM309 272v-4q0 -51 43 -89.5t120 -38.5h6q83 0 120 37.5t37 90.5v4
q0 55 -36.5 91.5t-120.5 36.5h-6q-79 0 -121 -37.5t-42 -90.5z" />
    <glyph glyph-name="c" unicode="c" horiz-adv-x="881" 
d="M869 232q0 -19 -2.5 -37t-12 -43.5t-25.5 -47.5t-46.5 -44.5t-71 -38.5t-102 -26t-137.5 -10h-60q-99 0 -173.5 18.5t-116 46.5t-66.5 67.5t-32.5 73t-7.5 72.5v18q0 272 395 272h62q102 0 178.5 -18.5t116.5 -44t64.5 -61.5t30.5 -62t6 -54v-3h-278q-2 12 -7 24
t-19.5 29.5t-46 28.5t-76.5 11h-4q-79 0 -112.5 -35.5t-33.5 -89.5v-5q0 -57 34 -96.5t112 -39.5h4q44 0 75.5 11.5t46 30t20 31t7.5 24.5h278v-2z" />
    <glyph glyph-name="d" unicode="d" horiz-adv-x="926" 
d="M617 744h272v-744h-271v78q-15 -17 -37.5 -33t-84 -35.5t-137.5 -19.5h-17q-165 0 -245.5 77.5t-80.5 194.5v21q0 54 17.5 99.5t53.5 83.5t99 60t148 22h19q170 0 264 -78v274zM617 269v5q0 49 -44.5 86.5t-124.5 37.5h-5q-81 0 -116 -35.5t-35 -88.5v-5q0 -51 37.5 -89
t114.5 -38h4q81 0 125 38t44 89z" />
    <glyph glyph-name="e" unicode="e" horiz-adv-x="882" 
d="M866 194q0 -27 -7 -51t-32 -54.5t-66 -52t-116.5 -36.5t-175.5 -15h-53q-95 0 -168 17t-116 44t-70 64.5t-36.5 74t-9.5 77.5v20q0 271 397 271h55q73 0 132.5 -9.5t100.5 -25.5t71.5 -40t48.5 -48.5t29 -55t14.5 -57t3.5 -57.5v-30h-585q16 -99 163 -99h1q36 0 64.5 5.5
t44 13.5t25.5 18t13 16.5t4 11.5h268v-2zM441 421q-133 0 -155 -81h310q-16 81 -155 81z" />
    <glyph glyph-name="f" unicode="f" horiz-adv-x="524" 
d="M507 744v-144h-84q-22 0 -29.5 -9t-7.5 -30v-23h121v-165h-121v-373h-270v373h-106v165h106v53q0 153 197 153h194z" />
    <glyph glyph-name="g" unicode="g" horiz-adv-x="936" 
d="M899 90q0 -37 -8.5 -72t-34.5 -75t-67.5 -69.5t-115.5 -49t-170 -19.5h-77q-95 0 -167 15t-110.5 36t-62.5 49.5t-30.5 49.5t-6.5 42v3h273q7 -45 140 -45h3q163 0 163 137v11q-83 -80 -262 -80h-16q-172 0 -253 73t-81 183v18q0 50 16.5 93t52 79.5t99 57.5t148.5 21h22
q185 0 273 -79v69h272v-448zM453 396h-6q-84 0 -120 -30.5t-36 -77.5v-5q0 -48 37.5 -81t118.5 -33h6q84 0 128 33.5t44 80.5v3q0 46 -44 78t-128 32z" />
    <glyph glyph-name="h" unicode="h" horiz-adv-x="891" 
d="M37 0v744h272v-300q106 106 276 106h6q72 0 125.5 -19.5t82.5 -51t42.5 -65t13.5 -68.5v-346h-273v257q0 57 -31.5 90.5t-98.5 33.5t-105 -36.5t-38 -94.5v-250h-272z" />
    <glyph glyph-name="i" unicode="i" horiz-adv-x="346" 
d="M309 744v-161h-272v161h272zM309 538v-538h-272v538h272z" />
    <glyph glyph-name="j" unicode="j" horiz-adv-x="346" 
d="M309 744v-161h-272v161h272zM-31 -27h36q19 0 25.5 7t6.5 30v528h272v-578q0 -77 -31 -112.5t-81 -35.5h-228v161z" />
    <glyph glyph-name="k" unicode="k" horiz-adv-x="801" 
d="M509 0l-200 242v-242h-272v744h272v-416l184 210h293l-219 -238l251 -300h-309z" />
    <glyph glyph-name="l" unicode="l" horiz-adv-x="346" 
d="M309 744v-744h-272v744h272z" />
    <glyph glyph-name="m" unicode="m" horiz-adv-x="1376" 
d="M309 251v-251h-272v538h270v-96q104 108 267 108h6q164 0 222 -111q117 111 282 111h7q68 0 119 -19.5t78 -51.5t39.5 -65.5t12.5 -67.5v-346h-272v258q0 123 -111 123q-62 0 -97 -36.5t-35 -93.5v-251h-273v258q0 123 -111 123q-62 0 -97 -36.5t-35 -93.5z" />
    <glyph glyph-name="n" unicode="n" horiz-adv-x="891" 
d="M37 0v538h270v-95q111 107 278 107h6q72 0 125.5 -19.5t82.5 -51t42.5 -65t13.5 -68.5v-346h-273v257q0 57 -31.5 90.5t-98.5 33.5t-105 -36.5t-38 -94.5v-250h-272z" />
    <glyph glyph-name="o" unicode="o" horiz-adv-x="921" 
d="M424 -15q-99 0 -174.5 18.5t-118.5 46t-70 66.5t-36 74t-9 74v16q0 38 9 72.5t35.5 72.5t69.5 65t118.5 45t174.5 18h76q406 0 406 -272v-18q0 -40 -7 -73.5t-32.5 -73t-67.5 -67t-119 -46t-181 -18.5h-74zM461 401q-92 0 -130.5 -36.5t-38.5 -89.5v-4q0 -54 39 -93.5
t130 -39.5h1q91 0 129.5 40t38.5 93v4q0 52 -38.5 89t-129.5 37h-1z" />
    <glyph glyph-name="p" unicode="p" horiz-adv-x="927" 
d="M37 538h272v-75q17 16 42 31.5t87 34.5t133 19h21q89 0 153.5 -21.5t99.5 -60t50.5 -83t15.5 -98.5v-21q0 -54 -16.5 -100t-52.5 -86.5t-102 -64t-156 -23.5h-19q-69 0 -129.5 16.5t-86 31.5t-40.5 28v-254h-272v726zM309 272v-4q0 -50 43 -89t124 -39h5q82 0 118 38
t36 90v4q0 54 -35.5 90.5t-118.5 36.5h-5q-83 0 -125 -37t-42 -90z" />
    <glyph glyph-name="q" unicode="q" horiz-adv-x="925" 
d="M638 538h251v-726h-272v261q-83 -83 -260 -83h-14q-87 0 -152.5 22.5t-102.5 62t-54.5 86.5t-17.5 102v21q0 53 17 98.5t53 83.5t100 60t149 22h18q166 0 268 -82q15 34 17 72zM617 270v5q0 49 -44.5 86t-125.5 37h-5q-81 0 -115.5 -35.5t-34.5 -88.5v-5
q0 -51 36.5 -89.5t114.5 -38.5h5q81 0 125 38.5t44 90.5z" />
    <glyph glyph-name="r" unicode="r" horiz-adv-x="784" 
d="M307 538v-99q79 111 225 111h12q64 0 110 -20.5t70 -56t35 -75t11 -86.5v-54h-264v19q0 49 -23.5 79.5t-73.5 30.5q-47 0 -73.5 -32t-26.5 -84v-271h-272v538h270z" />
    <glyph glyph-name="s" unicode="s" horiz-adv-x="808" 
d="M795 170q0 -32 -8 -57t-32 -50t-64 -41.5t-107.5 -26.5t-159.5 -10h-55q-359 0 -359 191v7h277q3 -66 111 -66h2q65 0 88 12t23 33v2q0 22 -20.5 32.5t-82.5 11.5l-114 3q-278 9 -278 169v6q0 36 14 63.5t50.5 52.5t109 38t179.5 13h53q104 0 176.5 -13.5t109.5 -38
t52 -52.5t15 -63v-7h-272q-6 50 -108 50h-1q-62 0 -83.5 -8.5t-21.5 -28.5v-1q0 -18 21 -28t79 -12l113 -3q118 -3 183.5 -24.5t87.5 -55.5t22 -91v-7z" />
    <glyph glyph-name="t" unicode="t" horiz-adv-x="508" 
d="M486 0h-230q-143 0 -143 153v220h-103v165h103v157h270v-157h103v-165h-103v-159q0 -26 8.5 -36.5t36.5 -10.5h58v-167z" />
    <glyph glyph-name="u" unicode="u" horiz-adv-x="881" 
d="M844 538v-538h-270v96q-108 -108 -273 -108h-7q-71 0 -124 20t-80.5 53t-40.5 67t-13 70v340h273v-257q0 -56 30 -90t94 -34q65 0 102.5 37t37.5 94v250h271z" />
    <glyph glyph-name="v" unicode="v" horiz-adv-x="831" 
d="M845 538l-245 -538h-359l-255 538h291l148 -350l141 350h279z" />
    <glyph glyph-name="w" unicode="w" horiz-adv-x="1213" 
d="M722 0l-108 326l-108 -326h-307l-212 538h283l105 -339l103 339h280l105 -338l103 338h260l-200 -538h-304z" />
    <glyph glyph-name="x" unicode="x" horiz-adv-x="842" 
d="M553 0l-135 158l-134 -158h-297l248 277l-243 261h309l123 -141l120 141h299l-237 -257l250 -281h-303z" />
    <glyph glyph-name="y" unicode="y" horiz-adv-x="821" 
d="M576 -23q-40 -87 -88 -126t-119 -39h-253v166h122q25 0 25 17v1q0 11 -23 54l-254 488h290l150 -346l139 346h270z" />
    <glyph glyph-name="z" unicode="z" horiz-adv-x="746" 
d="M727 165v-165h-708v146l358 233h-358v159h707v-143l-369 -230h370z" />
    <glyph glyph-name="braceleft" unicode="{" horiz-adv-x="387" 
d="M84 282h-68v118h68q44 0 44 35q0 24 -43 116t-43 136q0 121 179 121h156v-118h-85q-45 0 -45 -36q0 -19 33 -98.5t33 -110.5q0 -42 -24 -66.5t-81 -36.5q57 -11 81 -32.5t24 -57.5q0 -35 -33 -118t-33 -102q0 -44 53 -44h77v-119h-156q-179 0 -179 114q0 45 43 139.5
t43 116.5q0 43 -44 43z" />
    <glyph glyph-name="bar" unicode="|" horiz-adv-x="365" 
d="M276 808v-939h-187v939h187z" />
    <glyph glyph-name="braceright" unicode="}" horiz-adv-x="387" 
d="M303 400h68v-118h-68q-43 0 -43 -43q0 -22 42.5 -116.5t42.5 -139.5q0 -114 -179 -114h-155v119h76q53 0 53 44q0 19 -32.5 102t-32.5 118q0 36 24 57.5t80 32.5q-56 12 -80 36.5t-24 66.5q0 31 32.5 110t32.5 99q0 36 -45 36h-84v118h155q179 0 179 -121
q0 -44 -42.5 -136t-42.5 -116q0 -35 43 -35z" />
    <glyph glyph-name="asciitilde" unicode="~" horiz-adv-x="688" 
d="M513 243q-38 0 -72.5 9t-56 19.5t-67.5 35.5q-66 34 -81 36q-23 0 -23 -30v-87h-193v148q0 68 36.5 118t120.5 50q38 0 72 -9t55.5 -19.5t65.5 -34.5q68 -37 83 -37q22 0 22 31v88h193v-172q0 -60 -37 -103t-118 -43z" />
    <glyph glyph-name="exclamdown" unicode="&#xa1;" horiz-adv-x="354" 
d="M351 -206h-349l92 504h166zM35 343v195h283v-195h-283z" />
    <glyph glyph-name="cent" unicode="&#xa2;" horiz-adv-x="895" 
d="M882 232q0 -28 -5 -53.5t-27.5 -62.5t-61 -63.5t-113.5 -46.5t-176 -21v-62h-102v62q-95 2 -167 21.5t-111.5 47t-64 66.5t-31.5 72t-7 71v18q0 265 381 272v61h102v-61q99 -1 172.5 -20t112.5 -45t62.5 -61t29.5 -61t6 -53v-3h-277q-2 10 -6 20t-14.5 25.5t-32.5 27.5
t-53 17v-260q94 17 106 94h277v-2zM292 273q0 -111 105 -132v259q-105 -18 -105 -122v-5z" />
    <glyph glyph-name="sterling" unicode="&#xa3;" horiz-adv-x="954" 
d="M930 261v-261h-917v165h57q101 0 101 69v2q0 31 -15 79h-143v113h106q-15 52 -15 92v7q0 226 378 226h41q104 0 180 -18t115.5 -43.5t62.5 -64t28 -68.5t5 -68v-9h-278q-2 18 -6 31.5t-16 31t-39 27.5t-67 10q-74 0 -102.5 -28.5t-28.5 -75.5q0 -22 6 -50h352v-113h-332
q3 -20 3 -37q0 -74 -77 -113h311v96h290z" />
    <glyph glyph-name="yen" unicode="&#xa5;" horiz-adv-x="1010" 
d="M911 158h-258v-158h-285v158h-258v88h258v48h-258v88h192l-325 362h335l207 -245l210 245h305l-316 -362h193v-88h-258v-48h258v-88z" />
    <glyph glyph-name="brokenbar" unicode="&#xa6;" horiz-adv-x="365" 
d="M276 808v-425h-187v425h187zM276 328v-459h-187v459h187z" />
    <glyph glyph-name="section" unicode="&#xa7;" horiz-adv-x="950" 
d="M872 -7q0 -202 -376 -202h-55q-105 0 -182 16.5t-116.5 39t-63 56.5t-28.5 59t-5 56v4h269q1 -16 5.5 -27.5t18 -27t47 -24.5t84.5 -9h5q121 0 121 49v2q0 24 -22 38.5t-95 25.5l-204 30q-144 21 -204.5 71t-60.5 123v10q0 58 41 94t108 50q-86 46 -86 141v10q0 57 32 95
t118.5 61.5t230.5 23.5h56q99 0 170.5 -13t110 -32.5t61 -49.5t28 -55.5t5.5 -59.5v-3h-267q-6 74 -139 74h-7q-78 0 -103.5 -10.5t-25.5 -32.5v-2q0 -20 21 -33t88 -23l235 -34q142 -21 196.5 -65.5t54.5 -119.5v-10q0 -61 -43.5 -95.5t-105.5 -49.5q83 -44 83 -142v-9z
M370 245q203 -33 271 -47q32 19 32 53q0 27 -20.5 44t-78.5 27q-217 35 -273 48q-33 -16 -33 -53q0 -27 21.5 -44.5t80.5 -27.5z" />
    <glyph glyph-name="dieresis" unicode="&#xa8;" 
d="M326 744v-161h-237v161h237zM610 744v-161h-238v161h238z" />
    <glyph glyph-name="copyright" unicode="&#xa9;" horiz-adv-x="1179" 
d="M601 -12h-23q-558 0 -558 371v28q0 60 15 111t53.5 100t99.5 83t160.5 54.5t228.5 20.5h24q129 0 228.5 -21t161 -55t100 -83t53.5 -99.5t15 -110.5v-28q0 -371 -558 -371zM154 364q0 -282 425 -282h21q425 0 425 282v17q0 64 -20.5 113t-67.5 88.5t-131.5 60
t-205.5 20.5h-21q-121 0 -205.5 -20.5t-131.5 -60t-67.5 -88.5t-20.5 -113v-17zM941 336q0 -22 -5.5 -43.5t-26.5 -49.5t-55 -48t-97.5 -34t-148.5 -14h-21q-71 0 -127.5 10t-93 27.5t-61.5 38.5t-37.5 47t-17.5 48t-5 46v23q0 213 341 213h20q85 0 149 -14t98.5 -33.5
t55.5 -46.5t26.5 -47.5t5.5 -42.5v-7h-223q-17 61 -125 61q-127 0 -127 -89v-7q0 -40 29 -68t99 -28q107 0 124 68h223v-10z" />
    <glyph glyph-name="ordfeminine" unicode="&#xaa;" horiz-adv-x="603" 
d="M369 436q-60 -57 -176 -57h-8q-92 0 -133 32.5t-41 82.5v7q0 91 166 105l161 14q21 3 21 17q0 25 -72 25h-6q-25 0 -40.5 -3.5t-22 -9.5t-8 -10t-2.5 -10h-188v4q0 17 2.5 30t16 31t38 29t72.5 19.5t115 8.5h39q67 0 115 -7.5t73.5 -18t40.5 -27t18.5 -30t3.5 -30.5v-126
q0 -16 15 -16h22v-110h-164q-50 0 -58 50zM205 502q0 -31 53 -31q46 0 73.5 21.5t27.5 50.5v11l-111 -20q-43 -9 -43 -32z" />
    <glyph glyph-name="guillemotleft" unicode="&#xab;" horiz-adv-x="564" 
d="M439 287l110 -173h-185l-116 173l119 170h186zM198 287l116 -173h-185l-121 173l121 170h187z" />
    <glyph glyph-name="registered" unicode="&#xae;" horiz-adv-x="666" 
d="M317 756h35q89 0 151.5 -18.5t93 -50.5t43 -64t12.5 -70v-14q0 -38 -15 -72t-47.5 -64.5t-93.5 -48.5t-145 -18h-34q-88 0 -150.5 18t-94 49t-45 64t-13.5 72v14q0 29 7 55.5t27.5 54.5t53 47.5t88 32.5t127.5 13zM333 395h3q77 0 128 13.5t73 38.5t29 48t7 54
q0 24 -3.5 41.5t-17.5 38.5t-38.5 34.5t-70 23t-107.5 9.5h-3q-79 0 -130 -12.5t-73.5 -36t-29.5 -46t-7 -55.5q0 -24 3.5 -42t18 -40t39 -36t70.5 -23.5t109 -9.5zM291 509v-69h-113v214h222q99 0 99 -55v-1q0 -21 -15.5 -33t-35.5 -15q53 -9 53 -51v-35q0 -14 6 -21v-3
h-115q-5 5 -5 14v23q0 18 -7 25t-25 7h-64zM291 565h71q25 0 25 19q0 17 -25 17h-71v-36z" />
    <glyph glyph-name="macron" unicode="&#xaf;" 
d="M124 593v129h452v-129h-452z" />
    <glyph glyph-name="degree" unicode="&#xb0;" horiz-adv-x="424" 
d="M212 367q-88 0 -146.5 54t-58.5 140q0 85 58.5 139.5t146.5 54.5q87 0 146 -54.5t59 -139.5q0 -86 -58.5 -140t-146.5 -54zM212 483q36 0 58 21.5t22 56.5t-22 57t-58 22q-35 0 -57.5 -22t-22.5 -57q0 -34 22.5 -56t57.5 -22z" />
    <glyph glyph-name="two.sup" unicode="&#xb2;" horiz-adv-x="548" 
d="M534 486v-110h-524v47q0 32 7.5 53.5t31.5 47t77.5 44.5t137.5 33q34 6 53 11.5t24.5 10t5.5 11.5v1q0 22 -70 22q-76 0 -79 -43h-182v4q0 134 249 134h19q77 0 128.5 -9t77 -26.5t35.5 -37t10 -45.5v-5q0 -52 -51.5 -75.5t-184.5 -38.5q-122 -12 -135 -29h370z" />
    <glyph glyph-name="three.sup" unicode="&#xb3;" horiz-adv-x="563" 
d="M558 496q0 -26 -10 -46t-37 -39.5t-82.5 -30.5t-137.5 -11h-33q-66 0 -115 11t-74.5 26t-40.5 36t-19 35.5t-4 30.5v5h184q4 -40 86 -40q87 0 87 28v2q0 21 -43 21h-112v90h107q41 0 41 17v2q0 7 -5 11.5t-24.5 7.5t-54.5 3q-82 0 -82 -31h-178v5q0 13 2.5 24.5t16.5 31
t37.5 33t71.5 24t113 10.5h34q82 0 136.5 -8t78.5 -23t32.5 -29.5t8.5 -33.5v-4q0 -26 -21.5 -43t-55.5 -21q41 -6 67 -29.5t26 -60.5v-4z" />
    <glyph glyph-name="acute" unicode="&#xb4;" 
d="M171 583l89 161h268l-111 -161h-246z" />
    <glyph glyph-name="paragraph" unicode="&#xb6;" horiz-adv-x="805" 
d="M8 541q0 96 56 149.5t199 53.5h534v-124h-76v-620h-152v620h-98v-620h-151v316h-58q-131 0 -192.5 56t-61.5 150v19z" />
    <glyph glyph-name="periodcentered" unicode="&#xb7;" horiz-adv-x="338" 
d="M310 415v-195h-282v195h282z" />
    <glyph glyph-name="cedilla" unicode="&#xb8;" 
d="M534 -154q0 -49 -41.5 -77t-151.5 -28h-175v92h109q36 0 36 22t-36 22h-71v123h138v-49q112 0 152 -25.5t40 -76.5v-3z" />
    <glyph glyph-name="one.sup" unicode="&#xb9;" horiz-adv-x="328" 
d="M112 580h-100v93q103 4 132 71h154v-368h-186v204z" />
    <glyph glyph-name="ordmasculine" unicode="&#xba;" horiz-adv-x="629" 
d="M339 376h-49q-68 0 -120 12t-81.5 30.5t-47.5 44t-24 48.5t-6 49v11q0 26 6 48.5t24 47.5t47.5 43t81.5 29.5t120 11.5h50q278 0 278 -180v-11q0 -26 -5 -48.5t-22 -48.5t-46 -44.5t-82 -30.5t-124 -12zM213 565q0 -34 23.5 -57.5t77.5 -23.5h1q54 0 77.5 23.5t23.5 57.5
v2q0 33 -24 55.5t-77 22.5h-1q-54 0 -77.5 -22t-23.5 -56v-2z" />
    <glyph glyph-name="guillemotright" unicode="&#xbb;" horiz-adv-x="564" 
d="M556 287l-121 -173h-185l116 173l-118 170h187zM125 287l-114 170h186l119 -170l-116 -173h-185z" />
    <glyph glyph-name="onequarter" unicode="&#xbc;" horiz-adv-x="1000" 
d="M769 744h195l-820 -744h-189zM458 167l256 202h201v-190h75v-107h-75v-72h-185v72h-272v95zM112 580h-100v93q103 4 132 71h154v-368h-186v204zM603 179h127v100z" />
    <glyph glyph-name="onehalf" unicode="&#xbd;" horiz-adv-x="1074" 
d="M1059 0h-524v47q0 32 7.5 53.5t31.5 47t77.5 44.5t137.5 33q34 6 53 11.5t24.5 10t5.5 11.5v1q0 22 -70 22q-76 0 -79 -43h-182v4q0 134 249 134h19q77 0 128.5 -9t77 -26.5t35.5 -37t10 -45.5v-5q0 -52 -51.5 -75.5t-184.5 -38.5q-124 -16 -135 -29h370v-110zM769 744
h195l-820 -744h-189zM112 580h-100v93q103 4 132 71h154v-368h-186v204z" />
    <glyph glyph-name="threequarters" unicode="&#xbe;" horiz-adv-x="1191" 
d="M558 497q0 -26 -10 -46t-37 -39.5t-82.5 -30.5t-137.5 -11h-33q-66 0 -115 11t-74.5 26t-40.5 36t-19 35.5t-4 30.5v5h184q4 -40 86 -40q87 0 87 28v2q0 21 -43 21h-112v90h107q41 0 41 17v2q0 7 -5 11.5t-24.5 7.5t-54.5 3q-78 0 -82 -31h-178v5q0 13 2.5 24.5t16.5 31
t37.5 33t71.5 24t113 10.5h34q82 0 136.5 -8t78.5 -23t32.5 -29.5t8.5 -33.5v-4q0 -26 -21.5 -43t-55.5 -21q41 -6 67 -29.5t26 -60.5v-4zM959 744h195l-820 -744h-189zM650 167l256 202h201v-190h75v-107h-75v-72h-185v72h-272v95zM795 179h127v100z" />
    <glyph glyph-name="questiondown" unicode="&#xbf;" horiz-adv-x="893" 
d="M358 284v5h272v-67q0 -59 -29.5 -92t-126.5 -55l-99 -23q-52 -12 -70 -24.5t-18 -29.5q0 -15 7 -23t42 -15t101 -7q48 0 82 6.5t51 14.5t26.5 22t11 22t2.5 21h275v-12q0 -25 -1.5 -42.5t-10.5 -45.5t-24.5 -47t-46.5 -41t-74 -35.5t-110 -22.5t-151 -9h-53
q-101 0 -176.5 12.5t-118.5 32.5t-69 49t-34.5 56.5t-8.5 61.5v7q0 152 190 197l101 24q38 9 49 21.5t11 38.5zM351 343v195h281v-195h-281z" />
    <glyph glyph-name="Agrave" unicode="&#xc0;" horiz-adv-x="1101" 
d="M809 0l-58 120h-425l-57 -120h-288l368 744h382l389 -744h-311zM413 306h247l-125 256zM589 944l79 -155h-257l-101 155h279z" />
    <glyph glyph-name="Aacute" unicode="&#xc1;" horiz-adv-x="1101" 
d="M809 0l-58 120h-425l-57 -120h-288l368 744h382l389 -744h-311zM413 306h247l-125 256zM414 789l79 155h279l-101 -155h-257z" />
    <glyph glyph-name="Acircumflex" unicode="&#xc2;" horiz-adv-x="1101" 
d="M809 0l-58 120h-425l-57 -120h-288l368 744h382l389 -744h-311zM413 306h247l-125 256zM680 944l164 -155h-244l-62 58l-61 -58h-241l162 155h282z" />
    <glyph glyph-name="Atilde" unicode="&#xc3;" horiz-adv-x="1101" 
d="M809 0l-58 120h-425l-57 -120h-288l368 744h382l389 -744h-311zM413 306h247l-125 256zM668 793q-45 0 -135 29q-46 15 -60 15q-18 0 -18 -21v-29h-161v85q0 40 24.5 69t88.5 29h4q22 0 44.5 -4t36 -8t56.5 -17q45 -15 59 -15q17 0 17 20v29h161v-79q0 -103 -112 -103h-5
z" />
    <glyph glyph-name="Adieresis" unicode="&#xc4;" horiz-adv-x="1101" 
d="M809 0l-58 120h-425l-57 -120h-288l368 744h382l389 -744h-311zM413 306h247l-125 256zM516 944v-155h-246v155h246zM809 944v-155h-245v155h245z" />
    <glyph glyph-name="Aring" unicode="&#xc5;" horiz-adv-x="1101" 
d="M809 0l-58 120h-425l-57 -120h-288l368 744h382l389 -744h-311zM413 306h247l-125 256zM341 899q0 119 200 119q197 0 197 -119t-197 -119q-200 0 -200 119zM464 900q0 -46 77 -46q75 0 75 46q0 44 -75 44q-77 0 -77 -44z" />
    <glyph glyph-name="AE" unicode="&#xc6;" horiz-adv-x="1510" 
d="M665 0v116h-325l-83 -116h-286l540 744h960v-182h-526v-93h516v-181h-516v-102h534v-186h-814zM474 302h191v266z" />
    <glyph glyph-name="Ccedilla" unicode="&#xc7;" horiz-adv-x="1120" 
d="M755 -154q0 -49 -41.5 -77t-151.5 -28h-175v92h109q36 0 36 22t-36 22h-71v115q-100 11 -176 41t-118.5 67.5t-68.5 86t-34 89t-8 84.5v29q0 50 9.5 94t42.5 96.5t87.5 90t154 63t232.5 25.5h39q94 0 171.5 -12t129.5 -31t92.5 -46t63 -53.5t37 -57.5t19.5 -54.5t5 -46.5
v-13h-295q-3 11 -6.5 20t-20 28t-40.5 32t-70.5 23.5t-107.5 10.5q-249 0 -249 -174v-12q0 -33 11.5 -63t38 -59t78 -46t122.5 -17q62 0 109 11.5t71 25.5t40 35t19 30t6 20h294v-16q0 -28 -7.5 -57t-26.5 -65.5t-57 -68t-92.5 -58.5t-141 -42.5t-193.5 -15.5h-22v-35
q112 0 152 -25.5t40 -76.5v-3z" />
    <glyph glyph-name="Egrave" unicode="&#xc8;" horiz-adv-x="907" 
d="M536 944l79 -155h-257l-101 155h279zM45 744h823v-182h-543v-93h532v-181h-532v-102h551v-186h-831v744z" />
    <glyph glyph-name="Eacute" unicode="&#xc9;" horiz-adv-x="907" 
d="M326 789l79 155h279l-101 -155h-257zM45 744h823v-182h-543v-93h532v-181h-532v-102h551v-186h-831v744z" />
    <glyph glyph-name="Ecircumflex" unicode="&#xca;" horiz-adv-x="907" 
d="M607 944l164 -155h-244l-62 58l-61 -58h-241l162 155h282zM45 744h823v-182h-543v-93h532v-181h-532v-102h551v-186h-831v744z" />
    <glyph glyph-name="Edieresis" unicode="&#xcb;" horiz-adv-x="907" 
d="M45 744h823v-182h-543v-93h532v-181h-532v-102h551v-186h-831v744zM442 944v-155h-246v155h246zM735 944v-155h-245v155h245z" />
    <glyph glyph-name="Igrave" unicode="&#xcc;" horiz-adv-x="373" 
d="M328 744v-744h-283v744h283zM237 944l79 -155h-257l-101 155h279z" />
    <glyph glyph-name="Iacute" unicode="&#xcd;" horiz-adv-x="373" 
d="M328 744v-744h-283v744h283zM61 789l79 155h279l-101 -155h-257z" />
    <glyph glyph-name="Icircumflex" unicode="&#xce;" horiz-adv-x="373" 
d="M328 744v-744h-283v744h283zM327 944l164 -155h-244l-62 58l-61 -58h-241l162 155h282z" />
    <glyph glyph-name="Idieresis" unicode="&#xcf;" horiz-adv-x="373" 
d="M328 744v-744h-283v744h283zM163 944v-155h-246v155h246zM456 944v-155h-245v155h245z" />
    <glyph glyph-name="Eth" unicode="&#xd0;" horiz-adv-x="1142" 
d="M60 0v296h-61v157h61v291h529q124 0 220 -20t154.5 -53t96 -79.5t51.5 -95t14 -104.5v-30q0 -55 -12.5 -103t-49 -97.5t-94 -84t-155 -56t-225.5 -21.5h-529zM344 549v-96h301v-157h-301v-99h211q275 0 275 174v6q0 172 -275 172h-211z" />
    <glyph glyph-name="Ntilde" unicode="&#xd1;" horiz-adv-x="1122" 
d="M693 793q-45 0 -135 29q-46 15 -60 15q-18 0 -18 -21v-29h-161v85q0 40 24.5 69t88.5 29h4q22 0 44.5 -4t36 -8t56.5 -17q45 -15 59 -15q17 0 17 20v29h161v-79q0 -103 -112 -103h-5zM45 744h318l432 -423v423h282v-744h-284l-466 451v-451h-282v744z" />
    <glyph glyph-name="Ograve" unicode="&#xd2;" horiz-adv-x="1170" 
d="M636 944l78 -152h-257l-100 152h279zM563 758h45q137 0 240 -25.5t159 -63t90 -90.5t43.5 -96.5t9.5 -93.5v-30q0 -34 -4.5 -65t-19 -69.5t-38 -71t-65.5 -64.5t-97 -54t-136.5 -35.5t-181.5 -13.5h-45q-100 0 -181.5 13.5t-137 35.5t-97.5 54t-65.5 64.5t-38 71
t-19 69.5t-4.5 65v30q0 34 4.5 65t19 69.5t38 70.5t65.5 63t97.5 52.5t137 35t181.5 13.5zM856 382q0 33 -12 61.5t-40 55.5t-84 43t-135 16q-80 0 -136 -16t-84 -43t-39.5 -55.5t-11.5 -61.5v-12q0 -33 12 -62.5t40 -58t84.5 -45.5t134.5 -17t134.5 16.5t84.5 45t40 57.5
t12 62v14z" />
    <glyph glyph-name="Oacute" unicode="&#xd3;" horiz-adv-x="1170" 
d="M459 792l79 152h279l-101 -152h-257zM563 758h45q137 0 240 -25.5t159 -63t90 -90.5t43.5 -96.5t9.5 -93.5v-30q0 -34 -4.5 -65t-19 -69.5t-38 -71t-65.5 -64.5t-97 -54t-136.5 -35.5t-181.5 -13.5h-45q-100 0 -181.5 13.5t-137 35.5t-97.5 54t-65.5 64.5t-38 71
t-19 69.5t-4.5 65v30q0 34 4.5 65t19 69.5t38 70.5t65.5 63t97.5 52.5t137 35t181.5 13.5zM856 382q0 33 -12 61.5t-40 55.5t-84 43t-135 16q-80 0 -136 -16t-84 -43t-39.5 -55.5t-11.5 -61.5v-12q0 -33 12 -62.5t40 -58t84.5 -45.5t134.5 -17t134.5 16.5t84.5 45t40 57.5
t12 62v14z" />
    <glyph glyph-name="Ocircumflex" unicode="&#xd4;" horiz-adv-x="1170" 
d="M728 944l161 -153h-244l-61 58l-62 -58h-241l159 153h288zM563 758h45q137 0 240 -25.5t159 -63t90 -90.5t43.5 -96.5t9.5 -93.5v-30q0 -34 -4.5 -65t-19 -69.5t-38 -71t-65.5 -64.5t-97 -54t-136.5 -35.5t-181.5 -13.5h-45q-100 0 -181.5 13.5t-137 35.5t-97.5 54
t-65.5 64.5t-38 71t-19 69.5t-4.5 65v30q0 34 4.5 65t19 69.5t38 70.5t65.5 63t97.5 52.5t137 35t181.5 13.5zM856 382q0 33 -12 61.5t-40 55.5t-84 43t-135 16q-80 0 -136 -16t-84 -43t-39.5 -55.5t-11.5 -61.5v-12q0 -33 12 -62.5t40 -58t84.5 -45.5t134.5 -17t134.5 16.5
t84.5 45t40 57.5t12 62v14z" />
    <glyph glyph-name="Otilde" unicode="&#xd5;" horiz-adv-x="1170" 
d="M712 795q-45 0 -135 29q-47 15 -60 15q-18 0 -18 -21v-29h-161v85q0 40 24.5 69t88.5 29h4q22 0 44.5 -4t36 -8t56.5 -17q45 -15 59 -15q17 0 17 20v29h161v-79q0 -103 -112 -103h-5zM563 758h45q137 0 240 -25.5t159 -63t90 -90.5t43.5 -96.5t9.5 -93.5v-30
q0 -34 -4.5 -65t-19 -69.5t-38 -71t-65.5 -64.5t-97 -54t-136.5 -35.5t-181.5 -13.5h-45q-100 0 -181.5 13.5t-137 35.5t-97.5 54t-65.5 64.5t-38 71t-19 69.5t-4.5 65v30q0 34 4.5 65t19 69.5t38 70.5t65.5 63t97.5 52.5t137 35t181.5 13.5zM856 382q0 33 -12 61.5
t-40 55.5t-84 43t-135 16q-80 0 -136 -16t-84 -43t-39.5 -55.5t-11.5 -61.5v-12q0 -33 12 -62.5t40 -58t84.5 -45.5t134.5 -17t134.5 16.5t84.5 45t40 57.5t12 62v14z" />
    <glyph glyph-name="Odieresis" unicode="&#xd6;" horiz-adv-x="1170" 
d="M561 944v-152h-246v152h246zM856 944v-152h-247v152h247zM563 758h45q137 0 240 -25.5t159 -63t90 -90.5t43.5 -96.5t9.5 -93.5v-30q0 -34 -4.5 -65t-19 -69.5t-38 -71t-65.5 -64.5t-97 -54t-136.5 -35.5t-181.5 -13.5h-45q-100 0 -181.5 13.5t-137 35.5t-97.5 54
t-65.5 64.5t-38 71t-19 69.5t-4.5 65v30q0 34 4.5 65t19 69.5t38 70.5t65.5 63t97.5 52.5t137 35t181.5 13.5zM856 382q0 33 -12 61.5t-40 55.5t-84 43t-135 16q-80 0 -136 -16t-84 -43t-39.5 -55.5t-11.5 -61.5v-12q0 -33 12 -62.5t40 -58t84.5 -45.5t134.5 -17t134.5 16.5
t84.5 45t40 57.5t12 62v14z" />
    <glyph glyph-name="multiply" unicode="&#xd7;" horiz-adv-x="545" 
d="M535 178l-107 -117l-156 139l-154 -139l-109 118l143 129l-142 126l106 120l155 -139l154 139l110 -118l-144 -129z" />
    <glyph glyph-name="Oslash" unicode="&#xd8;" horiz-adv-x="1175" 
d="M1156 358q0 -49 -9.5 -93t-44 -97t-91 -91t-159.5 -64t-241 -26h-46q-181 0 -300 47l-44 -34h-230q72 55 140 108q-112 96 -112 250v30q0 34 4.5 65.5t19 69.5t38.5 70t66 63t97.5 52.5t137.5 35t183 13.5h46q175 0 294 -46l43 33h231l-138 -107q115 -95 115 -249v-30z
M310 370q0 -58 31 -100l364 285q-48 6 -118 6q-81 0 -138 -15.5t-86 -42.5t-41 -56t-12 -64v-13zM865 383q0 57 -29 97l-369 -288q58 -7 120 -7q80 0 137 16t86.5 44t42 58.5t12.5 65.5v14z" />
    <glyph glyph-name="Ugrave" unicode="&#xd9;" horiz-adv-x="1098" 
d="M37 389v355h285v-333q0 -38 10 -70.5t33 -63t70.5 -48.5t114.5 -18q66 0 113 18t70.5 48.5t33.5 63t10 70.5v333h284v-355q0 -41 -7.5 -80.5t-25.5 -87t-54 -87.5t-87.5 -74t-133 -53t-182.5 -19h-40q-124 0 -217 28.5t-144.5 70.5t-83 99.5t-40.5 104.5t-9 98zM610 943
l79 -155h-257l-101 155h279z" />
    <glyph glyph-name="Uacute" unicode="&#xda;" horiz-adv-x="1098" 
d="M37 389v355h285v-333q0 -38 10 -70.5t33 -63t70.5 -48.5t114.5 -18q66 0 113 18t70.5 48.5t33.5 63t10 70.5v333h284v-355q0 -41 -7.5 -80.5t-25.5 -87t-54 -87.5t-87.5 -74t-133 -53t-182.5 -19h-40q-124 0 -217 28.5t-144.5 70.5t-83 99.5t-40.5 104.5t-9 98zM409 789
l79 155h279l-101 -155h-257z" />
    <glyph glyph-name="Ucircumflex" unicode="&#xdb;" horiz-adv-x="1098" 
d="M37 389v355h285v-333q0 -38 10 -70.5t33 -63t70.5 -48.5t114.5 -18q66 0 113 18t70.5 48.5t33.5 63t10 70.5v333h284v-355q0 -41 -7.5 -80.5t-25.5 -87t-54 -87.5t-87.5 -74t-133 -53t-182.5 -19h-40q-124 0 -217 28.5t-144.5 70.5t-83 99.5t-40.5 104.5t-9 98zM688 944
l164 -155h-244l-62 58l-61 -58h-241l162 155h282z" />
    <glyph glyph-name="Udieresis" unicode="&#xdc;" horiz-adv-x="1098" 
d="M37 389v355h285v-333q0 -38 10 -70.5t33 -63t70.5 -48.5t114.5 -18q66 0 113 18t70.5 48.5t33.5 63t10 70.5v333h284v-355q0 -41 -7.5 -80.5t-25.5 -87t-54 -87.5t-87.5 -74t-133 -53t-182.5 -19h-40q-124 0 -217 28.5t-144.5 70.5t-83 99.5t-40.5 104.5t-9 98zM525 944
v-155h-246v155h246zM818 944v-155h-245v155h245z" />
    <glyph glyph-name="Yacute" unicode="&#xdd;" horiz-adv-x="1043" 
d="M668 278v-278h-284v280l-407 464h340l217 -257l221 257h311zM400 789l79 155h279l-101 -155h-257z" />
    <glyph glyph-name="Thorn" unicode="&#xde;" horiz-adv-x="1029" 
d="M658 120h-329v-120h-284v744h284v-112h329q196 0 277 -65t81 -182v-15q0 -250 -358 -250zM329 447v-140h299q46 0 69.5 18.5t23.5 50.5v3q0 68 -93 68h-299z" />
    <glyph glyph-name="germandbls" unicode="&#xdf;" horiz-adv-x="910" 
d="M708 435q84 -15 136.5 -63.5t52.5 -131.5v-12q0 -228 -317 -228h-216v169h130q67 0 92 18.5t25 50.5v2q0 32 -24.5 50t-91.5 18h-131v170h120q94 0 94 54v1q0 12 -3.5 20.5t-15 18t-38.5 14.5t-69 5h-21q-70 0 -96 -19t-26 -61v-511h-272v527q0 34 6.5 61t28.5 57.5
t59 51t104.5 34t158.5 13.5h78q98 0 169 -11.5t108.5 -27.5t59 -41t26.5 -45t5 -47v-7q0 -52 -38 -86.5t-94 -43.5z" />
    <glyph glyph-name="agrave" unicode="&#xe0;" horiz-adv-x="840" 
d="M527 585h-247l-111 159h270zM523 72q-79 -82 -252 -82h-11q-126 0 -187.5 50t-61.5 123v12q0 70 50.5 108t167.5 48l259 23q30 3 30 26q0 12 -6.5 19.5t-34 14.5t-76.5 7h-4q-40 0 -66 -5.5t-37 -16t-14 -17t-4 -16.5h-252v6q0 27 4.5 47t24.5 47t54.5 44t102 29.5
t159.5 12.5h56q96 0 166 -11.5t106 -28t57 -42t25.5 -45t4.5 -46.5v-199q0 -23 23 -23h29v-157h-226q-75 0 -87 72zM518 231v23l-180 -32q-36 -6 -51 -16t-15 -30v-1q0 -22 20 -38.5t65 -16.5q72 0 116.5 33t44.5 78z" />
    <glyph glyph-name="aacute" unicode="&#xe1;" horiz-adv-x="840" 
d="M277 585l87 159h269l-111 -159h-245zM523 72q-79 -82 -252 -82h-11q-126 0 -187.5 50t-61.5 123v12q0 70 50.5 108t167.5 48l259 23q30 3 30 26q0 12 -6.5 19.5t-34 14.5t-76.5 7h-4q-40 0 -66 -5.5t-37 -16t-14 -17t-4 -16.5h-252v6q0 27 4.5 47t24.5 47t54.5 44
t102 29.5t159.5 12.5h56q96 0 166 -11.5t106 -28t57 -42t25.5 -45t4.5 -46.5v-199q0 -23 23 -23h29v-157h-226q-75 0 -87 72zM518 231v23l-180 -32q-36 -6 -51 -16t-15 -30v-1q0 -22 20 -38.5t65 -16.5q72 0 116.5 33t44.5 78z" />
    <glyph glyph-name="acircumflex" unicode="&#xe2;" horiz-adv-x="840" 
d="M538 744l153 -160h-236l-58 64l-58 -64h-234l153 160h280zM523 72q-79 -82 -252 -82h-11q-126 0 -187.5 50t-61.5 123v12q0 70 50.5 108t167.5 48l259 23q30 3 30 26q0 12 -6.5 19.5t-34 14.5t-76.5 7h-4q-40 0 -66 -5.5t-37 -16t-14 -17t-4 -16.5h-252v6q0 27 4.5 47
t24.5 47t54.5 44t102 29.5t159.5 12.5h56q96 0 166 -11.5t106 -28t57 -42t25.5 -45t4.5 -46.5v-199q0 -23 23 -23h29v-157h-226q-75 0 -87 72zM518 231v23l-180 -32q-36 -6 -51 -16t-15 -30v-1q0 -22 20 -38.5t65 -16.5q72 0 116.5 33t44.5 78z" />
    <glyph glyph-name="atilde" unicode="&#xe3;" horiz-adv-x="840" 
d="M523 72q-79 -82 -252 -82h-11q-126 0 -187.5 50t-61.5 123v12q0 70 50.5 108t167.5 48l259 23q30 3 30 26q0 12 -6.5 19.5t-34 14.5t-76.5 7h-4q-40 0 -66 -5.5t-37 -16t-14 -17t-4 -16.5h-252v6q0 27 4.5 47t24.5 47t54.5 44t102 29.5t159.5 12.5h56q96 0 166 -11.5
t106 -28t57 -42t25.5 -45t4.5 -46.5v-199q0 -23 23 -23h29v-157h-226q-75 0 -87 72zM518 231v23l-180 -32q-36 -6 -51 -16t-15 -30v-1q0 -22 20 -38.5t65 -16.5q72 0 116.5 33t44.5 78zM522 587q-42 0 -132 29q-45 14 -56 14q-16 0 -16 -21v-27h-159v81q0 40 24 68.5
t86 28.5h4q49 0 133 -28q43 -15 55 -15q15 0 15 20v29h160v-76q0 -103 -110 -103h-4z" />
    <glyph glyph-name="adieresis" unicode="&#xe4;" horiz-adv-x="840" 
d="M375 744v-159h-238v159h238zM660 744v-159h-239v159h239zM523 72q-79 -82 -252 -82h-11q-126 0 -187.5 50t-61.5 123v12q0 70 50.5 108t167.5 48l259 23q30 3 30 26q0 12 -6.5 19.5t-34 14.5t-76.5 7h-4q-40 0 -66 -5.5t-37 -16t-14 -17t-4 -16.5h-252v6q0 27 4.5 47
t24.5 47t54.5 44t102 29.5t159.5 12.5h56q96 0 166 -11.5t106 -28t57 -42t25.5 -45t4.5 -46.5v-199q0 -23 23 -23h29v-157h-226q-75 0 -87 72zM518 231v23l-180 -32q-36 -6 -51 -16t-15 -30v-1q0 -22 20 -38.5t65 -16.5q72 0 116.5 33t44.5 78z" />
    <glyph glyph-name="aring" unicode="&#xe5;" horiz-adv-x="840" 
d="M523 72q-79 -82 -252 -82h-11q-126 0 -187.5 50t-61.5 123v12q0 70 50.5 108t167.5 48l259 23q30 3 30 26q0 12 -6.5 19.5t-34 14.5t-76.5 7h-4q-40 0 -66 -5.5t-37 -16t-14 -17t-4 -16.5h-252v6q0 27 4.5 47t24.5 47t54.5 44t102 29.5t159.5 12.5h56q96 0 166 -11.5
t106 -28t57 -42t25.5 -45t4.5 -46.5v-199q0 -23 23 -23h29v-157h-226q-75 0 -87 72zM518 231v23l-180 -32q-36 -6 -51 -16t-15 -30v-1q0 -22 20 -38.5t65 -16.5q72 0 116.5 33t44.5 78zM200 696q0 118 198 118q195 0 195 -118q0 -119 -195 -119q-198 0 -198 119zM323 696
q0 -45 75 -45q73 0 73 45q0 44 -73 44q-75 0 -75 -44z" />
    <glyph glyph-name="ae" unicode="&#xe6;" horiz-adv-x="1375" 
d="M1359 194q0 -27 -7 -51t-31.5 -54t-65 -51.5t-115 -36.5t-174.5 -15h-55q-242 0 -342 113q-96 -109 -282 -109h-11q-138 0 -201.5 49.5t-63.5 123.5v12q0 70 51 109t166 48l263 23q23 3 23 26v1q0 11 -6.5 18.5t-33.5 13.5t-76 6h-5q-40 0 -65.5 -5.5t-35.5 -15.5
t-12.5 -16.5t-3.5 -16.5h-251v6q0 26 3.5 45.5t23 46.5t53.5 44.5t101 30.5t160 13h55q179 0 250 -50q80 50 237 50h57q101 0 176 -19t116 -46.5t65.5 -69t31.5 -77.5t7 -80v-30h-582q16 -99 162 -99h1q37 0 66 6t44 13.5t25 18t13 16.5t3 11h266v-2zM936 421
q-134 0 -154 -81h310q-18 81 -154 81h-2zM356 119q71 0 114.5 33.5t43.5 78.5v23l-178 -31q-35 -6 -50 -16t-15 -30v-1q0 -23 20 -40t65 -17z" />
    <glyph glyph-name="ccedilla" unicode="&#xe7;" horiz-adv-x="881" 
d="M625 -154q0 -49 -41.5 -77t-151.5 -28h-175v92h109q36 0 36 22t-36 22h-71v116q-279 38 -279 270v18q0 272 395 272h62q102 0 178.5 -18.5t116.5 -44t64.5 -61.5t30.5 -62t6 -54v-3h-278q-2 12 -7 24t-19.5 29.5t-46 28.5t-76.5 11h-4q-79 0 -112.5 -35.5t-33.5 -89.5v-5
q0 -57 34 -96.5t112 -39.5h4q44 0 75.5 11.5t46 30t20 31t7.5 24.5h278v-2q0 -19 -2.5 -37t-12 -43.5t-25.5 -47.5t-46.5 -44.5t-71 -38.5t-102 -26t-137.5 -10h-39v-34q112 0 152 -25.5t40 -76.5v-3z" />
    <glyph glyph-name="egrave" unicode="&#xe8;" horiz-adv-x="882" 
d="M563 585h-247l-110 159h270zM866 194q0 -27 -7 -51t-32 -54.5t-66 -52t-116.5 -36.5t-175.5 -15h-53q-95 0 -168 17t-116 44t-70 64.5t-36.5 74t-9.5 77.5v20q0 271 397 271h55q73 0 132.5 -9.5t100.5 -25.5t71.5 -40t48.5 -48.5t29 -55t14.5 -57t3.5 -57.5v-30h-585
q16 -99 163 -99h1q36 0 64.5 5.5t44 13.5t25.5 18t13 16.5t4 11.5h268v-2zM441 421q-133 0 -155 -81h310q-16 81 -155 81z" />
    <glyph glyph-name="eacute" unicode="&#xe9;" horiz-adv-x="882" 
d="M321 585l87 159h269l-110 -159h-246zM866 194q0 -27 -7 -51t-32 -54.5t-66 -52t-116.5 -36.5t-175.5 -15h-53q-95 0 -168 17t-116 44t-70 64.5t-36.5 74t-9.5 77.5v20q0 271 397 271h55q73 0 132.5 -9.5t100.5 -25.5t71.5 -40t48.5 -48.5t29 -55t14.5 -57t3.5 -57.5v-30
h-585q16 -99 163 -99h1q36 0 64.5 5.5t44 13.5t25.5 18t13 16.5t4 11.5h268v-2zM441 421q-133 0 -155 -81h310q-16 81 -155 81z" />
    <glyph glyph-name="ecircumflex" unicode="&#xea;" horiz-adv-x="882" 
d="M582 744l153 -159h-236l-58 63l-58 -63h-233l152 159h280zM866 194q0 -27 -7 -51t-32 -54.5t-66 -52t-116.5 -36.5t-175.5 -15h-53q-95 0 -168 17t-116 44t-70 64.5t-36.5 74t-9.5 77.5v20q0 271 397 271h55q73 0 132.5 -9.5t100.5 -25.5t71.5 -40t48.5 -48.5t29 -55
t14.5 -57t3.5 -57.5v-30h-585q16 -99 163 -99h1q36 0 64.5 5.5t44 13.5t25.5 18t13 16.5t4 11.5h268v-2zM441 421q-133 0 -155 -81h310q-16 81 -155 81z" />
    <glyph glyph-name="edieresis" unicode="&#xeb;" horiz-adv-x="882" 
d="M468 553q73 0 132.5 -9.5t100.5 -25.5t71.5 -40t48.5 -48.5t29 -55t14.5 -57t3.5 -57.5v-30h-585q16 -99 163 -99h1q36 0 64.5 5.5t44 13.5t25.5 18t13 16.5t4 11.5h268v-2q0 -27 -7 -51t-32 -54.5t-66 -52t-116.5 -36.5t-175.5 -15h-53q-95 0 -168 17t-116 44t-70 64.5
t-36.5 74t-9.5 77.5v20q0 271 397 271h55zM704 744v-159h-239v159h239zM419 744v-159h-238v159h238zM441 421q-135 0 -155 -81h310q-17 81 -155 81z" />
    <glyph glyph-name="igrave" unicode="&#xec;" horiz-adv-x="346" 
d="M309 538v-538h-272v538h272zM297 583h-247l-111 161h270z" />
    <glyph glyph-name="iacute" unicode="&#xed;" horiz-adv-x="346" 
d="M51 583l89 161h268l-111 -161h-246zM309 538v-538h-272v538h272z" />
    <glyph glyph-name="icircumflex" unicode="&#xee;" horiz-adv-x="346" 
d="M298 744l109 -161h-192l-44 66l-43 -66h-190l109 161h251zM309 538v-538h-272v538h272z" />
    <glyph glyph-name="idieresis" unicode="&#xef;" horiz-adv-x="346" 
d="M154 744v-161h-188v161h188zM380 744v-161h-189v161h189zM309 538v-538h-272v538h272z" />
    <glyph glyph-name="eth" unicode="&#xf0;" horiz-adv-x="921" 
d="M905 282q0 -43 -6 -77.5t-31 -78t-68 -72t-124 -49t-192 -20.5h-55q-118 0 -202.5 24t-128.5 65t-63 85.5t-19 95.5v23q0 52 15.5 96t50 82t97.5 59.5t150 21.5h14q125 0 221 -48l-132 95l-276 -30v91l166 18l-111 81h327l70 -50l213 23v-91l-102 -11q100 -73 143 -147
t43 -166v-20zM629 269v4q0 52 -39 89t-129 37h-2q-92 0 -130 -36.5t-38 -89.5v-4q0 -54 38.5 -92.5t129.5 -38.5h1q91 0 130 38.5t39 92.5z" />
    <glyph glyph-name="ntilde" unicode="&#xf1;" horiz-adv-x="891" 
d="M37 0v538h270v-95q111 107 278 107h6q72 0 125.5 -19.5t82.5 -51t42.5 -65t13.5 -68.5v-346h-273v257q0 57 -31.5 90.5t-98.5 33.5t-105 -36.5t-38 -94.5v-250h-272zM570 585q-42 0 -132 29q-45 14 -56 14q-16 0 -16 -21v-27h-159v81q0 40 24 68.5t86 28.5h4
q49 0 133 -28q43 -15 55 -15q15 0 15 20v29h160v-76q0 -103 -110 -103h-4z" />
    <glyph glyph-name="ograve" unicode="&#xf2;" horiz-adv-x="921" 
d="M584 585h-247l-110 159h270zM424 -15q-99 0 -174.5 18.5t-118.5 46t-70 66.5t-36 74t-9 74v16q0 38 9 72.5t35.5 72.5t69.5 65t118.5 45t174.5 18h76q406 0 406 -272v-18q0 -40 -7 -73.5t-32.5 -73t-67.5 -67t-119 -46t-181 -18.5h-74zM461 401q-92 0 -130.5 -36.5
t-38.5 -89.5v-4q0 -54 39 -93.5t130 -39.5h1q91 0 129.5 40t38.5 93v4q0 52 -38.5 89t-129.5 37h-1z" />
    <glyph glyph-name="oacute" unicode="&#xf3;" horiz-adv-x="921" 
d="M337 585l88 159h268l-110 -159h-246zM424 -15q-99 0 -174.5 18.5t-118.5 46t-70 66.5t-36 74t-9 74v16q0 38 9 72.5t35.5 72.5t69.5 65t118.5 45t174.5 18h76q406 0 406 -272v-18q0 -40 -7 -73.5t-32.5 -73t-67.5 -67t-119 -46t-181 -18.5h-74zM461 401
q-92 0 -130.5 -36.5t-38.5 -89.5v-4q0 -54 39 -93.5t130 -39.5h1q91 0 129.5 40t38.5 93v4q0 52 -38.5 89t-129.5 37h-1z" />
    <glyph glyph-name="ocircumflex" unicode="&#xf4;" horiz-adv-x="921" 
d="M600 744l154 -159h-237l-58 63l-58 -63h-233l152 159h280zM424 -15q-99 0 -174.5 18.5t-118.5 46t-70 66.5t-36 74t-9 74v16q0 38 9 72.5t35.5 72.5t69.5 65t118.5 45t174.5 18h76q406 0 406 -272v-18q0 -40 -7 -73.5t-32.5 -73t-67.5 -67t-119 -46t-181 -18.5h-74z
M461 401q-92 0 -130.5 -36.5t-38.5 -89.5v-4q0 -54 39 -93.5t130 -39.5h1q91 0 129.5 40t38.5 93v4q0 52 -38.5 89t-129.5 37h-1z" />
    <glyph glyph-name="otilde" unicode="&#xf5;" horiz-adv-x="921" 
d="M424 -15q-99 0 -174.5 18.5t-118.5 46t-70 66.5t-36 74t-9 74v16q0 38 9 72.5t35.5 72.5t69.5 65t118.5 45t174.5 18h76q406 0 406 -272v-18q0 -40 -7 -73.5t-32.5 -73t-67.5 -67t-119 -46t-181 -18.5h-74zM461 401q-92 0 -130.5 -36.5t-38.5 -89.5v-4q0 -54 39 -93.5
t130 -39.5h1q91 0 129.5 40t38.5 93v4q0 52 -38.5 89t-129.5 37h-1zM583 587q-42 0 -132 29q-45 14 -56 14q-16 0 -16 -21v-27h-159v81q0 40 24 68.5t86 28.5h4q49 0 133 -28q43 -15 55 -15q15 0 15 20v29h160v-76q0 -103 -110 -103h-4z" />
    <glyph glyph-name="odieresis" unicode="&#xf6;" horiz-adv-x="921" 
d="M437 744v-159h-238v159h238zM722 744v-159h-239v159h239zM424 -15q-99 0 -174.5 18.5t-118.5 46t-70 66.5t-36 74t-9 74v16q0 38 9 72.5t35.5 72.5t69.5 65t118.5 45t174.5 18h76q406 0 406 -272v-18q0 -40 -7 -73.5t-32.5 -73t-67.5 -67t-119 -46t-181 -18.5h-74z
M461 401q-92 0 -130.5 -36.5t-38.5 -89.5v-4q0 -54 39 -93.5t130 -39.5h1q91 0 129.5 40t38.5 93v4q0 52 -38.5 89t-129.5 37h-1z" />
    <glyph glyph-name="divide" unicode="&#xf7;" horiz-adv-x="608" 
d="M404 592v-160h-200v160h200zM27 384h554v-151h-554v151zM404 183v-160h-200v160h200z" />
    <glyph glyph-name="oslash" unicode="&#xf8;" horiz-adv-x="921" 
d="M905 263q0 -278 -409 -278h-74q-133 0 -225 39l-37 -24h-177l118 82q-85 66 -85 182v16q0 38 9 72.5t36 72.5t70 65t119 45t175 18h75q127 0 223 -38l34 23h180l-115 -79q83 -69 83 -178v-18zM286 271q0 -29 10 -55l254 176q-39 12 -88 12h-2q-95 0 -134.5 -37.5
t-39.5 -91.5v-4zM461 136h1q94 0 134 40.5t40 94.5v4q0 28 -8 49l-253 -176q34 -12 86 -12z" />
    <glyph glyph-name="ugrave" unicode="&#xf9;" horiz-adv-x="881" 
d="M844 538v-538h-270v96q-108 -108 -273 -108h-7q-71 0 -124 20t-80.5 53t-40.5 67t-13 70v340h273v-257q0 -56 30 -90t94 -34q65 0 102.5 37t37.5 94v250h271zM567 583h-247l-111 161h270z" />
    <glyph glyph-name="uacute" unicode="&#xfa;" horiz-adv-x="881" 
d="M312 583l89 161h268l-111 -161h-246zM844 538v-538h-270v96q-108 -108 -273 -108h-7q-71 0 -124 20t-80.5 53t-40.5 67t-13 70v340h273v-257q0 -56 30 -90t94 -34q65 0 102.5 37t37.5 94v250h271z" />
    <glyph glyph-name="ucircumflex" unicode="&#xfb;" horiz-adv-x="881" 
d="M580 744l153 -162h-237l-58 66l-58 -66h-233l152 162h281zM844 538v-538h-270v96q-108 -108 -273 -108h-7q-71 0 -124 20t-80.5 53t-40.5 67t-13 70v340h273v-257q0 -56 30 -90t94 -34q65 0 102.5 37t37.5 94v250h271z" />
    <glyph glyph-name="udieresis" unicode="&#xfc;" horiz-adv-x="881" 
d="M416 744v-161h-237v161h237zM700 744v-161h-238v161h238zM844 538v-538h-270v96q-108 -108 -273 -108h-7q-71 0 -124 20t-80.5 53t-40.5 67t-13 70v340h273v-257q0 -56 30 -90t94 -34q65 0 102.5 37t37.5 94v250h271z" />
    <glyph glyph-name="yacute" unicode="&#xfd;" horiz-adv-x="821" 
d="M576 -23q-40 -87 -88 -126t-119 -39h-253v166h122q25 0 25 17v1q0 11 -23 54l-254 488h290l150 -346l139 346h270zM289 583l89 161h268l-111 -161h-246z" />
    <glyph glyph-name="thorn" unicode="&#xfe;" horiz-adv-x="927" 
d="M37 744h272v-281q18 16 42.5 31.5t86.5 34.5t133 19h21q89 0 153.5 -21.5t99.5 -60t50.5 -83t15.5 -98.5v-21q0 -54 -16.5 -100.5t-52 -86.5t-101 -63.5t-155.5 -23.5h-19q-70 0 -130.5 16.5t-86.5 31t-41 28.5v-254h-272v932zM309 272v-4q0 -50 43 -89t124 -39h5
q82 0 118 38t36 90v4q0 54 -35.5 90.5t-118.5 36.5h-5q-83 0 -125 -37t-42 -90z" />
    <glyph glyph-name="ydieresis" unicode="&#xff;" horiz-adv-x="821" 
d="M576 -23q-40 -87 -88 -126t-119 -39h-253v166h122q25 0 25 17v1q0 11 -23 54l-254 488h290l150 -346l139 346h270zM398 744v-161h-237v161h237zM682 744v-161h-238v161h238z" />
    <glyph glyph-name="Amacron" unicode="&#x100;" horiz-adv-x="1101" 
d="M809 0l-58 120h-425l-57 -120h-288l368 744h382l389 -744h-311zM413 306h247l-125 256zM305 797v132h469v-132h-469z" />
    <glyph glyph-name="amacron" unicode="&#x101;" horiz-adv-x="840" 
d="M523 72q-79 -82 -252 -82h-11q-126 0 -187.5 50t-61.5 123v12q0 70 50.5 108t167.5 48l259 23q30 3 30 26q0 12 -6.5 19.5t-34 14.5t-76.5 7h-4q-40 0 -66 -5.5t-37 -16t-14 -17t-4 -16.5h-252v6q0 27 4.5 47t24.5 47t54.5 44t102 29.5t159.5 12.5h56q96 0 166 -11.5
t106 -28t57 -42t25.5 -45t4.5 -46.5v-199q0 -23 23 -23h29v-157h-226q-75 0 -87 72zM518 231v23l-180 -32q-36 -6 -51 -16t-15 -30v-1q0 -22 20 -38.5t65 -16.5q72 0 116.5 33t44.5 78zM173 594v129h452v-129h-452z" />
    <glyph glyph-name="Abreve" unicode="&#x102;" horiz-adv-x="1101" 
d="M809 0l-58 120h-425l-57 -120h-288l368 744h382l389 -744h-311zM784 952q0 -23 -10.5 -49.5t-33.5 -55t-69.5 -47t-109.5 -18.5h-40q-68 0 -116.5 18.5t-70 47.5t-30.5 54.5t-9 49.5v2h183q1 -10 4.5 -19t19 -19.5t40.5 -10.5t40 10.5t18.5 20t3.5 18.5h180v-2zM413 306
h247l-125 256z" />
    <glyph glyph-name="abreve" unicode="&#x103;" horiz-adv-x="840" 
d="M523 72q-79 -82 -252 -82h-11q-126 0 -187.5 50t-61.5 123v12q0 70 50.5 108t167.5 48l259 23q30 3 30 26q0 12 -6.5 19.5t-34 14.5t-76.5 7h-4q-40 0 -66 -5.5t-37 -16t-14 -17t-4 -16.5h-252v6q0 27 4.5 47t24.5 47t54.5 44t102 29.5t159.5 12.5h56q96 0 166 -11.5
t106 -28t57 -42t25.5 -45t4.5 -46.5v-199q0 -23 23 -23h29v-157h-226q-75 0 -87 72zM642 742q0 -22 -11 -48t-34 -53t-69 -45t-107 -18h-40q-54 0 -96 12.5t-65 30t-38 41.5t-19.5 43t-4.5 37v2h181q4 -47 63 -47q24 0 39 9.5t18.5 19t4.5 18.5h178v-2zM518 231v23l-180 -32
q-36 -6 -51 -16t-15 -30v-1q0 -22 20 -38.5t65 -16.5q72 0 116.5 33t44.5 78z" />
    <glyph glyph-name="Aogonek" unicode="&#x104;" horiz-adv-x="1101" 
d="M809 0l-58 120h-425l-57 -120h-288l368 744h382l389 -744h-1q-60 -39 -60 -61q0 -21 33 -21h27v-106h-160q-147 0 -147 72v3q0 38 47 64t146 49h-196zM413 306h247l-125 256z" />
    <glyph glyph-name="aogonek" unicode="&#x105;" horiz-adv-x="840" 
d="M529 -116v3q0 38 47 64t146 49h-112q-75 0 -87 72q-79 -82 -252 -82h-11q-126 0 -187.5 50t-61.5 123v12q0 70 50.5 108t167.5 48l259 23q30 3 30 26q0 12 -6.5 19.5t-34 14.5t-76.5 7h-4q-40 0 -66 -5.5t-37 -16t-14 -17t-4 -16.5h-252v6q0 27 4.5 47t24.5 47t54.5 44
t102 29.5t159.5 12.5h56q96 0 166 -11.5t106 -28t57 -42t25.5 -45t4.5 -46.5v-199q0 -23 23 -23h29v-157q-60 -39 -60 -61q0 -21 33 -21h27v-106h-160q-147 0 -147 72zM518 231v23l-180 -32q-36 -6 -51 -16t-15 -30v-1q0 -22 20 -38.5t65 -16.5q72 0 116.5 33t44.5 78z" />
    <glyph glyph-name="Cacute" unicode="&#x106;" horiz-adv-x="1120" 
d="M436 792l79 152h279l-101 -152h-257zM1103 293q0 -28 -7.5 -57t-26.5 -65.5t-57 -68t-92.5 -58.5t-141 -42.5t-193.5 -15.5h-39q-131 0 -230 26t-153.5 64.5t-88.5 91.5t-44 98t-10 94v29q0 50 9.5 94t42.5 96.5t87.5 90t154 63t232.5 25.5h39q94 0 171.5 -12t129.5 -31
t92.5 -46t63 -53.5t37 -57.5t19.5 -54.5t5 -46.5v-13h-295q-3 11 -6.5 20t-20 28t-40.5 32t-70.5 23.5t-107.5 10.5q-249 0 -249 -174v-12q0 -33 11.5 -63t38 -59t78 -46t122.5 -17q62 0 109 11.5t71 25.5t40 35t19 30t6 20h294v-16z" />
    <glyph glyph-name="cacute" unicode="&#x107;" horiz-adv-x="881" 
d="M319 585l88 159h268l-110 -159h-246zM869 232q0 -19 -2.5 -37t-12 -43.5t-25.5 -47.5t-46.5 -44.5t-71 -38.5t-102 -26t-137.5 -10h-60q-99 0 -173.5 18.5t-116 46.5t-66.5 67.5t-32.5 73t-7.5 72.5v18q0 272 395 272h62q102 0 178.5 -18.5t116.5 -44t64.5 -61.5
t30.5 -62t6 -54v-3h-278q-2 12 -7 24t-19.5 29.5t-46 28.5t-76.5 11h-4q-79 0 -112.5 -35.5t-33.5 -89.5v-5q0 -57 34 -96.5t112 -39.5h4q44 0 75.5 11.5t46 30t20 31t7.5 24.5h278v-2z" />
    <glyph glyph-name="Ccircumflex" unicode="&#x108;" horiz-adv-x="1120" 
d="M706 944l161 -153h-243l-62 58l-62 -58h-241l159 153h288zM1103 293q0 -28 -7.5 -57t-26.5 -65.5t-57 -68t-92.5 -58.5t-141 -42.5t-193.5 -15.5h-39q-131 0 -230 26t-153.5 64.5t-88.5 91.5t-44 98t-10 94v29q0 50 9.5 94t42.5 96.5t87.5 90t154 63t232.5 25.5h39
q94 0 171.5 -12t129.5 -31t92.5 -46t63 -53.5t37 -57.5t19.5 -54.5t5 -46.5v-13h-295q-3 11 -6.5 20t-20 28t-40.5 32t-70.5 23.5t-107.5 10.5q-249 0 -249 -174v-12q0 -33 11.5 -63t38 -59t78 -46t122.5 -17q62 0 109 11.5t71 25.5t40 35t19 30t6 20h294v-16z" />
    <glyph glyph-name="ccircumflex" unicode="&#x109;" horiz-adv-x="881" 
d="M582 744l153 -160h-237l-57 64l-58 -64h-234l152 160h281zM869 232q0 -19 -2.5 -37t-12 -43.5t-25.5 -47.5t-46.5 -44.5t-71 -38.5t-102 -26t-137.5 -10h-60q-99 0 -173.5 18.5t-116 46.5t-66.5 67.5t-32.5 73t-7.5 72.5v18q0 272 395 272h62q102 0 178.5 -18.5
t116.5 -44t64.5 -61.5t30.5 -62t6 -54v-3h-278q-2 12 -7 24t-19.5 29.5t-46 28.5t-76.5 11h-4q-79 0 -112.5 -35.5t-33.5 -89.5v-5q0 -57 34 -96.5t112 -39.5h4q44 0 75.5 11.5t46 30t20 31t7.5 24.5h278v-2z" />
    <glyph glyph-name="Cdotaccent" unicode="&#x10a;" horiz-adv-x="1120" 
d="M702 947v-155h-273v155h273zM1103 293q0 -28 -7.5 -57t-26.5 -65.5t-57 -68t-92.5 -58.5t-141 -42.5t-193.5 -15.5h-39q-131 0 -230 26t-153.5 64.5t-88.5 91.5t-44 98t-10 94v29q0 50 9.5 94t42.5 96.5t87.5 90t154 63t232.5 25.5h39q94 0 171.5 -12t129.5 -31t92.5 -46
t63 -53.5t37 -57.5t19.5 -54.5t5 -46.5v-13h-295q-3 11 -6.5 20t-20 28t-40.5 32t-70.5 23.5t-107.5 10.5q-249 0 -249 -174v-12q0 -33 11.5 -63t38 -59t78 -46t122.5 -17q62 0 109 11.5t71 25.5t40 35t19 30t6 20h294v-16z" />
    <glyph glyph-name="cdotaccent" unicode="&#x10b;" horiz-adv-x="881" 
d="M578 744v-159h-272v159h272zM869 232q0 -19 -2.5 -37t-12 -43.5t-25.5 -47.5t-46.5 -44.5t-71 -38.5t-102 -26t-137.5 -10h-60q-99 0 -173.5 18.5t-116 46.5t-66.5 67.5t-32.5 73t-7.5 72.5v18q0 272 395 272h62q102 0 178.5 -18.5t116.5 -44t64.5 -61.5t30.5 -62t6 -54
v-3h-278q-2 12 -7 24t-19.5 29.5t-46 28.5t-76.5 11h-4q-79 0 -112.5 -35.5t-33.5 -89.5v-5q0 -57 34 -96.5t112 -39.5h4q44 0 75.5 11.5t46 30t20 31t7.5 24.5h278v-2z" />
    <glyph glyph-name="Ccaron" unicode="&#x10c;" horiz-adv-x="1120" 
d="M420 792l-162 152h245l62 -58l61 58h242l-159 -152h-289zM1103 293q0 -28 -7.5 -57t-26.5 -65.5t-57 -68t-92.5 -58.5t-141 -42.5t-193.5 -15.5h-39q-131 0 -230 26t-153.5 64.5t-88.5 91.5t-44 98t-10 94v29q0 50 9.5 94t42.5 96.5t87.5 90t154 63t232.5 25.5h39
q94 0 171.5 -12t129.5 -31t92.5 -46t63 -53.5t37 -57.5t19.5 -54.5t5 -46.5v-13h-295q-3 11 -6.5 20t-20 28t-40.5 32t-70.5 23.5t-107.5 10.5q-249 0 -249 -174v-12q0 -33 11.5 -63t38 -59t78 -46t122.5 -17q62 0 109 11.5t71 25.5t40 35t19 30t6 20h294v-16z" />
    <glyph glyph-name="ccaron" unicode="&#x10d;" horiz-adv-x="881" 
d="M299 585l-151 159h238l58 -65l58 65h235l-150 -159h-288zM869 232q0 -19 -2.5 -37t-12 -43.5t-25.5 -47.5t-46.5 -44.5t-71 -38.5t-102 -26t-137.5 -10h-60q-99 0 -173.5 18.5t-116 46.5t-66.5 67.5t-32.5 73t-7.5 72.5v18q0 272 395 272h62q102 0 178.5 -18.5t116.5 -44
t64.5 -61.5t30.5 -62t6 -54v-3h-278q-2 12 -7 24t-19.5 29.5t-46 28.5t-76.5 11h-4q-79 0 -112.5 -35.5t-33.5 -89.5v-5q0 -57 34 -96.5t112 -39.5h4q44 0 75.5 11.5t46 30t20 31t7.5 24.5h278v-2z" />
    <glyph glyph-name="Dcaron" unicode="&#x10e;" horiz-adv-x="1127" 
d="M341 789l-165 155h244l62 -58l61 58h241l-161 -155h-282zM45 0v744h528q124 0 220 -20t155 -53t96.5 -79.5t51.5 -95t14 -104.5v-30q0 -55 -12.5 -103t-49 -97.5t-94 -84t-155 -56t-225.5 -21.5h-529zM329 549v-352h211q275 0 275 174v6q0 172 -275 172h-211z" />
    <glyph glyph-name="dcaron" unicode="&#x10f;" horiz-adv-x="926" 
d="M916 575l14 169h205l-28 -169h-191zM617 744h272v-744h-271v78q-15 -17 -37.5 -33t-84 -35.5t-137.5 -19.5h-17q-165 0 -245.5 77.5t-80.5 194.5v21q0 54 17.5 99.5t53.5 83.5t99 60t148 22h19q170 0 264 -78v274zM617 269v5q0 49 -44.5 86.5t-124.5 37.5h-5
q-81 0 -116 -35.5t-35 -88.5v-5q0 -51 37.5 -89t114.5 -38h4q81 0 125 38t44 89z" />
    <glyph glyph-name="Dcroat" unicode="&#x110;" horiz-adv-x="1142" 
d="M60 0v296h-61v157h61v291h529q124 0 220 -20t154.5 -53t96 -79.5t51.5 -95t14 -104.5v-30q0 -55 -12.5 -103t-49 -97.5t-94 -84t-155 -56t-225.5 -21.5h-529zM344 549v-96h301v-157h-301v-99h211q275 0 275 174v6q0 172 -275 172h-211z" />
    <glyph glyph-name="dcroat" unicode="&#x111;" horiz-adv-x="926" 
d="M617 744h272v-49h69v-110h-69v-585h-271v78q-15 -17 -37.5 -33t-84 -35.5t-137.5 -19.5h-17q-165 0 -245.5 77.5t-80.5 194.5v21q0 54 17.5 99.5t53.5 83.5t99 60t148 22h19q170 0 264 -78v115h-270v110h270v49zM617 269v5q0 49 -44.5 86.5t-124.5 37.5h-5
q-81 0 -116 -35.5t-35 -88.5v-5q0 -51 37.5 -89t114.5 -38h4q81 0 125 38t44 89z" />
    <glyph glyph-name="Emacron" unicode="&#x112;" horiz-adv-x="907" 
d="M45 744h823v-182h-543v-93h532v-181h-532v-102h551v-186h-831v744zM231 797v132h469v-132h-469z" />
    <glyph glyph-name="emacron" unicode="&#x113;" horiz-adv-x="882" 
d="M866 194q0 -27 -7 -51t-32 -54.5t-66 -52t-116.5 -36.5t-175.5 -15h-53q-95 0 -168 17t-116 44t-70 64.5t-36.5 74t-9.5 77.5v20q0 271 397 271h55q73 0 132.5 -9.5t100.5 -25.5t71.5 -40t48.5 -48.5t29 -55t14.5 -57t3.5 -57.5v-30h-585q16 -99 163 -99h1q36 0 64.5 5.5
t44 13.5t25.5 18t13 16.5t4 11.5h268v-2zM441 421q-133 0 -155 -81h310q-16 81 -155 81zM217 595v129h452v-129h-452z" />
    <glyph glyph-name="Ebreve" unicode="&#x114;" horiz-adv-x="907" 
d="M45 744h823v-182h-543v-93h532v-181h-532v-102h551v-186h-831v744zM712 952q0 -23 -10.5 -49.5t-33.5 -55t-69.5 -47t-109.5 -18.5h-40q-68 0 -116.5 18.5t-70 47.5t-30.5 54.5t-9 49.5v2h183q1 -10 4.5 -19t19 -19.5t40.5 -10.5t40 10.5t18.5 20t3.5 18.5h180v-2z" />
    <glyph glyph-name="ebreve" unicode="&#x115;" horiz-adv-x="882" 
d="M866 194q0 -27 -7 -51t-32 -54.5t-66 -52t-116.5 -36.5t-175.5 -15h-53q-95 0 -168 17t-116 44t-70 64.5t-36.5 74t-9.5 77.5v20q0 271 397 271h55q73 0 132.5 -9.5t100.5 -25.5t71.5 -40t48.5 -48.5t29 -55t14.5 -57t3.5 -57.5v-30h-585q16 -99 163 -99h1q36 0 64.5 5.5
t44 13.5t25.5 18t13 16.5t4 11.5h268v-2zM685 742q0 -22 -11 -47.5t-34 -53t-69 -45t-107 -17.5h-40q-67 0 -114.5 17.5t-69 45t-30.5 52t-9 48.5v2h181q1 -9 4.5 -17.5t18.5 -18.5t40 -10q54 0 62 46h178v-2zM441 421q-133 0 -155 -81h310q-16 81 -155 81z" />
    <glyph glyph-name="Edotaccent" unicode="&#x116;" horiz-adv-x="907" 
d="M602 950v-161h-271v161h271zM45 744h823v-182h-543v-93h532v-181h-532v-102h551v-186h-831v744z" />
    <glyph glyph-name="edotaccent" unicode="&#x117;" horiz-adv-x="882" 
d="M579 744v-159h-272v159h272zM866 194q0 -27 -7 -51t-32 -54.5t-66 -52t-116.5 -36.5t-175.5 -15h-53q-95 0 -168 17t-116 44t-70 64.5t-36.5 74t-9.5 77.5v20q0 271 397 271h55q73 0 132.5 -9.5t100.5 -25.5t71.5 -40t48.5 -48.5t29 -55t14.5 -57t3.5 -57.5v-30h-585
q16 -99 163 -99h1q36 0 64.5 5.5t44 13.5t25.5 18t13 16.5t4 11.5h268v-2zM441 421q-133 0 -155 -81h310q-16 81 -155 81z" />
    <glyph glyph-name="Eogonek" unicode="&#x118;" horiz-adv-x="907" 
d="M45 744h823v-182h-543v-93h532v-181h-532v-102h551v-186h-109q-61 -38 -61 -61q0 -21 34 -21h30v-106h-163q-147 0 -147 72v3q0 39 47 64.5t146 48.5h-608v744z" />
    <glyph glyph-name="eogonek" unicode="&#x119;" horiz-adv-x="882" 
d="M732 -82v-106h-164q-146 0 -146 72v3q0 37 42 60t140 46q-70 -8 -135 -8h-53q-95 0 -168 17t-116 44t-70 64.5t-36.5 74t-9.5 77.5v20q0 271 397 271h55q73 0 132.5 -9.5t100.5 -25.5t71.5 -40t48.5 -48.5t29 -55t14.5 -57t3.5 -57.5v-30h-585q16 -99 163 -99h1
q36 0 64.5 5.5t44 13.5t25.5 18t13 16.5t4 11.5h268v-2q0 -56 -33.5 -100t-104.5 -92q-48 -35 -56 -48q-4 -8 -4 -15q0 -21 33 -21h31zM441 421q-133 0 -155 -81h310q-16 81 -155 81z" />
    <glyph glyph-name="Ecaron" unicode="&#x11a;" horiz-adv-x="907" 
d="M328 789l-165 155h244l62 -58l61 58h241l-161 -155h-282zM45 744h823v-182h-543v-93h532v-181h-532v-102h551v-186h-831v744z" />
    <glyph glyph-name="ecaron" unicode="&#x11b;" horiz-adv-x="882" 
d="M299 585l-151 159h239l57 -65l58 65h236l-150 -159h-289zM866 194q0 -27 -7 -51t-32 -54.5t-66 -52t-116.5 -36.5t-175.5 -15h-53q-95 0 -168 17t-116 44t-70 64.5t-36.5 74t-9.5 77.5v20q0 271 397 271h55q73 0 132.5 -9.5t100.5 -25.5t71.5 -40t48.5 -48.5t29 -55
t14.5 -57t3.5 -57.5v-30h-585q16 -99 163 -99h1q36 0 64.5 5.5t44 13.5t25.5 18t13 16.5t4 11.5h268v-2zM441 421q-133 0 -155 -81h310q-16 81 -155 81z" />
    <glyph glyph-name="Gcircumflex" unicode="&#x11c;" horiz-adv-x="1153" 
d="M715 944l161 -153h-243l-62 58l-62 -58h-241l159 153h288zM899 103q-106 -117 -354 -117h-23q-117 0 -208 24.5t-145 62t-89 89t-47.5 100t-12.5 99.5v28q0 53 12 100.5t47.5 98t92 87t153 60t222.5 23.5h39q130 0 228 -20.5t152 -50t87.5 -71t43.5 -75t11 -70.5v-1h-296
q-31 94 -241 94q-257 0 -257 -184v-11q0 -79 63 -133.5t192 -54.5q55 0 100 7.5t72.5 18.5t47 24t27 24t7.5 19h-261v145h551v-419h-179q-8 51 -35 103z" />
    <glyph glyph-name="gcircumflex" unicode="&#x11d;" horiz-adv-x="936" 
d="M583 744l153 -162h-237l-58 66l-58 -66h-233l152 162h281zM899 90q0 -37 -8.5 -72t-34.5 -75t-67.5 -69.5t-115.5 -49t-170 -19.5h-77q-95 0 -167 15t-110.5 36t-62.5 49.5t-30.5 49.5t-6.5 42v3h273q7 -45 140 -45h3q163 0 163 137v11q-83 -80 -262 -80h-16
q-172 0 -253 73t-81 183v18q0 50 16.5 93t52 79.5t99 57.5t148.5 21h22q185 0 273 -79v69h272v-448zM453 396h-6q-84 0 -120 -30.5t-36 -77.5v-5q0 -48 37.5 -81t118.5 -33h6q84 0 128 33.5t44 80.5v3q0 46 -44 78t-128 32z" />
    <glyph glyph-name="Gbreve" unicode="&#x11e;" horiz-adv-x="1153" 
d="M899 103q-106 -117 -354 -117h-23q-117 0 -208 24.5t-145 62t-89 89t-47.5 100t-12.5 99.5v28q0 53 12 100.5t47.5 98t92 87t153 60t222.5 23.5h39q130 0 228 -20.5t152 -50t87.5 -71t43.5 -75t11 -70.5v-1h-296q-31 94 -241 94q-257 0 -257 -184v-11q0 -79 63 -133.5
t192 -54.5q55 0 100 7.5t72.5 18.5t47 24t27 24t7.5 19h-261v145h551v-419h-179q-8 51 -35 103zM817 954q0 -23 -10.5 -49.5t-33.5 -55t-69.5 -47t-109.5 -18.5h-40q-68 0 -116.5 18.5t-70 47.5t-30.5 54.5t-9 49.5v2h183q1 -10 4.5 -19t19 -19.5t40.5 -10.5t40 10.5
t18.5 20t3.5 18.5h180v-2z" />
    <glyph glyph-name="gbreve" unicode="&#x11f;" horiz-adv-x="936" 
d="M899 90q0 -37 -8.5 -72t-34.5 -75t-67.5 -69.5t-115.5 -49t-170 -19.5h-77q-95 0 -167 15t-110.5 36t-62.5 49.5t-30.5 49.5t-6.5 42v3h273q7 -45 140 -45h3q163 0 163 137v11q-83 -80 -262 -80h-16q-172 0 -253 73t-81 183v18q0 50 16.5 93t52 79.5t99 57.5t148.5 21h22
q185 0 273 -79v69h272v-448zM453 396h-6q-84 0 -120 -30.5t-36 -77.5v-5q0 -48 37.5 -81t118.5 -33h6q84 0 128 33.5t44 80.5v3q0 46 -44 78t-128 32zM683 742q0 -23 -10.5 -49t-34 -53.5t-69.5 -45t-107 -17.5h-40q-67 0 -114.5 17.5t-69.5 45.5t-30.5 52.5t-8.5 49.5v2
h181q0 -9 3.5 -18.5t19 -19.5t40.5 -10q24 0 39 10t18.5 19t4.5 19h178v-2z" />
    <glyph glyph-name="Gdotaccent" unicode="&#x120;" horiz-adv-x="1153" 
d="M709 947v-155h-273v155h273zM899 103q-106 -117 -354 -117h-23q-117 0 -208 24.5t-145 62t-89 89t-47.5 100t-12.5 99.5v28q0 53 12 100.5t47.5 98t92 87t153 60t222.5 23.5h39q130 0 228 -20.5t152 -50t87.5 -71t43.5 -75t11 -70.5v-1h-296q-31 94 -241 94
q-257 0 -257 -184v-11q0 -79 63 -133.5t192 -54.5q55 0 100 7.5t72.5 18.5t47 24t27 24t7.5 19h-261v145h551v-419h-179q-8 51 -35 103z" />
    <glyph glyph-name="gdotaccent" unicode="&#x121;" horiz-adv-x="936" 
d="M899 90q0 -37 -8.5 -72t-34.5 -75t-67.5 -69.5t-115.5 -49t-170 -19.5h-77q-95 0 -167 15t-110.5 36t-62.5 49.5t-30.5 49.5t-6.5 42v3h273q7 -45 140 -45h3q163 0 163 137v11q-83 -80 -262 -80h-16q-172 0 -253 73t-81 183v18q0 50 16.5 93t52 79.5t99 57.5t148.5 21h22
q185 0 273 -79v69h272v-448zM453 396h-6q-84 0 -120 -30.5t-36 -77.5v-5q0 -48 37.5 -81t118.5 -33h6q84 0 128 33.5t44 80.5v3q0 46 -44 78t-128 32zM576 744v-161h-271v161h271z" />
    <glyph glyph-name="uni0122" unicode="&#x122;" horiz-adv-x="1153" 
d="M612 -299h-130q28 56 35 92h-113v159h258v-125q0 -53 -50 -126zM899 103q-106 -117 -354 -117h-23q-117 0 -208 24.5t-145 62t-89 89t-47.5 100t-12.5 99.5v28q0 53 12 100.5t47.5 98t92 87t153 60t222.5 23.5h39q130 0 228 -20.5t152 -50t87.5 -71t43.5 -75t11 -70.5v-1
h-296q-31 94 -241 94q-257 0 -257 -184v-11q0 -79 63 -133.5t192 -54.5q55 0 100 7.5t72.5 18.5t47 24t27 24t7.5 19h-261v145h551v-419h-179q-8 51 -35 103z" />
    <glyph glyph-name="uni0123" unicode="&#x123;" horiz-adv-x="936" 
d="M360 834h130q-28 -56 -35 -92h113v-159h-258v125q0 27 16 63.5t34 62.5zM899 90q0 -37 -8.5 -72t-34.5 -75t-67.5 -69.5t-115.5 -49t-170 -19.5h-77q-95 0 -167 15t-110.5 36t-62.5 49.5t-30.5 49.5t-6.5 42v3h273q7 -45 140 -45h3q163 0 163 137v11q-83 -80 -262 -80
h-16q-172 0 -253 73t-81 183v18q0 50 16.5 93t52 79.5t99 57.5t148.5 21h22q185 0 273 -79v69h272v-448zM453 396h-6q-84 0 -120 -30.5t-36 -77.5v-5q0 -48 37.5 -81t118.5 -33h6q84 0 128 33.5t44 80.5v3q0 46 -44 78t-128 32z" />
    <glyph glyph-name="Hcircumflex" unicode="&#x124;" horiz-adv-x="1122" 
d="M794 0v283h-465v-283h-284v744h284v-263h465v263h283v-744h-283zM701 944l164 -155h-244l-62 58l-61 -58h-241l162 155h282z" />
    <glyph glyph-name="hcircumflex" unicode="&#x125;" horiz-adv-x="891" 
d="M37 0v744h272v-300q106 106 276 106h6q72 0 125.5 -19.5t82.5 -51t42.5 -65t13.5 -68.5v-346h-273v257q0 57 -31.5 90.5t-98.5 33.5t-105 -36.5t-38 -94.5v-250h-272zM554 944l164 -155h-244l-62 58l-61 -58h-241l162 155h282z" />
    <glyph glyph-name="Hbar" unicode="&#x126;" horiz-adv-x="1153" 
d="M-6 554v125h66v65h284v-65h465v65h283v-65h67v-125h-67v-554h-283v283h-465v-283h-284v554h-66zM344 481h465v73h-465v-73z" />
    <glyph glyph-name="hbar" unicode="&#x127;" horiz-adv-x="891" 
d="M309 250v-250h-272v585h-69v110h69v49h272v-49h250v-110h-250v-141q106 106 276 106h6q72 0 125.5 -19.5t82.5 -51t42.5 -65t13.5 -68.5v-346h-273v257q0 57 -31.5 90.5t-98.5 33.5t-105 -36.5t-38 -94.5z" />
    <glyph glyph-name="Itilde" unicode="&#x128;" horiz-adv-x="373" 
d="M328 744v-744h-283v744h283zM314 793q-45 0 -135 29q-46 15 -60 15q-18 0 -18 -21v-29h-161v85q0 40 24.5 69t88.5 29h4q22 0 44.5 -4t36 -8t56.5 -17q45 -15 59 -15q17 0 17 20v29h161v-79q0 -103 -112 -103h-5z" />
    <glyph glyph-name="itilde" unicode="&#x129;" horiz-adv-x="346" 
d="M274 585q-31 0 -107 29q-32 14 -45 14t-13 -21v-27h-132v78q0 40 20 69t71 29h3q37 0 109 -30q34 -13 43 -13q12 0 12 20v28h133v-73q0 -103 -90 -103h-4zM309 538v-538h-272v538h272z" />
    <glyph glyph-name="Imacron" unicode="&#x12a;" horiz-adv-x="373" 
d="M-28 797v132h429v-132h-429zM328 744v-744h-283v744h283z" />
    <glyph glyph-name="imacron" unicode="&#x12b;" horiz-adv-x="346" 
d="M-17 593v129h380v-129h-380zM309 538v-538h-272v538h272z" />
    <glyph glyph-name="Ibreve" unicode="&#x12c;" horiz-adv-x="373" 
d="M328 744v-744h-283v744h283zM432 952q0 -23 -10.5 -49.5t-33.5 -55t-69.5 -47t-109.5 -18.5h-40q-68 0 -116.5 18.5t-70 47.5t-30.5 54.5t-9 49.5v2h183q1 -10 4.5 -19t19 -19.5t40.5 -10.5t40 10.5t18.5 20t3.5 18.5h180v-2z" />
    <glyph glyph-name="ibreve" unicode="&#x12d;" horiz-adv-x="346" 
d="M309 538v-538h-272v538h272zM375 742q0 -20 -4.5 -40t-17.5 -43.5t-33.5 -41t-56.5 -29.5t-82 -12h-14q-60 0 -102 17t-61 45t-26.5 53t-7.5 51v2h157q3 -44 47 -44q25 0 35 14t10 30h156v-2z" />
    <glyph glyph-name="Iogonek" unicode="&#x12e;" horiz-adv-x="373" 
d="M22 -116v3q0 38 47 64t146 49h-170v744h283v-744h1q-60 -39 -60 -61q0 -21 33 -21h27v-106h-160q-147 0 -147 72z" />
    <glyph glyph-name="iogonek" unicode="&#x12f;" horiz-adv-x="346" 
d="M2 -116v3q0 38 47 64t146 49h-158v538h272v-538q-60 -39 -60 -61q0 -21 33 -21h27v-106h-160q-147 0 -147 72zM309 744v-161h-272v161h272z" />
    <glyph glyph-name="Idotaccent" unicode="&#x130;" horiz-adv-x="373" 
d="M328 744v-744h-283v744h283zM322 950v-161h-271v161h271z" />
    <glyph glyph-name="dotlessi" unicode="&#x131;" horiz-adv-x="346" 
d="M309 538v-538h-272v538h272z" />
    <glyph glyph-name="IJ" unicode="&#x132;" horiz-adv-x="1315" 
d="M328 744v-744h-283v744h283zM1277 363q0 -43 -6.5 -82t-22 -83.5t-46.5 -80t-76 -65.5t-115.5 -46.5t-158.5 -16.5h-61q-101 0 -178 23t-120.5 57.5t-71 81.5t-36 88t-8.5 85v6h279q13 -128 164 -128h8q86 0 125.5 45t39.5 122v375h284v-381z" />
    <glyph glyph-name="ij" unicode="&#x133;" horiz-adv-x="691" 
d="M309 744v-161h-272v161h272zM309 538v-538h-272v538h272zM654 744v-161h-272v161h272zM314 -27h36q19 0 25.5 7t6.5 30v528h272v-578q0 -77 -31 -112.5t-81 -35.5h-228v161z" />
    <glyph glyph-name="Jcircumflex" unicode="&#x134;" horiz-adv-x="942" 
d="M899 944l164 -155h-244l-62 58l-61 -58h-241l162 155h282zM904 363q0 -43 -6.5 -82t-22 -83.5t-46.5 -80t-76 -65.5t-115.5 -46.5t-158.5 -16.5h-61q-101 0 -178 23t-120.5 57.5t-71 81.5t-36 88t-8.5 85v6h279q13 -128 164 -128h8q86 0 125.5 45t39.5 122v375h284v-381z
" />
    <glyph glyph-name="jcircumflex" unicode="&#x135;" horiz-adv-x="346" 
d="M297 744l110 -161h-193l-43 66l-43 -66h-190l109 161h250zM-31 -27h36q19 0 25.5 7t6.5 30v528h272v-578q0 -77 -31 -112.5t-81 -35.5h-228v161z" />
    <glyph glyph-name="uni0136" unicode="&#x136;" horiz-adv-x="1040" 
d="M578 -296h-130q28 56 35 92h-113v159h258v-125q0 -54 -50 -126zM692 0l-363 333v-333h-284v744h284v-294l366 294h353l-433 -338l447 -406h-370z" />
    <glyph glyph-name="uni0137" unicode="&#x137;" horiz-adv-x="801" 
d="M485 -296h-130q28 56 35 92h-113v159h258v-125q0 -54 -50 -126zM509 0l-200 242v-242h-272v744h272v-416l184 210h293l-219 -238l251 -300h-309z" />
    <glyph glyph-name="Lacute" unicode="&#x139;" horiz-adv-x="869" 
d="M63 789l79 155h279l-101 -155h-257zM45 744h284v-531h516v-213h-800v744z" />
    <glyph glyph-name="lacute" unicode="&#x13a;" horiz-adv-x="346" 
d="M53 789l83 152h269l-106 -152h-246zM309 744v-744h-272v744h272z" />
    <glyph glyph-name="uni013B" unicode="&#x13b;" horiz-adv-x="869" 
d="M526 -296h-130q28 56 35 92h-113v159h258v-125q0 -54 -50 -126zM45 744h284v-531h516v-213h-800v744z" />
    <glyph glyph-name="uni013C" unicode="&#x13c;" horiz-adv-x="346" 
d="M252 -296h-130q28 56 35 92h-113v159h258v-125q0 -54 -50 -126zM309 744v-744h-272v744h272z" />
    <glyph glyph-name="Lcaron" unicode="&#x13d;" horiz-adv-x="869" 
d="M355 575l14 169h205l-28 -169h-191zM45 744h284v-531h516v-213h-800v744z" />
    <glyph glyph-name="lcaron" unicode="&#x13e;" horiz-adv-x="346" 
d="M335 575l14 169h205l-28 -169h-191zM309 744v-744h-272v744h272z" />
    <glyph glyph-name="Ldot" unicode="&#x13f;" horiz-adv-x="865" 
d="M45 744h284v-531h516v-213h-800v744zM776 524v-195h-281v195h281z" />
    <glyph glyph-name="ldot" unicode="&#x140;" horiz-adv-x="626" 
d="M622 482v-195h-272v195h272zM309 744v-744h-272v744h272z" />
    <glyph glyph-name="Lslash" unicode="&#x141;" horiz-adv-x="889" 
d="M65 744h284v-290l303 108v-156l-303 -105v-88h516v-213h-800v203l-69 -24v149l69 24v392z" />
    <glyph glyph-name="lslash" unicode="&#x142;" horiz-adv-x="378" 
d="M324 744v-225l54 24v-153l-54 -23v-367h-272v250l-53 -22v150l53 23v343h272z" />
    <glyph glyph-name="Nacute" unicode="&#x143;" horiz-adv-x="1122" 
d="M434 789l79 155h279l-101 -155h-257zM45 744h318l432 -423v423h282v-744h-284l-466 451v-451h-282v744z" />
    <glyph glyph-name="nacute" unicode="&#x144;" horiz-adv-x="891" 
d="M324 583l89 161h268l-111 -161h-246zM37 0v538h270v-95q111 107 278 107h6q72 0 125.5 -19.5t82.5 -51t42.5 -65t13.5 -68.5v-346h-273v257q0 57 -31.5 90.5t-98.5 33.5t-105 -36.5t-38 -94.5v-250h-272z" />
    <glyph glyph-name="uni0145" unicode="&#x145;" horiz-adv-x="1122" 
d="M638 -296h-130q28 56 35 92h-113v159h258v-125q0 -54 -50 -126zM45 744h318l432 -423v423h282v-744h-284l-466 451v-451h-282v744z" />
    <glyph glyph-name="uni0146" unicode="&#x146;" horiz-adv-x="891" 
d="M525 -296h-130q28 56 35 92h-113v159h258v-125q0 -54 -50 -126zM37 0v538h270v-95q111 107 278 107h6q72 0 125.5 -19.5t82.5 -51t42.5 -65t13.5 -68.5v-346h-273v257q0 57 -31.5 90.5t-98.5 33.5t-105 -36.5t-38 -94.5v-250h-272z" />
    <glyph glyph-name="Ncaron" unicode="&#x147;" horiz-adv-x="1122" 
d="M421 789l-165 155h244l62 -58l61 58h241l-161 -155h-282zM45 744h318l432 -423v423h282v-744h-284l-466 451v-451h-282v744z" />
    <glyph glyph-name="ncaron" unicode="&#x148;" horiz-adv-x="891" 
d="M308 583l-153 161h236l58 -65l58 65h234l-152 -161h-281zM37 0v538h270v-95q111 107 278 107h6q72 0 125.5 -19.5t82.5 -51t42.5 -65t13.5 -68.5v-346h-273v257q0 57 -31.5 90.5t-98.5 33.5t-105 -36.5t-38 -94.5v-250h-272z" />
    <glyph glyph-name="napostrophe" unicode="&#x149;" horiz-adv-x="1142" 
d="M212 475h-140q34 63 40 104h-111v165h267v-134q0 -30 -17.5 -69t-38.5 -66zM288 0v538h270v-95q111 107 278 107h6q72 0 125.5 -19.5t82.5 -51t42.5 -65t13.5 -68.5v-346h-273v257q0 57 -31.5 90.5t-98.5 33.5t-105 -36.5t-38 -94.5v-250h-272z" />
    <glyph glyph-name="Eng" unicode="&#x14a;" horiz-adv-x="1122" 
d="M1077 23q0 -105 -47.5 -158t-123.5 -53h-215v171h79q20 0 20 14q0 8 -30 38l-433 416v-451h-282v744h318l432 -423v423h282v-721z" />
    <glyph glyph-name="eng" unicode="&#x14b;" horiz-adv-x="891" 
d="M855 346v-388q0 -76 -31 -112t-79 -36h-256v171h59q19 0 26.5 8.5t7.5 30.5v237q0 57 -31.5 90.5t-98.5 33.5t-105 -36.5t-38 -94.5v-250h-272v538h270v-95q111 107 278 107h6q72 0 125.5 -19.5t82.5 -51t42.5 -65t13.5 -68.5z" />
    <glyph glyph-name="Omacron" unicode="&#x14c;" horiz-adv-x="1170" 
d="M350 799v132h469v-132h-469zM563 758h45q137 0 240 -25.5t159 -63t90 -90.5t43.5 -96.5t9.5 -93.5v-30q0 -34 -4.5 -65t-19 -69.5t-38 -71t-65.5 -64.5t-97 -54t-136.5 -35.5t-181.5 -13.5h-45q-100 0 -181.5 13.5t-137 35.5t-97.5 54t-65.5 64.5t-38 71t-19 69.5
t-4.5 65v30q0 34 4.5 65t19 69.5t38 70.5t65.5 63t97.5 52.5t137 35t181.5 13.5zM856 382q0 33 -12 61.5t-40 55.5t-84 43t-135 16q-80 0 -136 -16t-84 -43t-39.5 -55.5t-11.5 -61.5v-12q0 -33 12 -62.5t40 -58t84.5 -45.5t134.5 -17t134.5 16.5t84.5 45t40 57.5t12 62v14z
" />
    <glyph glyph-name="omacron" unicode="&#x14d;" horiz-adv-x="921" 
d="M234 595v129h452v-129h-452zM424 -15q-99 0 -174.5 18.5t-118.5 46t-70 66.5t-36 74t-9 74v16q0 38 9 72.5t35.5 72.5t69.5 65t118.5 45t174.5 18h76q406 0 406 -272v-18q0 -40 -7 -73.5t-32.5 -73t-67.5 -67t-119 -46t-181 -18.5h-74zM461 401q-92 0 -130.5 -36.5
t-38.5 -89.5v-4q0 -54 39 -93.5t130 -39.5h1q91 0 129.5 40t38.5 93v4q0 52 -38.5 89t-129.5 37h-1z" />
    <glyph glyph-name="Obreve" unicode="&#x14e;" horiz-adv-x="1170" 
d="M563 758h45q137 0 240 -25.5t159 -63t90 -90.5t43.5 -96.5t9.5 -93.5v-30q0 -34 -4.5 -65t-19 -69.5t-38 -71t-65.5 -64.5t-97 -54t-136.5 -35.5t-181.5 -13.5h-45q-100 0 -181.5 13.5t-137 35.5t-97.5 54t-65.5 64.5t-38 71t-19 69.5t-4.5 65v30q0 34 4.5 65t19 69.5
t38 70.5t65.5 63t97.5 52.5t137 35t181.5 13.5zM856 382q0 33 -12 61.5t-40 55.5t-84 43t-135 16q-80 0 -136 -16t-84 -43t-39.5 -55.5t-11.5 -61.5v-12q0 -33 12 -62.5t40 -58t84.5 -45.5t134.5 -17t134.5 16.5t84.5 45t40 57.5t12 62v14zM830 954q0 -23 -10.5 -49.5
t-33.5 -55t-69.5 -47t-109.5 -18.5h-40q-68 0 -116.5 18.5t-70 47.5t-30.5 54.5t-9 49.5v2h183q1 -10 4.5 -19t19 -19.5t40.5 -10.5t40 10.5t18.5 20t3.5 18.5h180v-2z" />
    <glyph glyph-name="obreve" unicode="&#x14f;" horiz-adv-x="921" 
d="M424 -15q-99 0 -174.5 18.5t-118.5 46t-70 66.5t-36 74t-9 74v16q0 38 9 72.5t35.5 72.5t69.5 65t118.5 45t174.5 18h76q406 0 406 -272v-18q0 -40 -7 -73.5t-32.5 -73t-67.5 -67t-119 -46t-181 -18.5h-74zM461 401q-92 0 -130.5 -36.5t-38.5 -89.5v-4q0 -54 39 -93.5
t130 -39.5h1q91 0 129.5 40t38.5 93v4q0 52 -38.5 89t-129.5 37h-1zM703 742q0 -22 -11 -47.5t-34 -53t-69 -45t-107 -17.5h-40q-67 0 -114.5 17.5t-69 45t-30.5 52t-9 48.5v2h181q1 -9 4.5 -17.5t18.5 -18.5t40 -10q54 0 62 46h178v-2z" />
    <glyph glyph-name="Ohungarumlaut" unicode="&#x150;" horiz-adv-x="1170" 
d="M332 792l52 152h245l-58 -152h-239zM614 792l59 152h245l-65 -152h-239zM563 758h45q137 0 240 -25.5t159 -63t90 -90.5t43.5 -96.5t9.5 -93.5v-30q0 -34 -4.5 -65t-19 -69.5t-38 -71t-65.5 -64.5t-97 -54t-136.5 -35.5t-181.5 -13.5h-45q-100 0 -181.5 13.5t-137 35.5
t-97.5 54t-65.5 64.5t-38 71t-19 69.5t-4.5 65v30q0 34 4.5 65t19 69.5t38 70.5t65.5 63t97.5 52.5t137 35t181.5 13.5zM856 382q0 33 -12 61.5t-40 55.5t-84 43t-135 16q-80 0 -136 -16t-84 -43t-39.5 -55.5t-11.5 -61.5v-12q0 -33 12 -62.5t40 -58t84.5 -45.5t134.5 -17
t134.5 16.5t84.5 45t40 57.5t12 62v14z" />
    <glyph glyph-name="ohungarumlaut" unicode="&#x151;" horiz-adv-x="921" 
d="M218 585l55 159h236l-61 -159h-230zM491 585l62 159h237l-68 -159h-231zM424 -15q-99 0 -174.5 18.5t-118.5 46t-70 66.5t-36 74t-9 74v16q0 38 9 72.5t35.5 72.5t69.5 65t118.5 45t174.5 18h76q406 0 406 -272v-18q0 -40 -7 -73.5t-32.5 -73t-67.5 -67t-119 -46
t-181 -18.5h-74zM461 401q-92 0 -130.5 -36.5t-38.5 -89.5v-4q0 -54 39 -93.5t130 -39.5h1q91 0 129.5 40t38.5 93v4q0 52 -38.5 89t-129.5 37h-1z" />
    <glyph glyph-name="OE" unicode="&#x152;" horiz-adv-x="1690" 
d="M882 0v70q-106 -83 -324 -83h-37q-125 0 -219 26t-146 64t-84.5 91t-42 97.5t-9.5 92.5v30q0 49 9.5 93t41.5 96.5t84 90t146.5 63t219.5 25.5h37q215 0 324 -74v62h769v-182h-526v-93h516v-181h-516v-102h534v-186h-777zM580 557q-63 0 -111.5 -10.5t-77.5 -27.5
t-46.5 -40.5t-24 -46.5t-6.5 -50v-12q0 -33 12 -62.5t39.5 -57.5t82.5 -45t132 -17t131.5 16.5t82 44t39.5 57t12 62.5v14q0 34 -11.5 62.5t-39 55t-82.5 42t-132 15.5z" />
    <glyph glyph-name="oe" unicode="&#x153;" horiz-adv-x="1495" 
d="M770 66q-90 -81 -296 -81h-56q-98 0 -172.5 18.5t-117 46t-69 66.5t-35 74t-8.5 74v16q0 38 8.5 72.5t35 72.5t69 65t116.5 45t172 18h58q201 0 294 -79q88 78 282 78h39q100 0 173.5 -19t114.5 -47t65 -69t31 -77t7 -80v-30h-580q16 -99 161 -99h1q36 0 64.5 5.5
t44 13.5t25.5 18t13 16.5t4 11.5h266v-2q0 -26 -6.5 -50t-30.5 -54.5t-64 -52t-114.5 -36.5t-173.5 -15h-36q-193 0 -285 80zM1058 421q-132 0 -154 -81h308q-16 81 -154 81zM292 275v-4q0 -53 38.5 -93t128.5 -40h1q91 0 129 40t38 93v4q0 52 -38 89t-128 37h-2
q-91 0 -129 -36.5t-38 -89.5z" />
    <glyph glyph-name="Racute" unicode="&#x154;" horiz-adv-x="1064" 
d="M387 789l79 155h279l-101 -155h-257zM329 255v-255h-284v744h676q313 0 313 -191v-11q0 -38 -15 -69t-39.5 -50t-48 -30t-47.5 -17q71 -16 112 -61.5t41 -115.5v-110q0 -58 14 -84v-5h-290q-9 12 -9 39v87q0 66 -34.5 97.5t-116.5 31.5h-272zM329 563v-128h326
q86 0 86 64v1q0 63 -86 63h-326z" />
    <glyph glyph-name="racute" unicode="&#x155;" horiz-adv-x="784" 
d="M307 538v-99q79 111 225 111h12q64 0 110 -20.5t70 -56t35 -75t11 -86.5v-54h-264v19q0 49 -23.5 79.5t-73.5 30.5q-47 0 -73.5 -32t-26.5 -84v-271h-272v538h270zM264 583l89 161h268l-111 -161h-246z" />
    <glyph glyph-name="uni0156" unicode="&#x156;" horiz-adv-x="1064" 
d="M619 -296h-130q28 56 35 92h-113v159h258v-125q0 -54 -50 -126zM329 255v-255h-284v744h676q313 0 313 -191v-11q0 -38 -15 -69t-39.5 -50t-48 -30t-47.5 -17q71 -16 112 -61.5t41 -115.5v-110q0 -58 14 -84v-5h-290q-9 12 -9 39v87q0 66 -34.5 97.5t-116.5 31.5h-272z
M329 563v-128h326q86 0 86 64v1q0 63 -86 63h-326z" />
    <glyph glyph-name="uni0157" unicode="&#x157;" horiz-adv-x="784" 
d="M307 538v-99q79 111 225 111h12q64 0 110 -20.5t70 -56t35 -75t11 -86.5v-54h-264v19q0 49 -23.5 79.5t-73.5 30.5q-47 0 -73.5 -32t-26.5 -84v-271h-272v538h270zM251 -296h-130q28 56 35 92h-113v159h258v-125q0 -54 -50 -126z" />
    <glyph glyph-name="Rcaron" unicode="&#x158;" horiz-adv-x="1064" 
d="M374 789l-165 155h244l62 -58l61 58h241l-161 -155h-282zM329 255v-255h-284v744h676q313 0 313 -191v-11q0 -38 -15 -69t-39.5 -50t-48 -30t-47.5 -17q71 -16 112 -61.5t41 -115.5v-110q0 -58 14 -84v-5h-290q-9 12 -9 39v87q0 66 -34.5 97.5t-116.5 31.5h-272zM329 563
v-128h326q86 0 86 64v1q0 63 -86 63h-326z" />
    <glyph glyph-name="rcaron" unicode="&#x159;" horiz-adv-x="784" 
d="M307 538v-99q79 111 225 111h12q64 0 110 -20.5t70 -56t35 -75t11 -86.5v-54h-264v19q0 49 -23.5 79.5t-73.5 30.5q-47 0 -73.5 -32t-26.5 -84v-271h-272v538h270zM244 583l-153 161h236l58 -65l58 65h234l-152 -161h-281z" />
    <glyph glyph-name="Sacute" unicode="&#x15a;" horiz-adv-x="1030" 
d="M380 792l79 152h279l-101 -152h-257zM1017 239q0 -42 -10 -75.5t-40 -67.5t-79.5 -57.5t-134 -38t-197.5 -14.5h-91q-454 0 -454 264v10h312q8 -105 186 -105h9q57 0 95 5.5t56 16t24.5 22t6.5 26.5v1q0 21 -10 33.5t-50 22t-115 11.5l-138 4q-365 11 -365 224v9
q0 39 11 70.5t40.5 61.5t76.5 50.5t123 32.5t177 12h89q452 0 452 -235v-8h-309q-9 79 -180 79h-10q-70 0 -108 -8.5t-47 -19t-9 -27.5v-1q0 -17 10.5 -28t48 -19.5t103.5 -9.5l134 -3q210 -5 301.5 -58t91.5 -166v-14z" />
    <glyph glyph-name="sacute" unicode="&#x15b;" horiz-adv-x="808" 
d="M274 585l87 159h269l-110 -159h-246zM795 170q0 -32 -8 -57t-32 -50t-64 -41.5t-107.5 -26.5t-159.5 -10h-55q-359 0 -359 191v7h277q3 -66 111 -66h2q65 0 88 12t23 33v2q0 22 -20.5 32.5t-82.5 11.5l-114 3q-278 9 -278 169v6q0 36 14 63.5t50.5 52.5t109 38t179.5 13
h53q104 0 176.5 -13.5t109.5 -38t52 -52.5t15 -63v-7h-272q-6 50 -108 50h-1q-62 0 -83.5 -8.5t-21.5 -28.5v-1q0 -18 21 -28t79 -12l113 -3q118 -3 183.5 -24.5t87.5 -55.5t22 -91v-7z" />
    <glyph glyph-name="Scircumflex" unicode="&#x15c;" horiz-adv-x="1030" 
d="M654 944l161 -153h-243l-62 58l-62 -58h-240l158 153h288zM1017 239q0 -42 -10 -75.5t-40 -67.5t-79.5 -57.5t-134 -38t-197.5 -14.5h-91q-454 0 -454 264v10h312q8 -105 186 -105h9q57 0 95 5.5t56 16t24.5 22t6.5 26.5v1q0 21 -10 33.5t-50 22t-115 11.5l-138 4
q-365 11 -365 224v9q0 39 11 70.5t40.5 61.5t76.5 50.5t123 32.5t177 12h89q452 0 452 -235v-8h-309q-9 79 -180 79h-10q-70 0 -108 -8.5t-47 -19t-9 -27.5v-1q0 -17 10.5 -28t48 -19.5t103.5 -9.5l134 -3q210 -5 301.5 -58t91.5 -166v-14z" />
    <glyph glyph-name="scircumflex" unicode="&#x15d;" horiz-adv-x="808" 
d="M538 744l153 -159h-236l-58 63l-58 -63h-233l152 159h280zM795 170q0 -32 -8 -57t-32 -50t-64 -41.5t-107.5 -26.5t-159.5 -10h-55q-359 0 -359 191v7h277q3 -66 111 -66h2q65 0 88 12t23 33v2q0 22 -20.5 32.5t-82.5 11.5l-114 3q-278 9 -278 169v6q0 36 14 63.5
t50.5 52.5t109 38t179.5 13h53q104 0 176.5 -13.5t109.5 -38t52 -52.5t15 -63v-7h-272q-6 50 -108 50h-1q-62 0 -83.5 -8.5t-21.5 -28.5v-1q0 -18 21 -28t79 -12l113 -3q118 -3 183.5 -24.5t87.5 -55.5t22 -91v-7z" />
    <glyph glyph-name="uni015E" unicode="&#x15e;" horiz-adv-x="1030" 
d="M716 -154q0 -49 -41.5 -77t-151.5 -28h-175v92h109q36 0 36 22t-36 22h-71v111q-375 22 -375 262v10h312q8 -105 186 -105h9q57 0 95 5.5t56 16t24.5 22t6.5 26.5v1q0 21 -10 33.5t-50 22t-115 11.5l-138 4q-365 11 -365 224v9q0 39 11 70.5t40.5 61.5t76.5 50.5
t123 32.5t177 12h89q452 0 452 -235v-8h-309q-9 79 -180 79h-10q-70 0 -108 -8.5t-47 -19t-9 -27.5v-1q0 -17 10.5 -28t48 -19.5t103.5 -9.5l134 -3q210 -5 301.5 -58t91.5 -166v-14q0 -42 -10 -75.5t-40 -67.5t-79.5 -57.5t-134 -38t-197.5 -14.5h-32v-35q112 0 152 -25.5
t40 -76.5v-3z" />
    <glyph glyph-name="uni015F" unicode="&#x15f;" horiz-adv-x="808" 
d="M586 -154q0 -49 -41.5 -77t-151.5 -28h-175v92h109q36 0 36 22t-36 22h-71v114q-246 28 -246 185v7h277q3 -66 111 -66h2q65 0 88 12t23 33v2q0 22 -20.5 32.5t-82.5 11.5l-114 3q-278 9 -278 169v6q0 36 14 63.5t50.5 52.5t109 38t179.5 13h53q104 0 176.5 -13.5
t109.5 -38t52 -52.5t15 -63v-7h-272q-6 50 -108 50h-1q-62 0 -83.5 -8.5t-21.5 -28.5v-1q0 -18 21 -28t79 -12l113 -3q118 -3 183.5 -24.5t87.5 -55.5t22 -91v-7q0 -32 -8 -57t-32 -50t-64 -41.5t-107.5 -26.5t-159.5 -10h-30v-34q112 0 152 -25.5t40 -76.5v-3z" />
    <glyph glyph-name="Scaron" unicode="&#x160;" horiz-adv-x="1030" 
d="M361 792l-161 152h244l62 -58l62 58h241l-158 -152h-290zM1017 239q0 -42 -10 -75.5t-40 -67.5t-79.5 -57.5t-134 -38t-197.5 -14.5h-91q-454 0 -454 264v10h312q8 -105 186 -105h9q57 0 95 5.5t56 16t24.5 22t6.5 26.5v1q0 21 -10 33.5t-50 22t-115 11.5l-138 4
q-365 11 -365 224v9q0 39 11 70.5t40.5 61.5t76.5 50.5t123 32.5t177 12h89q452 0 452 -235v-8h-309q-9 79 -180 79h-10q-70 0 -108 -8.5t-47 -19t-9 -27.5v-1q0 -17 10.5 -28t48 -19.5t103.5 -9.5l134 -3q210 -5 301.5 -58t91.5 -166v-14z" />
    <glyph glyph-name="scaron" unicode="&#x161;" horiz-adv-x="808" 
d="M253 585l-151 159h239l57 -65l58 65h236l-150 -159h-289zM795 170q0 -32 -8 -57t-32 -50t-64 -41.5t-107.5 -26.5t-159.5 -10h-55q-359 0 -359 191v7h277q3 -66 111 -66h2q65 0 88 12t23 33v2q0 22 -20.5 32.5t-82.5 11.5l-114 3q-278 9 -278 169v6q0 36 14 63.5
t50.5 52.5t109 38t179.5 13h53q104 0 176.5 -13.5t109.5 -38t52 -52.5t15 -63v-7h-272q-6 50 -108 50h-1q-62 0 -83.5 -8.5t-21.5 -28.5v-1q0 -18 21 -28t79 -12l113 -3q118 -3 183.5 -24.5t87.5 -55.5t22 -91v-7z" />
    <glyph glyph-name="Tcommaaccent" unicode="&#x162;" horiz-adv-x="971" 
d="M564 -296h-130q28 56 35 92h-113v159h258v-125q0 -54 -50 -126zM22 541v203h926v-203h-321v-541h-284v541h-321z" />
    <glyph glyph-name="tcommaaccent" unicode="&#x163;" horiz-adv-x="508" 
d="M401 -296h-130q28 56 35 92h-113v159h258v-125q0 -54 -50 -126zM486 0h-230q-143 0 -143 153v220h-103v165h103v157h270v-157h103v-165h-103v-159q0 -26 8.5 -36.5t36.5 -10.5h58v-167z" />
    <glyph glyph-name="Tcaron" unicode="&#x164;" horiz-adv-x="971" 
d="M346 789l-165 155h244l62 -58l61 58h241l-161 -155h-282zM22 541v203h926v-203h-321v-541h-284v541h-321z" />
    <glyph glyph-name="tcaron" unicode="&#x165;" horiz-adv-x="508" 
d="M410 575l14 169h205l-28 -169h-191zM486 0h-230q-143 0 -143 153v220h-103v165h103v157h270v-157h103v-165h-103v-159q0 -26 8.5 -36.5t36.5 -10.5h58v-167z" />
    <glyph glyph-name="Tbar" unicode="&#x166;" horiz-adv-x="971" 
d="M22 541v203h926v-203h-321v-115h235v-142h-235v-284h-284v284h-234v142h234v115h-321z" />
    <glyph glyph-name="tbar" unicode="&#x167;" horiz-adv-x="508" 
d="M486 161v-161h-230q-143 0 -143 153v70h-103v117h103v46h-103v152h103v157h270v-157h103v-152h-103v-46h103v-117h-103v-14q0 -27 8.5 -37.5t36.5 -10.5h58z" />
    <glyph glyph-name="Utilde" unicode="&#x168;" horiz-adv-x="1098" 
d="M37 389v355h285v-333q0 -38 10 -70.5t33 -63t70.5 -48.5t114.5 -18q66 0 113 18t70.5 48.5t33.5 63t10 70.5v333h284v-355q0 -41 -7.5 -80.5t-25.5 -87t-54 -87.5t-87.5 -74t-133 -53t-182.5 -19h-40q-124 0 -217 28.5t-144.5 70.5t-83 99.5t-40.5 104.5t-9 98zM676 793
q-45 0 -135 29q-47 15 -60 15q-18 0 -18 -21v-29h-161v85q0 40 24.5 69t88.5 29h4q22 0 44.5 -4t36 -8t56.5 -17q45 -15 59 -15q17 0 17 20v29h161v-79q0 -103 -112 -103h-5z" />
    <glyph glyph-name="utilde" unicode="&#x169;" horiz-adv-x="881" 
d="M844 538v-538h-270v96q-108 -108 -273 -108h-7q-71 0 -124 20t-80.5 53t-40.5 67t-13 70v340h273v-257q0 -56 30 -90t94 -34q65 0 102.5 37t37.5 94v250h271zM564 585q-42 0 -132 29q-45 14 -56 14q-16 0 -16 -21v-27h-159v81q0 40 24 68.5t86 28.5h4q49 0 133 -28
q43 -15 55 -15q15 0 15 20v29h160v-76q0 -103 -110 -103h-4z" />
    <glyph glyph-name="Umacron" unicode="&#x16a;" horiz-adv-x="1098" 
d="M37 389v355h285v-333q0 -38 10 -70.5t33 -63t70.5 -48.5t114.5 -18q66 0 113 18t70.5 48.5t33.5 63t10 70.5v333h284v-355q0 -41 -7.5 -80.5t-25.5 -87t-54 -87.5t-87.5 -74t-133 -53t-182.5 -19h-40q-124 0 -217 28.5t-144.5 70.5t-83 99.5t-40.5 104.5t-9 98zM314 797
v132h469v-132h-469z" />
    <glyph glyph-name="umacron" unicode="&#x16b;" horiz-adv-x="881" 
d="M844 538v-538h-270v96q-108 -108 -273 -108h-7q-71 0 -124 20t-80.5 53t-40.5 67t-13 70v340h273v-257q0 -56 30 -90t94 -34q65 0 102.5 37t37.5 94v250h271zM214 593v129h452v-129h-452z" />
    <glyph glyph-name="Ubreve" unicode="&#x16c;" horiz-adv-x="1098" 
d="M37 389v355h285v-333q0 -38 10 -70.5t33 -63t70.5 -48.5t114.5 -18q66 0 113 18t70.5 48.5t33.5 63t10 70.5v333h284v-355q0 -41 -7.5 -80.5t-25.5 -87t-54 -87.5t-87.5 -74t-133 -53t-182.5 -19h-40q-124 0 -217 28.5t-144.5 70.5t-83 99.5t-40.5 104.5t-9 98zM793 952
q0 -23 -10.5 -49.5t-33.5 -55t-69.5 -47t-109.5 -18.5h-40q-68 0 -116.5 18.5t-70 47.5t-30.5 54.5t-9 49.5v2h183q1 -10 4.5 -19t19 -19.5t40.5 -10.5t40 10.5t18.5 20t3.5 18.5h180v-2z" />
    <glyph glyph-name="ubreve" unicode="&#x16d;" horiz-adv-x="881" 
d="M844 0v538h-271v-250q0 -57 -37.5 -94t-102.5 -37q-64 0 -94 34t-30 90v257h-273v-340q0 -36 13 -70t40.5 -67t80.5 -53t124 -20h7q165 0 273 108v-96h270zM682 742q0 -23 -10.5 -49t-34 -53.5t-69.5 -45t-107 -17.5h-40q-67 0 -114.5 17.5t-69.5 45.5t-30.5 52.5
t-8.5 49.5v2h181q0 -9 3.5 -18.5t19 -19.5t40.5 -10q24 0 39 10t18.5 19t4.5 19h178v-2z" />
    <glyph glyph-name="Uring" unicode="&#x16e;" horiz-adv-x="1098" 
d="M37 389v355h285v-333q0 -38 10 -70.5t33 -63t70.5 -48.5t114.5 -18q66 0 113 18t70.5 48.5t33.5 63t10 70.5v333h284v-355q0 -41 -7.5 -80.5t-25.5 -87t-54 -87.5t-87.5 -74t-133 -53t-182.5 -19h-40q-124 0 -217 28.5t-144.5 70.5t-83 99.5t-40.5 104.5t-9 98zM350 889
q0 119 200 119q197 0 197 -119t-197 -119q-200 0 -200 119zM473 890q0 -46 77 -46q75 0 75 46q0 44 -75 44q-77 0 -77 -44z" />
    <glyph glyph-name="uring" unicode="&#x16f;" horiz-adv-x="881" 
d="M243 695q0 118 198 118q195 0 195 -118q0 -119 -195 -119q-198 0 -198 119zM366 695q0 -45 75 -45q73 0 73 45q0 44 -73 44q-75 0 -75 -44zM844 538v-538h-270v96q-108 -108 -273 -108h-7q-71 0 -124 20t-80.5 53t-40.5 67t-13 70v340h273v-257q0 -56 30 -90t94 -34
q65 0 102.5 37t37.5 94v250h271z" />
    <glyph glyph-name="Uhungarumlaut" unicode="&#x170;" horiz-adv-x="1098" 
d="M37 389v355h285v-333q0 -38 10 -70.5t33 -63t70.5 -48.5t114.5 -18q66 0 113 18t70.5 48.5t33.5 63t10 70.5v333h284v-355q0 -41 -7.5 -80.5t-25.5 -87t-54 -87.5t-87.5 -74t-133 -53t-182.5 -19h-40q-124 0 -217 28.5t-144.5 70.5t-83 99.5t-40.5 104.5t-9 98zM289 789
l53 155h245l-59 -155h-239zM571 789l59 155h245l-65 -155h-239z" />
    <glyph glyph-name="uhungarumlaut" unicode="&#x171;" horiz-adv-x="881" 
d="M844 538v-538h-270v96q-108 -108 -273 -108h-7q-71 0 -124 20t-80.5 53t-40.5 67t-13 70v340h273v-257q0 -56 30 -90t94 -34q65 0 102.5 37t37.5 94v250h271zM188 583l56 161h236l-62 -161h-230zM461 583l63 161h237l-69 -161h-231z" />
    <glyph glyph-name="Uogonek" unicode="&#x172;" horiz-adv-x="1098" 
d="M804 -82v-106h-165q-147 0 -147 72v3q0 37 45 61t140 47q-49 -7 -106 -7h-40q-124 0 -217 28.5t-144.5 70.5t-83 99.5t-40.5 104.5t-9 98v355h285v-333q0 -38 10 -70.5t33 -63t70.5 -48.5t114.5 -18q66 0 113 18t70.5 48.5t33.5 63t10 70.5v333h284v-355
q0 -245 -242 -381q-44 -24 -62.5 -38.5t-18.5 -30.5q0 -21 34 -21h32z" />
    <glyph glyph-name="uogonek" unicode="&#x173;" horiz-adv-x="881" 
d="M844 538v-538q-60 -39 -60 -61q0 -21 33 -21h27v-106h-160q-147 0 -147 72v3q0 38 47 64t146 49h-156v96q-108 -108 -273 -108h-7q-71 0 -124 20t-80.5 53t-40.5 67t-13 70v340h273v-257q0 -56 30 -90t94 -34q65 0 102.5 37t37.5 94v250h271z" />
    <glyph glyph-name="Wcircumflex" unicode="&#x174;" horiz-adv-x="1529" 
d="M914 944l164 -155h-244l-62 58l-61 -58h-241l162 155h282zM926 0l-155 470l-150 -470h-346l-290 744h316l169 -491l149 491h320l151 -483l164 483h291l-290 -744h-329z" />
    <glyph glyph-name="wcircumflex" unicode="&#x175;" horiz-adv-x="1213" 
d="M758 744l153 -162h-237l-58 66l-58 -66h-233l152 162h281zM722 0l-108 326l-108 -326h-307l-212 538h283l105 -339l103 339h280l105 -338l103 338h260l-200 -538h-304z" />
    <glyph glyph-name="Ycircumflex" unicode="&#x176;" horiz-adv-x="1043" 
d="M668 278v-278h-284v280l-407 464h340l217 -257l221 257h311zM672 944l164 -155h-244l-62 58l-61 -58h-241l162 155h282z" />
    <glyph glyph-name="ycircumflex" unicode="&#x177;" horiz-adv-x="821" 
d="M576 -23q-40 -87 -88 -126t-119 -39h-253v166h122q25 0 25 17v1q0 11 -23 54l-254 488h290l150 -346l139 346h270zM562 744l153 -162h-237l-58 66l-58 -66h-233l152 162h281z" />
    <glyph glyph-name="Ydieresis" unicode="&#x178;" horiz-adv-x="1043" 
d="M668 278v-278h-284v280l-407 464h340l217 -257l221 257h311zM508 944v-155h-246v155h246zM801 944v-155h-245v155h245z" />
    <glyph glyph-name="Zacute" unicode="&#x179;" horiz-adv-x="948" 
d="M327 789l79 155h279l-101 -155h-257zM32 744h885v-151l-488 -390h493v-203h-896v152l474 396h-468v196z" />
    <glyph glyph-name="zacute" unicode="&#x17a;" horiz-adv-x="746" 
d="M241 583l89 161h268l-111 -161h-246zM727 165v-165h-708v146l358 233h-358v159h707v-143l-369 -230h370z" />
    <glyph glyph-name="Zdotaccent" unicode="&#x17b;" horiz-adv-x="948" 
d="M32 744h885v-151l-488 -390h493v-203h-896v152l474 396h-468v196zM609 950v-161h-271v161h271z" />
    <glyph glyph-name="zdotaccent" unicode="&#x17c;" horiz-adv-x="746" 
d="M727 165v-165h-708v146l358 233h-358v159h707v-143l-369 -230h370zM508 744v-161h-271v161h271z" />
    <glyph glyph-name="Zcaron" unicode="&#x17d;" horiz-adv-x="948" 
d="M334 789l-165 155h244l62 -58l61 58h241l-161 -155h-282zM32 744h885v-151l-488 -390h493v-203h-896v152l474 396h-468v196z" />
    <glyph glyph-name="zcaron" unicode="&#x17e;" horiz-adv-x="746" 
d="M235 583l-153 161h236l58 -65l58 65h234l-152 -161h-281zM727 165v-165h-708v146l358 233h-358v159h707v-143l-369 -230h370z" />
    <glyph glyph-name="uni0192" unicode="&#x192;" horiz-adv-x="538" 
d="M511 320h-124l-26 -510h-270l25 510h-98v166h106l5 105q4 71 48.5 112t155.5 41h178v-154h-75q-22 0 -29 -9t-9 -30l-3 -65h116v-166z" />
    <glyph glyph-name="Aringacute" unicode="&#x1fa;" horiz-adv-x="1101" 
d="M809 0l-58 120h-425l-57 -120h-288l368 744h382l389 -744h-311zM413 306h247l-125 256zM424 1040l89 161h268l-111 -161h-246zM343 898q0 119 200 119q197 0 197 -119t-197 -119q-200 0 -200 119zM466 899q0 -46 77 -46q75 0 75 46q0 44 -75 44q-77 0 -77 -44z" />
    <glyph glyph-name="aringacute" unicode="&#x1fb;" horiz-adv-x="840" 
d="M523 72q-79 -82 -252 -82h-11q-126 0 -187.5 50t-61.5 123v12q0 70 50.5 108t167.5 48l259 23q30 3 30 26q0 12 -6.5 19.5t-34 14.5t-76.5 7h-4q-40 0 -66 -5.5t-37 -16t-14 -17t-4 -16.5h-252v6q0 27 4.5 47t24.5 47t54.5 44t102 29.5t159.5 12.5h56q96 0 166 -11.5
t106 -28t57 -42t25.5 -45t4.5 -46.5v-199q0 -23 23 -23h29v-157h-226q-75 0 -87 72zM518 231v23l-180 -32q-36 -6 -51 -16t-15 -30v-1q0 -22 20 -38.5t65 -16.5q72 0 116.5 33t44.5 78zM281 839l89 161h268l-111 -161h-246zM202 696q0 118 198 118q195 0 195 -118
q0 -119 -195 -119q-198 0 -198 119zM325 696q0 -45 75 -45q73 0 73 45q0 44 -73 44q-75 0 -75 -44z" />
    <glyph glyph-name="AEacute" unicode="&#x1fc;" horiz-adv-x="1510" 
d="M859 789l79 155h279l-101 -155h-257zM665 0v116h-325l-83 -116h-286l540 744h960v-182h-526v-93h516v-181h-516v-102h534v-186h-814zM474 302h191v266z" />
    <glyph glyph-name="aeacute" unicode="&#x1fd;" horiz-adv-x="1375" 
d="M550 583l89 161h268l-111 -161h-246zM1359 194q0 -27 -7 -51t-31.5 -54t-65 -51.5t-115 -36.5t-174.5 -15h-55q-242 0 -342 113q-96 -109 -282 -109h-11q-138 0 -201.5 49.5t-63.5 123.5v12q0 70 51 109t166 48l263 23q23 3 23 26v1q0 11 -6.5 18.5t-33.5 13.5t-76 6h-5
q-40 0 -65.5 -5.5t-35.5 -15.5t-12.5 -16.5t-3.5 -16.5h-251v6q0 26 3.5 45.5t23 46.5t53.5 44.5t101 30.5t160 13h55q179 0 250 -50q80 50 237 50h57q101 0 176 -19t116 -46.5t65.5 -69t31.5 -77.5t7 -80v-30h-582q16 -99 162 -99h1q37 0 66 6t44 13.5t25 18t13 16.5t3 11
h266v-2zM936 421q-134 0 -154 -81h310q-18 81 -154 81h-2zM356 119q71 0 114.5 33.5t43.5 78.5v23l-178 -31q-35 -6 -50 -16t-15 -30v-1q0 -23 20 -40t65 -17z" />
    <glyph glyph-name="Oslashacute" unicode="&#x1fe;" horiz-adv-x="1175" 
d="M459 792l79 152h279l-101 -152h-257zM1156 358q0 -49 -9.5 -93t-44 -97t-91 -91t-159.5 -64t-241 -26h-46q-181 0 -300 47l-44 -34h-230q72 55 140 108q-112 96 -112 250v30q0 34 4.5 65.5t19 69.5t38.5 70t66 63t97.5 52.5t137.5 35t183 13.5h46q175 0 294 -46l43 33
h231l-138 -107q115 -95 115 -249v-30zM310 370q0 -58 31 -100l364 285q-48 6 -118 6q-81 0 -138 -15.5t-86 -42.5t-41 -56t-12 -64v-13zM865 383q0 57 -29 97l-369 -288q58 -7 120 -7q80 0 137 16t86.5 44t42 58.5t12.5 65.5v14z" />
    <glyph glyph-name="oslashacute" unicode="&#x1ff;" horiz-adv-x="921" 
d="M336 585l87 159h268l-109 -159h-246zM905 263q0 -278 -409 -278h-74q-133 0 -225 39l-37 -24h-177l118 82q-85 66 -85 182v16q0 38 9 72.5t36 72.5t70 65t119 45t175 18h75q127 0 223 -38l34 23h180l-115 -79q83 -69 83 -178v-18zM286 271q0 -29 10 -55l254 176
q-39 12 -88 12h-2q-95 0 -134.5 -37.5t-39.5 -91.5v-4zM461 136h1q94 0 134 40.5t40 94.5v4q0 28 -8 49l-253 -176q34 -12 86 -12z" />
    <glyph glyph-name="uni0218" unicode="&#x218;" horiz-adv-x="1030" 
d="M590 -299h-130q28 56 35 92h-113v159h258v-125q0 -53 -50 -126zM1017 239q0 -42 -10 -75.5t-40 -67.5t-79.5 -57.5t-134 -38t-197.5 -14.5h-91q-454 0 -454 264v10h312q8 -105 186 -105h9q57 0 95 5.5t56 16t24.5 22t6.5 26.5v1q0 21 -10 33.5t-50 22t-115 11.5l-138 4
q-365 11 -365 224v9q0 39 11 70.5t40.5 61.5t76.5 50.5t123 32.5t177 12h89q452 0 452 -235v-8h-309q-9 79 -180 79h-10q-70 0 -108 -8.5t-47 -19t-9 -27.5v-1q0 -17 10.5 -28t48 -19.5t103.5 -9.5l134 -3q210 -5 301.5 -58t91.5 -166v-14z" />
    <glyph glyph-name="uni0219" unicode="&#x219;" horiz-adv-x="808" 
d="M481 -298h-130q28 56 35 92h-113v159h258v-125q0 -54 -50 -126zM795 170q0 -32 -8 -57t-32 -50t-64 -41.5t-107.5 -26.5t-159.5 -10h-55q-359 0 -359 191v7h277q3 -66 111 -66h2q65 0 88 12t23 33v2q0 22 -20.5 32.5t-82.5 11.5l-114 3q-278 9 -278 169v6q0 36 14 63.5
t50.5 52.5t109 38t179.5 13h53q104 0 176.5 -13.5t109.5 -38t52 -52.5t15 -63v-7h-272q-6 50 -108 50h-1q-62 0 -83.5 -8.5t-21.5 -28.5v-1q0 -18 21 -28t79 -12l113 -3q118 -3 183.5 -24.5t87.5 -55.5t22 -91v-7z" />
    <glyph glyph-name="uni021A" unicode="&#x21a;" horiz-adv-x="971" 
d="M564 -296h-130q28 56 35 92h-113v159h258v-125q0 -54 -50 -126zM22 541v203h926v-203h-321v-541h-284v541h-321z" />
    <glyph glyph-name="uni021B" unicode="&#x21b;" horiz-adv-x="508" 
d="M401 -296h-130q28 56 35 92h-113v159h258v-125q0 -54 -50 -126zM486 0h-230q-143 0 -143 153v220h-103v165h103v157h270v-157h103v-165h-103v-159q0 -26 8.5 -36.5t36.5 -10.5h58v-167z" />
    <glyph glyph-name="uni0237" unicode="&#x237;" horiz-adv-x="346" 
d="M-31 -27h36q19 0 25.5 7t6.5 30v528h272v-578q0 -77 -31 -112.5t-81 -35.5h-228v161z" />
    <glyph glyph-name="uni02BC" unicode="&#x2bc;" horiz-adv-x="322" 
d="M239 475h-140q34 63 40 104h-111v165h267v-134q0 -30 -17.5 -69t-38.5 -66z" />
    <glyph glyph-name="circumflex" unicode="&#x2c6;" 
d="M490 744l153 -162h-237l-58 66l-58 -66h-233l152 162h281z" />
    <glyph glyph-name="caron" unicode="&#x2c7;" 
d="M210 583l-153 161h236l58 -65l58 65h234l-152 -161h-281z" />
    <glyph glyph-name="breve" unicode="&#x2d8;" 
d="M592 742q0 -23 -10.5 -49t-34 -53.5t-69.5 -45t-107 -17.5h-40q-67 0 -114.5 17.5t-69.5 45.5t-30.5 52.5t-8.5 49.5v2h181q0 -9 3.5 -18.5t19 -19.5t40.5 -10q24 0 39 10t18.5 19t4.5 19h178v-2z" />
    <glyph glyph-name="dotaccent" unicode="&#x2d9;" 
d="M485 744v-161h-271v161h271z" />
    <glyph glyph-name="ring" unicode="&#x2da;" 
d="M154 695q0 118 198 118q195 0 195 -118q0 -119 -195 -119q-198 0 -198 119zM277 695q0 -45 75 -45q73 0 73 45q0 44 -73 44q-75 0 -75 -44z" />
    <glyph glyph-name="ogonek" unicode="&#x2db;" 
d="M193 -116v3q0 38 47 64t146 49h114q-60 -39 -60 -61q0 -21 33 -21h27v-106h-160q-147 0 -147 72z" />
    <glyph glyph-name="tilde" unicode="&#x2dc;" 
d="M474 585q-42 0 -132 29q-45 14 -56 14q-16 0 -16 -21v-27h-159v81q0 40 24 68.5t86 28.5h4q49 0 133 -28q43 -15 55 -15q15 0 15 20v29h160v-76q0 -103 -110 -103h-4z" />
    <glyph glyph-name="hungarumlaut" unicode="&#x2dd;" 
d="M64 583l56 161h236l-62 -161h-230zM337 583l63 161h237l-69 -161h-231z" />
    <glyph glyph-name="uni0401" unicode="&#x401;" horiz-adv-x="907" 
d="M45 744h823v-182h-543v-93h532v-181h-532v-102h551v-186h-831v744zM442 944v-155h-246v155h246zM735 944v-155h-245v155h245z" />
    <glyph glyph-name="uni0402" unicode="&#x402;" horiz-adv-x="1144" 
d="M22 541v203h926v-203h-421v-102q93 14 182 14h25q394 0 394 -272v-13q0 -292 -443 -292h-56v183h24q109 0 147.5 28.5t38.5 77.5v3q0 95 -151 95h-18q-69 0 -143 -9v-254h-284v541h-221z" />
    <glyph glyph-name="uni0403" unicode="&#x403;" horiz-adv-x="854" 
d="M308 789l79 155h279l-101 -155h-257zM45 0v744h786v-198h-502v-546h-284z" />
    <glyph glyph-name="uni0404" unicode="&#x404;" horiz-adv-x="1120" 
d="M1103 293q0 -28 -7.5 -57t-26.5 -65.5t-57 -68t-92.5 -58.5t-141 -42.5t-193.5 -15.5h-39q-131 0 -230 26t-153.5 64.5t-88.5 91.5t-44 98t-10 94v29q0 50 9.5 94t42.5 96.5t87.5 90t154 63t232.5 25.5h39q129 0 227 -22.5t151.5 -55.5t87 -76.5t43 -78t9.5 -68.5v-11
h-295q-3 11 -6.5 20t-20 29.5t-40.5 34t-70.5 24.5t-107.5 11q-191 0 -238 -99h390v-175h-390q51 -111 239 -111q62 0 109 12.5t71 27t40 36.5t19 31t6 20h294v-14z" />
    <glyph glyph-name="uni0405" unicode="&#x405;" horiz-adv-x="1030" 
d="M1017 239q0 -42 -10 -75.5t-40 -67.5t-79.5 -57.5t-134 -38t-197.5 -14.5h-91q-454 0 -454 264v10h312q8 -105 186 -105h9q57 0 95 5.5t56 16t24.5 22t6.5 26.5v1q0 21 -10 33.5t-50 22t-115 11.5l-138 4q-365 11 -365 224v9q0 39 11 70.5t40.5 61.5t76.5 50.5t123 32.5
t177 12h89q452 0 452 -235v-8h-309q-9 79 -180 79h-10q-70 0 -108 -8.5t-47 -19t-9 -27.5v-1q0 -17 10.5 -28t48 -19.5t103.5 -9.5l134 -3q210 -5 301.5 -58t91.5 -166v-14z" />
    <glyph glyph-name="uni0406" unicode="&#x406;" horiz-adv-x="373" 
d="M328 744v-744h-283v744h283z" />
    <glyph glyph-name="uni0407" unicode="&#x407;" horiz-adv-x="373" 
d="M162 944v-155h-215v155h215zM426 944v-155h-216v155h216zM328 744v-744h-283v744h283z" />
    <glyph glyph-name="uni0408" unicode="&#x408;" horiz-adv-x="942" 
d="M904 363q0 -43 -6.5 -82t-22 -83.5t-46.5 -80t-76 -65.5t-115.5 -46.5t-158.5 -16.5h-61q-101 0 -178 23t-120.5 57.5t-71 81.5t-36 88t-8.5 85v6h279q13 -128 164 -128h8q86 0 125.5 45t39.5 122v375h284v-381z" />
    <glyph glyph-name="uni0409" unicode="&#x409;" horiz-adv-x="1551" 
d="M121 0h-101v212h15q58 0 80 27t30 126t8 379h766v-219h244q109 0 185 -19.5t116.5 -56t57.5 -79.5t17 -98v-16q0 -56 -17 -99.5t-57.5 -80t-117 -56.5t-185.5 -20h-526v553h-225q-1 -210 -15 -305t-45 -149q-29 -50 -81 -74.5t-149 -24.5zM919 185h208q118 0 118 77v3
q0 75 -118 75h-208v-155z" />
    <glyph glyph-name="uni040A" unicode="&#x40a;" horiz-adv-x="1584" 
d="M671 0v297h-342v-297h-284v744h284v-249h342v249h283v-249h241q109 0 185 -18t116.5 -52t57.5 -75t17 -95v-8q0 -55 -17 -97t-57.5 -77.5t-117 -54t-185.5 -18.5h-523zM954 181h207q116 0 116 67v3q0 32 -26 49t-90 17h-207v-136z" />
    <glyph glyph-name="uni040B" unicode="&#x40b;" horiz-adv-x="1163" 
d="M948 541h-421v-108q86 20 183 20h21q208 0 303.5 -72t95.5 -230v-151h-284v123q0 77 -36.5 108.5t-122.5 31.5h-17q-73 0 -143 -14v-249h-284v541h-221v203h926v-203z" />
    <glyph glyph-name="uni040C" unicode="&#x40c;" horiz-adv-x="1040" 
d="M692 0l-363 333v-333h-284v744h284v-294l366 294h353l-433 -338l447 -406h-370zM375 789l79 155h279l-101 -155h-257z" />
    <glyph glyph-name="uni040E" unicode="&#x40e;" horiz-adv-x="993" 
d="M634 169q-37 -56 -58 -82t-53.5 -49.5t-71.5 -30.5t-101 -7h-149v199h131q26 0 26 17v1q0 14 -13 31l-366 496h329l219 -323l198 323h289zM775 952q0 -23 -10.5 -49.5t-33.5 -55t-69.5 -47t-109.5 -18.5h-40q-68 0 -116.5 18.5t-70 47.5t-30.5 54.5t-9 49.5v2h183
q1 -10 4.5 -19t19 -19.5t40.5 -10.5t40 10.5t18.5 20t3.5 18.5h180v-2z" />
    <glyph glyph-name="uni040F" unicode="&#x40f;" horiz-adv-x="1088" 
d="M411 -130v130h267v-130h-267zM45 0v744h284v-546h431v546h283v-744h-998z" />
    <glyph glyph-name="uni0410" unicode="&#x410;" horiz-adv-x="1101" 
d="M809 0l-58 120h-425l-57 -120h-288l368 744h382l389 -744h-311zM413 306h247l-125 256z" />
    <glyph glyph-name="uni0411" unicode="&#x411;" horiz-adv-x="1043" 
d="M45 0v744h915v-175h-631v-89h326q109 0 185 -17t116.5 -49.5t57.5 -72t17 -91.5v-9q0 -54 -17 -95t-57.5 -75.5t-116.5 -52.5t-185 -18h-610zM329 180h295q113 0 113 66v3q0 63 -113 63h-295v-132z" />
    <glyph glyph-name="uni0412" unicode="&#x412;" horiz-adv-x="1072" 
d="M45 0v744h700q150 0 212.5 -47.5t62.5 -121.5v-11q0 -62 -40.5 -98.5t-87.5 -47.5q29 -7 55 -18.5t54.5 -33t45 -57.5t16.5 -82v-12q0 -215 -314 -215h-704zM659 575h-330v-105h330q76 0 76 52v2q0 51 -76 51zM677 303h-348v-128h348q88 0 88 64v3q0 61 -88 61z" />
    <glyph glyph-name="uni0413" unicode="&#x413;" horiz-adv-x="854" 
d="M45 0v744h786v-198h-502v-546h-284z" />
    <glyph glyph-name="uni0414" unicode="&#x414;" horiz-adv-x="1145" 
d="M103 198q31 62 41.5 177.5t10.5 368.5h865v-546h120v-328h-267v130h-601v-130h-267v328h98zM366 198h370v348h-325q-2 -257 -45 -348z" />
    <glyph glyph-name="uni0415" unicode="&#x415;" horiz-adv-x="907" 
d="M45 744h823v-182h-543v-93h532v-181h-532v-102h551v-186h-831v744z" />
    <glyph glyph-name="uni0416" unicode="&#x416;" horiz-adv-x="1611" 
d="M664 0v317l-310 -317h-368l411 404l-401 340h355l313 -277v277h284v-277l313 277h353l-399 -339l413 -405h-370l-310 317v-317h-284z" />
    <glyph glyph-name="uni0417" unicode="&#x417;" horiz-adv-x="1071" 
d="M1053 227q0 -238 -486 -238h-47q-242 0 -369 72t-127 208v15h294q3 -111 233 -111q205 0 205 66v3q0 58 -161 58h-219v170h219q76 0 111 11t35 37v3q0 55 -195 55q-222 0 -226 -100h-294v16q0 114 123.5 188t365.5 74h45q469 0 469 -191v-9q0 -58 -48 -99t-135 -50
q97 -10 152 -55.5t55 -112.5v-10z" />
    <glyph glyph-name="uni0418" unicode="&#x418;" horiz-adv-x="1125" 
d="M796 0v467l-467 -467h-284v744h284v-468l467 468h284v-744h-284z" />
    <glyph glyph-name="uni0419" unicode="&#x419;" horiz-adv-x="1125" 
d="M796 0v467l-467 -467h-284v744h284v-468l467 468h284v-744h-284zM809 952q0 -23 -10.5 -49.5t-33.5 -55t-69.5 -47t-109.5 -18.5h-40q-68 0 -116.5 18.5t-70 47.5t-30.5 54.5t-9 49.5v2h183q1 -10 4.5 -19t19 -19.5t40.5 -10.5t40 10.5t18.5 20t3.5 18.5h180v-2z" />
    <glyph glyph-name="uni041A" unicode="&#x41a;" horiz-adv-x="1040" 
d="M692 0l-363 333v-333h-284v744h284v-294l366 294h353l-433 -338l447 -406h-370z" />
    <glyph glyph-name="uni041B" unicode="&#x41b;" horiz-adv-x="1048" 
d="M719 0v553h-308q-1 -213 -14.5 -307.5t-45.5 -146.5t-85.5 -75.5t-153.5 -23.5h-92v212h15q59 0 80 27q22 27 30 126t8 379h850v-744h-284z" />
    <glyph glyph-name="uni041C" unicode="&#x41c;" horiz-adv-x="1314" 
d="M45 0v744h390l228 -418l232 418h374v-744h-281v464l-261 -464h-145l-260 464v-464h-277z" />
    <glyph glyph-name="uni041D" unicode="&#x41d;" horiz-adv-x="1122" 
d="M794 0v283h-465v-283h-284v744h284v-263h465v263h283v-744h-283z" />
    <glyph glyph-name="uni041E" unicode="&#x41e;" horiz-adv-x="1170" 
d="M563 758h45q137 0 240 -25.5t159 -63t90 -90.5t43.5 -96.5t9.5 -93.5v-30q0 -34 -4.5 -65t-19 -69.5t-38 -71t-65.5 -64.5t-97 -54t-136.5 -35.5t-181.5 -13.5h-45q-100 0 -181.5 13.5t-137 35.5t-97.5 54t-65.5 64.5t-38 71t-19 69.5t-4.5 65v30q0 34 4.5 65t19 69.5
t38 70.5t65.5 63t97.5 52.5t137 35t181.5 13.5zM856 382q0 33 -12 61.5t-40 55.5t-84 43t-135 16q-80 0 -136 -16t-84 -43t-39.5 -55.5t-11.5 -61.5v-12q0 -33 12 -62.5t40 -58t84.5 -45.5t134.5 -17t134.5 16.5t84.5 45t40 57.5t12 62v14z" />
    <glyph glyph-name="uni041F" unicode="&#x41f;" horiz-adv-x="1088" 
d="M45 0v744h998v-744h-283v546h-431v-546h-284z" />
    <glyph glyph-name="uni0420" unicode="&#x420;" horiz-adv-x="1031" 
d="M665 233h-336v-233h-284v744h620q353 0 353 -246v-16q0 -249 -353 -249zM329 558v-139h302q94 0 94 68v3q0 68 -94 68h-302z" />
    <glyph glyph-name="uni0421" unicode="&#x421;" horiz-adv-x="1120" 
d="M1103 293q0 -28 -7.5 -57t-26.5 -65.5t-57 -68t-92.5 -58.5t-141 -42.5t-193.5 -15.5h-39q-131 0 -230 26t-153.5 64.5t-88.5 91.5t-44 98t-10 94v29q0 50 9.5 94t42.5 96.5t87.5 90t154 63t232.5 25.5h39q94 0 171.5 -12t129.5 -31t92.5 -46t63 -53.5t37 -57.5
t19.5 -54.5t5 -46.5v-13h-295q-3 11 -6.5 20t-20 28t-40.5 32t-70.5 23.5t-107.5 10.5q-249 0 -249 -174v-12q0 -33 11.5 -63t38 -59t78 -46t122.5 -17q62 0 109 11.5t71 25.5t40 35t19 30t6 20h294v-16z" />
    <glyph glyph-name="uni0422" unicode="&#x422;" horiz-adv-x="971" 
d="M22 541v203h926v-203h-321v-541h-284v541h-321z" />
    <glyph glyph-name="uni0423" unicode="&#x423;" horiz-adv-x="993" 
d="M634 169q-37 -56 -58 -82t-53.5 -49.5t-71.5 -30.5t-101 -7h-149v199h131q26 0 26 17v1q0 14 -13 31l-366 496h329l219 -323l198 323h289z" />
    <glyph glyph-name="uni0424" unicode="&#x424;" horiz-adv-x="1448" 
d="M582 686v68h284v-68h187q178 0 280.5 -76t102.5 -215v-16q0 -139 -102 -216.5t-280 -77.5h-188v-95h-284v95h-188q-178 0 -280 77.5t-102 216.5v16q0 138 102.5 214.5t280.5 76.5h187zM864 498v-225h130q76 0 115 30.5t39 80.5v6q0 49 -39 78.5t-115 29.5h-130zM584 498
h-130q-76 0 -115 -29.5t-39 -78.5v-6q0 -50 39 -80.5t115 -30.5h130v225z" />
    <glyph glyph-name="uni0425" unicode="&#x425;" horiz-adv-x="1077" 
d="M742 0l-208 233l-206 -233h-342l341 382l-330 362h363l189 -219l190 219h337l-322 -359l337 -385h-349z" />
    <glyph glyph-name="uni0426" unicode="&#x426;" horiz-adv-x="1168" 
d="M897 -130v130h-852v744h284v-546h431v546h283v-546h120v-328h-266z" />
    <glyph glyph-name="uni0427" unicode="&#x427;" horiz-adv-x="994" 
d="M666 0v258q-106 -20 -235 -20q-214 0 -315 66t-101 229v211h284v-175q0 -80 47.5 -106.5t153.5 -26.5q94 0 166 15v293h283v-744h-283z" />
    <glyph glyph-name="uni0428" unicode="&#x428;" horiz-adv-x="1536" 
d="M45 0v744h290v-546h288v546h290v-546h288v546h290v-744h-1446z" />
    <glyph glyph-name="uni0429" unicode="&#x429;" horiz-adv-x="1616" 
d="M45 0v744h290v-546h288v546h290v-546h288v546h290v-546h120v-328h-267v130h-1299z" />
    <glyph glyph-name="uni042A" unicode="&#x42a;" horiz-adv-x="1227" 
d="M12 538v206h513v-219h313q109 0 185 -19.5t116.5 -56t57.5 -79.5t17 -98v-16q0 -56 -17 -99.5t-57.5 -80t-116.5 -56.5t-185 -20h-597v538h-229zM525 185h277q118 0 118 77v3q0 75 -118 75h-277v-155z" />
    <glyph glyph-name="uni042B" unicode="&#x42b;" horiz-adv-x="1401" 
d="M642 525q109 0 185 -19.5t116.5 -56t57.5 -79.5t17 -98v-16q0 -56 -17 -99.5t-57.5 -80t-116.5 -56.5t-185 -20h-597v744h284v-219h313zM329 185h277q118 0 118 77v3q0 75 -118 75h-277v-155zM1355 744v-744h-283v744h283z" />
    <glyph glyph-name="uni042C" unicode="&#x42c;" horiz-adv-x="1031" 
d="M642 525q109 0 185 -19.5t116.5 -56t57.5 -79.5t17 -98v-16q0 -56 -17 -99.5t-57.5 -80t-116.5 -56.5t-185 -20h-597v744h284v-219h313zM329 185h277q118 0 118 77v3q0 75 -118 75h-277v-155z" />
    <glyph glyph-name="uni042D" unicode="&#x42d;" horiz-adv-x="1121" 
d="M1101 360q0 -49 -10 -94t-44 -98t-88.5 -91.5t-153.5 -64.5t-230 -26h-38q-128 0 -226 22t-152 54.5t-87.5 75.5t-43.5 77t-10 67v15h293q3 -15 12 -30t32.5 -37t76.5 -36t128 -14q190 0 238 111h-383v175h383q-46 99 -240 99q-59 0 -104.5 -9t-70 -21t-41.5 -29
t-22 -27.5t-8 -22.5h-293v11q0 33 9.5 66t43 75.5t87 74t151.5 53.5t227 22h38q133 0 232.5 -25.5t154 -63t87.5 -90t42.5 -96.5t9.5 -94v-29z" />
    <glyph glyph-name="uni042E" unicode="&#x42e;" horiz-adv-x="1508" 
d="M1488 359q0 -33 -4.5 -64.5t-19 -70t-37.5 -71t-63 -64t-92.5 -54t-129.5 -36t-170 -13.5h-38q-108 0 -193.5 18.5t-139 47t-91.5 69t-56 79.5t-26 83h-99v-283h-284v744h284v-263h102q66 277 503 277h38q108 0 194 -17t140.5 -47.5t92 -66.5t56 -80t26 -81t7.5 -77v-30z
M1193 368v14q0 32 -11.5 61t-37 56t-75 43t-117.5 16q-130 0 -185 -52t-55 -124v-12q0 -25 6.5 -49t24 -49t43.5 -43.5t69 -30t97 -11.5q67 0 116.5 16.5t75.5 44.5t37.5 58t11.5 62z" />
    <glyph glyph-name="uni042F" unicode="&#x42f;" horiz-adv-x="1064" 
d="M735 239h-131l-254 -239h-350l283 255q-130 17 -193 78t-63 151v16q0 50 17.5 91.5t54.5 77t105 55.5t161 20h654v-744h-284v239zM735 417v141h-324q-46 0 -68 -19.5t-22 -49.5v-2q0 -31 22.5 -50.5t68.5 -19.5h323z" />
    <glyph glyph-name="uni0430" unicode="&#x430;" horiz-adv-x="840" 
d="M523 72q-79 -82 -252 -82h-11q-126 0 -187.5 50t-61.5 123v12q0 70 50.5 108t167.5 48l259 23q30 3 30 26q0 12 -6.5 19.5t-34 14.5t-76.5 7h-4q-40 0 -66 -5.5t-37 -16t-14 -17t-4 -16.5h-252v6q0 27 4.5 47t24.5 47t54.5 44t102 29.5t159.5 12.5h56q96 0 166 -11.5
t106 -28t57 -42t25.5 -45t4.5 -46.5v-199q0 -23 23 -23h29v-157h-226q-75 0 -87 72zM518 231v23l-180 -32q-36 -6 -51 -16t-15 -30v-1q0 -22 20 -38.5t65 -16.5q72 0 116.5 33t44.5 78z" />
    <glyph glyph-name="uni0431" unicode="&#x431;" horiz-adv-x="901" 
d="M886 245q0 -125 -108 -192.5t-306 -67.5h-41q-196 0 -305.5 79.5t-109.5 247.5v47q0 184 101 279t328 95h106q24 0 38 5.5t17 10t3 8.5h260q-1 -106 -61 -153.5t-209 -47.5h-123q-118 0 -169 -34t-52 -107q35 38 109.5 63.5t177.5 25.5h10q97 0 170 -24t118.5 -79.5
t45.5 -136.5v-19zM452 138q79 0 118.5 32t39.5 79v7q0 47 -39 76.5t-119 29.5t-120 -29.5t-40 -76.5v-8q0 -47 40 -78.5t120 -31.5z" />
    <glyph glyph-name="uni0432" unicode="&#x432;" horiz-adv-x="855" 
d="M561 0h-524v538h487q154 0 218.5 -32t64.5 -92v-8q0 -43 -33.5 -71t-88.5 -39q65 -12 108.5 -45t43.5 -89v-8q0 -69 -66 -111.5t-210 -42.5zM305 341h151q79 0 79 36v2q0 18 -17.5 25.5t-62.5 7.5h-150v-71zM305 129h168q86 0 86 46v4q0 42 -87 42h-167v-92z" />
    <glyph glyph-name="uni0433" unicode="&#x433;" horiz-adv-x="614" 
d="M37 0v538h558v-164h-286v-374h-272z" />
    <glyph glyph-name="uni0434" unicode="&#x434;" horiz-adv-x="978" 
d="M5 -127v291h79q23 45 33.5 127t12.5 247h735v-374h106v-291h-249v127h-468v-127h-249zM338 164h259v215h-228q-5 -141 -31 -215z" />
    <glyph glyph-name="uni0435" unicode="&#x435;" horiz-adv-x="882" 
d="M866 194q0 -27 -7 -51t-32 -54.5t-66 -52t-116.5 -36.5t-175.5 -15h-53q-95 0 -168 17t-116 44t-70 64.5t-36.5 74t-9.5 77.5v20q0 271 397 271h55q73 0 132.5 -9.5t100.5 -25.5t71.5 -40t48.5 -48.5t29 -55t14.5 -57t3.5 -57.5v-30h-585q16 -99 163 -99h1q36 0 64.5 5.5
t44 13.5t25.5 18t13 16.5t4 11.5h268v-2zM441 421q-133 0 -155 -81h310q-16 81 -155 81z" />
    <glyph glyph-name="uni0436" unicode="&#x436;" horiz-adv-x="1214" 
d="M469 0v239l-183 -239h-303l231 293l-204 245h292l167 -206v206h272v-207l167 207h289l-201 -241l234 -297h-306l-183 240v-240h-272z" />
    <glyph glyph-name="uni0437" unicode="&#x437;" horiz-adv-x="843" 
d="M830 152q0 -74 -93 -120.5t-290 -46.5h-30q-200 0 -302 63.5t-102 162.5v4h270q2 -92 148 -92q120 0 120 49v3q0 44 -96 44h-139v116h144q68 0 68 40v3q0 43 -109 43q-128 0 -136 -72h-270v6q0 86 98 142t303 56h33q173 0 263.5 -34.5t90.5 -100.5v-8q0 -46 -39 -77
t-108 -38q79 -9 127.5 -44t48.5 -91v-8z" />
    <glyph glyph-name="uni0438" unicode="&#x438;" horiz-adv-x="913" 
d="M37 0v538h272v-316l292 316h275v-538h-271v316l-293 -316h-275z" />
    <glyph glyph-name="uni0439" unicode="&#x439;" horiz-adv-x="913" 
d="M37 0v538h272v-316l292 316h275v-538h-271v316l-293 -316h-275zM699 742q0 -23 -10.5 -49t-34 -53.5t-69.5 -45t-107 -17.5h-40q-67 0 -114.5 17.5t-69.5 45.5t-30.5 52.5t-8.5 49.5v2h181q0 -9 3.5 -18.5t19 -19.5t40.5 -10q24 0 39 10t18.5 19t4.5 19h178v-2z" />
    <glyph glyph-name="uni043A" unicode="&#x43a;" horiz-adv-x="801" 
d="M509 0l-200 242v-242h-272v538h272v-210l184 210h293l-219 -238l251 -300h-309z" />
    <glyph glyph-name="uni043B" unicode="&#x43b;" horiz-adv-x="841" 
d="M526 0v374h-186q-2 -117 -9 -177t-24 -99q-44 -98 -197 -98h-102v171h12q48 0 60 48q16 53 17 319h700v-538h-271z" />
    <glyph glyph-name="uni043C" unicode="&#x43c;" horiz-adv-x="1103" 
d="M478 0l-184 294v-294h-257v538h342l176 -282l181 282h330v-538h-271v292l-184 -292h-133z" />
    <glyph glyph-name="uni043D" unicode="&#x43d;" horiz-adv-x="883" 
d="M309 0h-272v538h272v-188h265v188h272v-538h-272v185h-265v-185z" />
    <glyph glyph-name="uni043E" unicode="&#x43e;" horiz-adv-x="921" 
d="M424 -15q-99 0 -174.5 18.5t-118.5 46t-70 66.5t-36 74t-9 74v16q0 38 9 72.5t35.5 72.5t69.5 65t118.5 45t174.5 18h76q406 0 406 -272v-18q0 -40 -7 -73.5t-32.5 -73t-67.5 -67t-119 -46t-181 -18.5h-74zM461 401q-92 0 -130.5 -36.5t-38.5 -89.5v-4q0 -54 39 -93.5
t130 -39.5h1q91 0 129.5 40t38.5 93v4q0 52 -38.5 89t-129.5 37h-1z" />
    <glyph glyph-name="uni043F" unicode="&#x43f;" horiz-adv-x="866" 
d="M37 0v538h792v-538h-271v374h-249v-374h-272z" />
    <glyph glyph-name="uni0440" unicode="&#x440;" horiz-adv-x="927" 
d="M37 538h272v-75q17 16 42 31.5t87 34.5t133 19h21q89 0 153.5 -21.5t99.5 -60t50.5 -83t15.5 -98.5v-21q0 -54 -16.5 -100t-52.5 -86.5t-102 -64t-156 -23.5h-19q-69 0 -129.5 16.5t-86 31.5t-40.5 28v-254h-272v726zM309 272v-4q0 -50 43 -89t124 -39h5q82 0 118 38
t36 90v4q0 54 -35.5 90.5t-118.5 36.5h-5q-83 0 -125 -37t-42 -90z" />
    <glyph glyph-name="uni0441" unicode="&#x441;" horiz-adv-x="881" 
d="M869 232q0 -19 -2.5 -37t-12 -43.5t-25.5 -47.5t-46.5 -44.5t-71 -38.5t-102 -26t-137.5 -10h-60q-99 0 -173.5 18.5t-116 46.5t-66.5 67.5t-32.5 73t-7.5 72.5v18q0 272 395 272h62q102 0 178.5 -18.5t116.5 -44t64.5 -61.5t30.5 -62t6 -54v-3h-278q-2 12 -7 24
t-19.5 29.5t-46 28.5t-76.5 11h-4q-79 0 -112.5 -35.5t-33.5 -89.5v-5q0 -57 34 -96.5t112 -39.5h4q44 0 75.5 11.5t46 30t20 31t7.5 24.5h278v-2z" />
    <glyph glyph-name="uni0442" unicode="&#x442;" horiz-adv-x="751" 
d="M240 0v374h-220v164h711v-164h-220v-374h-271z" />
    <glyph glyph-name="uni0443" unicode="&#x443;" horiz-adv-x="821" 
d="M576 -23q-40 -87 -88 -126t-119 -39h-253v166h122q25 0 25 17v1q0 11 -23 54l-254 488h290l150 -346l139 346h270z" />
    <glyph glyph-name="uni0444" unicode="&#x444;" horiz-adv-x="1201" 
d="M770 -15h-34v-173h-271v173h-37q-97 0 -172 18.5t-119 46.5t-72.5 66.5t-38.5 74t-10 72.5v12q0 40 11 77t40 74.5t73.5 64.5t118.5 44.5t169 17.5h37v191h271v-191h34q95 0 169 -17t119 -44.5t74.5 -65t41 -74t11.5 -76.5v-14q0 -37 -11 -72.5t-40.5 -73.5t-74.5 -66.5
t-119.5 -46.5t-169.5 -18zM446 138h19v264h-19q-75 0 -114.5 -38t-39.5 -94v-3q0 -57 39 -93t115 -36zM755 402h-19v-264h19q82 0 118 36t36 91v4q0 132 -154 133z" />
    <glyph glyph-name="uni0445" unicode="&#x445;" horiz-adv-x="842" 
d="M553 0l-135 158l-134 -158h-297l248 277l-243 261h309l123 -141l120 141h299l-237 -257l250 -281h-303z" />
    <glyph glyph-name="uni0446" unicode="&#x446;" horiz-adv-x="923" 
d="M916 164v-291h-250v127h-629v538h272v-374h229v374h271v-374h107z" />
    <glyph glyph-name="uni0447" unicode="&#x447;" horiz-adv-x="829" 
d="M520 538h272v-538h-272v176q-70 -14 -165 -14q-86 0 -144.5 9.5t-105 34t-68.5 70t-22 113.5v149h272v-123q0 -52 30 -70t104 -18q67 0 99 9v202z" />
    <glyph glyph-name="uni0448" unicode="&#x448;" horiz-adv-x="1214" 
d="M37 0v538h272v-374h162v374h272v-374h162v374h271v-538h-1139z" />
    <glyph glyph-name="uni0449" unicode="&#x449;" horiz-adv-x="1290" 
d="M37 0v538h272v-374h162v374h272v-374h162v374h271v-374h107v-291h-250v127h-996z" />
    <glyph glyph-name="uni044A" unicode="&#x44a;" horiz-adv-x="985" 
d="M13 379v159h448v-134h229q141 0 209 -52.5t68 -137.5v-13q0 -86 -69 -143.5t-208 -57.5h-501v379h-176zM461 144h161q35 0 52.5 16.5t17.5 39.5v4q0 24 -17.5 40t-52.5 16h-161v-116z" />
    <glyph glyph-name="uni044B" unicode="&#x44b;" horiz-adv-x="1167" 
d="M37 0v538h272v-134h229q141 0 209 -52.5t68 -137.5v-13q0 -86 -69 -143.5t-208 -57.5h-501zM309 144h161q35 0 52.5 16.5t17.5 39.5v4q0 24 -17.5 40t-52.5 16h-161v-116zM1130 538v-538h-272v538h272z" />
    <glyph glyph-name="uni044C" unicode="&#x44c;" horiz-adv-x="833" 
d="M37 0v538h272v-134h229q141 0 209 -52.5t68 -137.5v-13q0 -86 -69 -143.5t-208 -57.5h-501zM309 144h161q35 0 52.5 16.5t17.5 39.5v4q0 24 -17.5 40t-52.5 16h-161v-116z" />
    <glyph glyph-name="uni044D" unicode="&#x44d;" horiz-adv-x="881" 
d="M865 263q0 -38 -8 -72.5t-33.5 -73.5t-67 -67t-115.5 -46.5t-172 -18.5h-60q-100 0 -175.5 18t-116.5 44t-65.5 61t-31.5 62t-7 55v2h277q2 -16 8.5 -31.5t22 -33t46.5 -28.5t74 -11h4q112 0 139 85h-236v126h237q-26 83 -140 83h-4q-136 0 -151 -100h-277v3q0 26 7 52.5
t32 60.5t65.5 59t116 43t174.5 18h62q96 0 169 -18t115 -45.5t68 -65.5t34.5 -72t8.5 -71v-18z" />
    <glyph glyph-name="uni044E" unicode="&#x44e;" horiz-adv-x="1236" 
d="M1220 263q0 -278 -397 -278h-54q-329 0 -388 202h-72v-187h-272v538h272v-190h70q11 41 35 75t68 64.5t117 48t169 17.5h56q99 0 173 -18t115.5 -45t67 -65.5t33 -72t7.5 -71.5v-18zM797 401h-1q-82 0 -115 -36.5t-33 -89.5v-4q0 -54 33.5 -93.5t114.5 -39.5h1
q81 0 114.5 39.5t33.5 93.5v4q0 53 -33.5 89.5t-114.5 36.5z" />
    <glyph glyph-name="uni044F" unicode="&#x44f;" horiz-adv-x="860" 
d="M552 147h-88l-151 -147h-300l177 169q-78 18 -117.5 62t-39.5 106v10q0 88 70 139.5t210 51.5h510v-538h-271v147zM552 394h-169q-77 0 -77 -52v-3q0 -51 77 -51h169v106z" />
    <glyph glyph-name="uni0451" unicode="&#x451;" horiz-adv-x="882" 
d="M468 553q73 0 132.5 -9.5t100.5 -25.5t71.5 -40t48.5 -48.5t29 -55t14.5 -57t3.5 -57.5v-30h-585q16 -99 163 -99h1q36 0 64.5 5.5t44 13.5t25.5 18t13 16.5t4 11.5h268v-2q0 -27 -7 -51t-32 -54.5t-66 -52t-116.5 -36.5t-175.5 -15h-53q-95 0 -168 17t-116 44t-70 64.5
t-36.5 74t-9.5 77.5v20q0 271 397 271h55zM704 744v-159h-239v159h239zM419 744v-159h-238v159h238zM441 421q-135 0 -155 -81h310q-17 81 -155 81z" />
    <glyph glyph-name="uni0452" unicode="&#x452;" horiz-adv-x="891" 
d="M855 -44q0 -75 -31 -109.5t-81 -34.5h-228v161h36q19 0 25 6.5t6 33.5v244q0 57 -31.5 90.5t-98.5 33.5t-105 -36.5t-38 -94.5v-250h-272v585h-69v110h69v49h272v-49h250v-110h-250v-141q106 106 276 106h6q72 0 125.5 -19.5t82.5 -51t42.5 -65t13.5 -68.5v-390z" />
    <glyph glyph-name="uni0453" unicode="&#x453;" horiz-adv-x="614" 
d="M37 0v538h558v-164h-286v-374h-272zM185 583l89 161h268l-111 -161h-246z" />
    <glyph glyph-name="uni0454" unicode="&#x454;" horiz-adv-x="885" 
d="M868 225q0 -19 -3 -37.5t-13.5 -43t-27 -46t-47 -43t-71 -36.5t-101 -24.5t-133.5 -9.5h-60q-99 0 -173.5 18.5t-116 46.5t-66.5 67.5t-32.5 73t-7.5 72.5v18q0 272 395 272h62q100 0 175.5 -18t116 -43t65.5 -59.5t31.5 -60.5t6.5 -52v-3h-277q-2 15 -8 29t-21 32
t-46 28.5t-74 10.5h-4q-115 0 -141 -83h240v-126h-238q28 -85 139 -85h4q43 0 74 11t46 29t21.5 33t7.5 31h277v-2z" />
    <glyph glyph-name="uni0455" unicode="&#x455;" horiz-adv-x="808" 
d="M795 170q0 -32 -8 -57t-32 -50t-64 -41.5t-107.5 -26.5t-159.5 -10h-55q-359 0 -359 191v7h277q3 -66 111 -66h2q65 0 88 12t23 33v2q0 22 -20.5 32.5t-82.5 11.5l-114 3q-278 9 -278 169v6q0 36 14 63.5t50.5 52.5t109 38t179.5 13h53q104 0 176.5 -13.5t109.5 -38
t52 -52.5t15 -63v-7h-272q-6 50 -108 50h-1q-62 0 -83.5 -8.5t-21.5 -28.5v-1q0 -18 21 -28t79 -12l113 -3q118 -3 183.5 -24.5t87.5 -55.5t22 -91v-7z" />
    <glyph glyph-name="uni0456" unicode="&#x456;" horiz-adv-x="346" 
d="M309 744v-161h-272v161h272zM309 538v-538h-272v538h272z" />
    <glyph glyph-name="uni0457" unicode="&#x457;" horiz-adv-x="346" 
d="M157 744v-161h-151v161h151zM337 744v-161h-151v161h151zM309 538v-538h-272v538h272z" />
    <glyph glyph-name="uni0458" unicode="&#x458;" horiz-adv-x="346" 
d="M309 744v-161h-272v161h272zM-31 -27h36q19 0 25.5 7t6.5 30v528h272v-578q0 -77 -31 -112.5t-81 -35.5h-228v161z" />
    <glyph glyph-name="uni0459" unicode="&#x459;" horiz-adv-x="1299" 
d="M97 538h690v-134h216q141 0 209.5 -52.5t68.5 -137.5v-13q0 -86 -69 -143.5t-209 -57.5h-487v374h-176q-3 -203 -28 -266q-24 -57 -72 -82.5t-131 -25.5h-101v171h12q48 0 60 48q16 53 17 319zM787 144h148q35 0 52.5 16.5t17.5 39.5v4q0 24 -17.5 40t-52.5 16h-148v-116
z" />
    <glyph glyph-name="uni045A" unicode="&#x45a;" horiz-adv-x="1304" 
d="M309 0h-272v538h272v-168h225v168h272v-168h203q277 0 277 -172v-14q0 -83 -68.5 -133.5t-208.5 -50.5h-475v219h-225v-219zM806 233v-96h136q34 0 51 13.5t17 33.5v4q0 45 -68 45h-136z" />
    <glyph glyph-name="uni045B" unicode="&#x45b;" horiz-adv-x="891" 
d="M309 250v-250h-272v585h-69v110h69v49h272v-49h250v-110h-250v-141q106 106 276 106h6q72 0 125.5 -19.5t82.5 -51t42.5 -65t13.5 -68.5v-346h-273v257q0 57 -31.5 90.5t-98.5 33.5t-105 -36.5t-38 -94.5z" />
    <glyph glyph-name="uni045C" unicode="&#x45c;" horiz-adv-x="801" 
d="M269 583l89 161h268l-111 -161h-246zM509 0l-200 242v-242h-272v538h272v-210l184 210h293l-219 -238l251 -300h-309z" />
    <glyph glyph-name="uni045E" unicode="&#x45e;" horiz-adv-x="821" 
d="M576 -23q-40 -87 -88 -126t-119 -39h-253v166h122q25 0 25 17v1q0 11 -23 54l-254 488h290l150 -346l139 346h270zM665 742q0 -23 -10.5 -49t-34 -53.5t-69.5 -45t-107 -17.5h-40q-67 0 -114.5 17.5t-69.5 45.5t-30.5 52.5t-8.5 49.5v2h181q0 -9 3.5 -18.5t19 -19.5
t40.5 -10q24 0 39 10t18.5 19t4.5 19h178v-2z" />
    <glyph glyph-name="uni045F" unicode="&#x45f;" horiz-adv-x="866" 
d="M829 0h-271v-127h-249v127h-272v538h272v-374h249v374h271v-538z" />
    <glyph glyph-name="uni0490" unicode="&#x490;" horiz-adv-x="856" 
d="M46 0v744h520v130h266v-328h-502v-546h-284z" />
    <glyph glyph-name="uni0491" unicode="&#x491;" horiz-adv-x="614" 
d="M37 0v538h308v127h250v-291h-286v-374h-272z" />
    <glyph glyph-name="uni0492" unicode="&#x492;" horiz-adv-x="867" 
d="M58 0v289h-59v158h59v297h786v-198h-502v-99h191v-158h-191v-289h-284z" />
    <glyph glyph-name="uni0493" unicode="&#x493;" horiz-adv-x="654" 
d="M77 0v190h-68v113h68v235h558v-164h-286v-71h146v-113h-146v-190h-272z" />
    <glyph glyph-name="uni0496" unicode="&#x496;" horiz-adv-x="1643" 
d="M664 0v317l-310 -317h-368l411 404l-401 340h355l313 -277v277h284v-277l313 277h353l-399 -339l211 -207h202v-328h-267v130h-103l-310 317v-317h-284z" />
    <glyph glyph-name="uni0497" unicode="&#x497;" horiz-adv-x="1235" 
d="M469 0v239l-183 -239h-303l231 293l-204 245h292l167 -206v206h272v-207l167 207h289l-201 -241l105 -133h129v-291h-244v127h-62l-183 240v-240h-272z" />
    <glyph glyph-name="uni049A" unicode="&#x49a;" horiz-adv-x="1077" 
d="M692 0l-363 333v-333h-284v744h284v-294l366 294h353l-433 -338l229 -208h218v-328h-267v130h-103z" />
    <glyph glyph-name="uni049B" unicode="&#x49b;" horiz-adv-x="824" 
d="M509 0l-200 242v-242h-272v538h272v-210l184 210h293l-219 -238l114 -136h138v-291h-245v127h-65z" />
    <glyph glyph-name="uni04A2" unicode="&#x4a2;" horiz-adv-x="1204" 
d="M794 0v283h-465v-283h-284v744h284v-263h465v263h283v-546h120v-328h-267v130h-136z" />
    <glyph glyph-name="uni04A3" unicode="&#x4a3;" horiz-adv-x="959" 
d="M309 0h-272v538h272v-188h265v188h272v-374h106v-291h-250v127h-128v185h-265v-185z" />
    <glyph glyph-name="uni04AE" unicode="&#x4ae;" horiz-adv-x="1043" 
d="M668 278v-278h-284v280l-407 464h340l217 -257l221 257h311z" />
    <glyph glyph-name="uni04AF" unicode="&#x4af;" horiz-adv-x="831" 
d="M556 0v-188h-271v188l-299 538h291l147 -302l142 302h279z" />
    <glyph glyph-name="uni04B0" unicode="&#x4b0;" horiz-adv-x="1043" 
d="M870 121h-202v-121h-284v121h-203v159h203l-407 464h340l217 -257l221 257h311l-397 -464h201v-159z" />
    <glyph glyph-name="uni04B1" unicode="&#x4b1;" horiz-adv-x="831" 
d="M556 0h174v-110h-174v-78h-271v78h-174v110h174l-299 538h291l147 -302l142 302h279z" />
    <glyph glyph-name="uni04B2" unicode="&#x4b2;" horiz-adv-x="1107" 
d="M742 0l-208 233l-206 -233h-342l341 382l-330 362h363l189 -219l190 219h337l-322 -359l163 -187h174v-328h-266v130h-83z" />
    <glyph glyph-name="uni04B3" unicode="&#x4b3;" horiz-adv-x="861" 
d="M553 0l-135 158l-134 -158h-297l248 277l-243 261h309l123 -141l120 141h299l-237 -257l104 -117h146v-291h-244v127h-59z" />
    <glyph glyph-name="uni04BA" unicode="&#x4ba;" horiz-adv-x="994" 
d="M328 744v-258q106 20 235 20q214 0 315 -66t101 -229v-211h-284v175q0 80 -47.5 106.5t-153.5 26.5q-94 0 -166 -15v-293h-283v744h283z" />
    <glyph glyph-name="uni04BB" unicode="&#x4bb;" horiz-adv-x="891" 
d="M37 0v744h272v-300q106 106 276 106h6q72 0 125.5 -19.5t82.5 -51t42.5 -65t13.5 -68.5v-346h-273v257q0 57 -31.5 90.5t-98.5 33.5t-105 -36.5t-38 -94.5v-250h-272z" />
    <glyph glyph-name="uni04C0" unicode="&#x4c0;" horiz-adv-x="373" 
d="M328 744v-744h-283v744h283z" />
    <glyph glyph-name="uni04CF" unicode="&#x4cf;" horiz-adv-x="346" 
d="M309 744v-744h-272v744h272z" />
    <glyph glyph-name="uni04D8" unicode="&#x4d8;" horiz-adv-x="1130" 
d="M1110 360q0 -50 -11 -96t-45.5 -98.5t-89.5 -90.5t-152 -63.5t-224 -25.5h-39q-93 0 -169.5 13.5t-130.5 36.5t-95.5 55.5t-66 67t-40.5 75t-21.5 76.5t-5.5 74v60h789q-33 122 -242 122q-229 0 -248 -82h-295v8q0 23 5 44.5t19.5 49t37.5 51t63.5 46.5t94 39t132 26
t173.5 10h38q128 0 225 -24t152.5 -61t89.5 -88.5t45 -97.5t11 -98v-29zM333 288q37 -111 231 -111q199 0 239 111h-470z" />
    <glyph glyph-name="uni04D9" unicode="&#x4d9;" horiz-adv-x="882" 
d="M17 344q0 27 7 51t32 54.5t66 52t116.5 36.5t175.5 15h53q95 0 168 -17t116 -44t70 -64.5t36.5 -74t9.5 -77.5v-20q0 -271 -397 -271h-55q-73 0 -132.5 9.5t-100.5 25.5t-71.5 40t-48.5 48.5t-29 55t-14.5 57t-3.5 57.5v30h585q-16 99 -163 99h-1q-36 0 -64.5 -5.5
t-44 -13.5t-25.5 -18t-13 -16.5t-4 -11.5h-268v2zM442 117q133 0 155 81h-310q16 -81 155 -81z" />
    <glyph glyph-name="uni04E8" unicode="&#x4e8;" horiz-adv-x="1170" 
d="M563 758h45q137 0 240 -25.5t159 -63t90 -90.5t43.5 -96.5t9.5 -93.5v-30q0 -34 -4.5 -65t-19 -69.5t-38 -71t-65.5 -64.5t-97 -54t-136.5 -35.5t-181.5 -13.5h-45q-100 0 -181.5 13.5t-137 35.5t-97.5 54t-65.5 64.5t-38 71t-19 69.5t-4.5 65v30q0 34 4.5 65t19 69.5
t38 70.5t65.5 63t97.5 52.5t137 35t181.5 13.5zM585 562q-218 0 -264 -108h527q-48 108 -263 108zM585 183q213 0 262 110h-523q52 -110 261 -110z" />
    <glyph glyph-name="uni04E9" unicode="&#x4e9;" horiz-adv-x="921" 
d="M424 -15q-99 0 -174.5 18.5t-118.5 46t-70 66.5t-36 74t-9 74v16q0 38 9 72.5t35.5 72.5t69.5 65t118.5 45t174.5 18h76q406 0 406 -272v-18q0 -40 -7 -73.5t-32.5 -73t-67.5 -67t-119 -46t-181 -18.5h-74zM462 138q120 0 156 77h-315q35 -77 158 -77h1zM461 401
q-122 0 -157 -71h314q-36 71 -156 71h-1z" />
    <glyph glyph-name="Wgrave" unicode="&#x1e80;" horiz-adv-x="1529" 
d="M824 944l79 -155h-257l-101 155h279zM926 0l-155 470l-150 -470h-346l-290 744h316l169 -491l149 491h320l151 -483l164 483h291l-290 -744h-329z" />
    <glyph glyph-name="wgrave" unicode="&#x1e81;" horiz-adv-x="1213" 
d="M722 0l-108 326l-108 -326h-307l-212 538h283l105 -339l103 339h280l105 -338l103 338h260l-200 -538h-304zM736 583h-247l-111 161h270z" />
    <glyph glyph-name="Wacute" unicode="&#x1e82;" horiz-adv-x="1529" 
d="M651 789l79 155h279l-101 -155h-257zM926 0l-155 470l-150 -470h-346l-290 744h316l169 -491l149 491h320l151 -483l164 483h291l-290 -744h-329z" />
    <glyph glyph-name="wacute" unicode="&#x1e83;" horiz-adv-x="1213" 
d="M499 583l89 161h268l-111 -161h-246zM722 0l-108 326l-108 -326h-307l-212 538h283l105 -339l103 339h280l105 -338l103 338h260l-200 -538h-304z" />
    <glyph glyph-name="Wdieresis" unicode="&#x1e84;" horiz-adv-x="1529" 
d="M751 944v-155h-246v155h246zM1044 944v-155h-245v155h245zM926 0l-155 470l-150 -470h-346l-290 744h316l169 -491l149 491h320l151 -483l164 483h291l-290 -744h-329z" />
    <glyph glyph-name="wdieresis" unicode="&#x1e85;" horiz-adv-x="1213" 
d="M593 744v-161h-237v161h237zM877 744v-161h-238v161h238zM722 0l-108 326l-108 -326h-307l-212 538h283l105 -339l103 339h280l105 -338l103 338h260l-200 -538h-304z" />
    <glyph glyph-name="Ygrave" unicode="&#x1ef2;" horiz-adv-x="1043" 
d="M668 278v-278h-284v280l-407 464h340l217 -257l221 257h311zM588 944l79 -155h-257l-101 155h279z" />
    <glyph glyph-name="ygrave" unicode="&#x1ef3;" horiz-adv-x="821" 
d="M576 -23q-40 -87 -88 -126t-119 -39h-253v166h122q25 0 25 17v1q0 11 -23 54l-254 488h290l150 -346l139 346h270zM547 583h-247l-111 161h270z" />
    <glyph glyph-name="uni2009" unicode="&#x2009;" horiz-adv-x="21" 
 />
    <glyph glyph-name="endash" unicode="&#x2013;" horiz-adv-x="914" 
d="M30 369h854v-142h-854v142z" />
    <glyph glyph-name="emdash" unicode="&#x2014;" horiz-adv-x="1367" 
d="M30 369h1307v-142h-1307v142z" />
    <glyph glyph-name="quoteleft" unicode="&#x2018;" horiz-adv-x="322" 
d="M84 744h139q-32 -59 -40 -104h112v-165h-267v134q0 31 17.5 70t38.5 65z" />
    <glyph glyph-name="quoteright" unicode="&#x2019;" horiz-adv-x="322" 
d="M239 475h-140q34 63 40 104h-111v165h267v-134q0 -30 -17.5 -69t-38.5 -66z" />
    <glyph glyph-name="quotesinglbase" unicode="&#x201a;" horiz-adv-x="322" 
d="M239 -104h-140q34 63 40 104h-111v165h267v-133q0 -31 -17.5 -70t-38.5 -66z" />
    <glyph glyph-name="quotedblleft" unicode="&#x201c;" horiz-adv-x="625" 
d="M387 744h139q-32 -59 -40 -104h112v-165h-267v134q0 31 17.5 70t38.5 65zM84 744h139q-32 -59 -40 -104h112v-165h-267v134q0 31 17.5 70t38.5 65z" />
    <glyph glyph-name="quotedblright" unicode="&#x201d;" horiz-adv-x="625" 
d="M542 475h-140q34 63 40 104h-111v165h267v-134q0 -30 -17.5 -69t-38.5 -66zM239 475h-140q34 63 40 104h-111v165h267v-134q0 -30 -17.5 -69t-38.5 -66z" />
    <glyph glyph-name="quotedblbase" unicode="&#x201e;" horiz-adv-x="625" 
d="M239 -104h-140q34 63 40 104h-111v165h267v-133q0 -31 -17.5 -70t-38.5 -66zM542 -104h-140q34 63 40 104h-111v165h267v-133q0 -31 -17.5 -70t-38.5 -66z" />
    <glyph glyph-name="dagger" unicode="&#x2020;" horiz-adv-x="581" 
d="M163 0v413h-143v182h143v149h254v-149h144v-182h-144v-413h-254z" />
    <glyph glyph-name="daggerdbl" unicode="&#x2021;" horiz-adv-x="584" 
d="M168 141h-145v171h145v124h-145v172h145v136h249v-136h144v-172h-144v-124h144v-171h-144v-141h-249v141z" />
    <glyph glyph-name="bullet" unicode="&#x2022;" horiz-adv-x="462" 
d="M441 330q0 -89 -60 -146.5t-150 -57.5t-150 57.5t-60 146.5t60 146t150 57q91 0 150.5 -57t59.5 -146z" />
    <glyph glyph-name="ellipsis" unicode="&#x2026;" horiz-adv-x="1006" 
d="M978 195v-195h-282v195h282zM644 195v-195h-282v195h282zM310 195v-195h-282v195h282z" />
    <glyph glyph-name="perthousand" unicode="&#x2030;" horiz-adv-x="2089" 
d="M317 321q-73 0 -128.5 15t-87 36.5t-50.5 51.5t-25 55t-6 52v16q0 34 11.5 65.5t40.5 65t92 54t153 20.5h22q73 0 128.5 -14.5t86.5 -35.5t50 -50t25 -54t6 -51v-16q0 -27 -6 -52t-25 -55t-50 -51.5t-86.5 -36.5t-128.5 -15h-22zM1022 744h215l-816 -744h-215zM327 453
q60 0 87.5 24t27.5 58v6q0 81 -115 81q-60 0 -87 -22.5t-27 -58.5v-5q0 -35 27.5 -59t86.5 -24zM1773 -8h-23q-73 0 -128.5 15t-86.5 36.5t-50.5 51.5t-25.5 55t-6 52v16q0 27 6 52t25.5 54t51 50t87 35.5t128.5 14.5h22q73 0 128 -14.5t86 -35.5t50.5 -50t25.5 -54t6 -52
v-16q0 -27 -6 -52t-25 -55t-50 -51.5t-86.5 -36.5t-128.5 -15zM1129 -8h-24q-73 0 -128 15t-86 36.5t-50.5 51.5t-25.5 55t-6 52v16q0 27 6 52t25.5 54t50.5 50t86.5 35.5t128.5 14.5h22q73 0 128.5 -14.5t86.5 -35.5t50.5 -50t25.5 -54t6 -52v-16q0 -27 -6 -52t-25 -55
t-50 -51.5t-86.5 -36.5t-128.5 -15zM1761 124q60 0 87.5 24t27.5 58v7q0 35 -27.5 57.5t-87.5 22.5q-114 0 -114 -80v-5q0 -36 27 -60t87 -24zM1117 124q60 0 87.5 24t27.5 58v7q0 35 -27.5 57.5t-87.5 22.5q-115 0 -115 -80v-5q0 -36 27.5 -60t87.5 -24z" />
    <glyph glyph-name="uni2032" unicode="&#x2032;" horiz-adv-x="283" 
d="M274 744l-52 -262h-213l52 262h213z" />
    <glyph glyph-name="uni2033" unicode="&#x2033;" horiz-adv-x="535" 
d="M474 482h-212l52 262h212zM273 744l-52 -262h-212l52 262h212z" />
    <glyph glyph-name="guilsinglleft" unicode="&#x2039;" horiz-adv-x="345" 
d="M210 287l121 -173h-196l-127 173l128 170h198z" />
    <glyph glyph-name="guilsinglright" unicode="&#x203a;" horiz-adv-x="345" 
d="M337 287l-126 -173h-197l121 173l-124 170h198z" />
    <glyph glyph-name="fraction" unicode="&#x2044;" horiz-adv-x="1009" 
d="M814 744h195l-820 -744h-189z" />
    <glyph glyph-name="zero.sup" unicode="&#x2070;" horiz-adv-x="621" 
d="M300 752h23q72 0 125.5 -12.5t83 -31t47.5 -45t23.5 -48.5t5.5 -47v-15q0 -24 -5 -46t-23 -48.5t-47.5 -45t-83.5 -31.5t-126 -13h-23q-72 0 -126 13t-84 31.5t-48 45t-23 48.5t-5 46v15q0 184 286 184zM415 566q0 31 -23.5 53.5t-80.5 22.5t-80.5 -22.5t-23.5 -53.5v-6
q0 -32 23.5 -56t80.5 -24t80.5 24t23.5 56v6z" />
    <glyph glyph-name="four.sup" unicode="&#x2074;" horiz-adv-x="550" 
d="M9 543l256 202h201v-190h75v-107h-75v-72h-185v72h-272v95zM154 555h127v100z" />
    <glyph glyph-name="five.sup" unicode="&#x2075;" horiz-adv-x="545" 
d="M534 505q0 -27 -9 -48.5t-33 -43t-74.5 -33t-124.5 -11.5h-35q-241 0 -241 121v3h182q7 -26 76 -26q74 0 74 36v3q0 35 -74 35q-70 0 -76 -25h-175v228h482v-95h-306v-56q37 32 139 32h3q109 0 150.5 -30.5t41.5 -85.5v-4z" />
    <glyph glyph-name="six.sup" unicode="&#x2076;" horiz-adv-x="588" 
d="M580 499q0 -25 -9 -45t-34 -41t-81.5 -32.5t-140.5 -11.5h-33q-268 0 -268 186v12q0 185 264 185h27q77 0 131.5 -11.5t80 -31.5t36 -39t10.5 -40v-2h-181q-10 26 -82 26q-31 0 -52.5 -8t-31 -21t-13 -24t-3.5 -23v-2q52 35 160 35h7q65 0 109 -8t65.5 -23.5t30 -33.5
t8.5 -42v-5zM212 497q0 -33 90 -33q88 0 88 33v2q0 33 -88 33q-90 0 -90 -33v-2z" />
    <glyph glyph-name="seven.sup" unicode="&#x2077;" horiz-adv-x="544" 
d="M14 744h519v-94q-60 -64 -87 -99q-36 -46 -46 -80t-10 -91v-4h-210v45q0 39 20 68t77 77q76 61 81 70q3 3 3 6h-170v-72h-177v174z" />
    <glyph glyph-name="eight.sup" unicode="&#x2078;" horiz-adv-x="567" 
d="M550 653v-6q0 -30 -26.5 -49.5t-64.5 -26.5q43 -6 72 -28t29 -55v-8q0 -111 -264 -111h-24q-265 0 -265 111v8q0 33 29 55t72 28q-39 6 -65 26t-26 50v6q0 19 8 33.5t31.5 30.5t78.5 25t137 9h24q82 0 136.5 -9t78 -25t31.5 -30.5t8 -33.5zM361 637v2q0 26 -78 26
q-77 0 -77 -26v-2q0 -27 77 -27q78 0 78 27zM370 496v1q0 30 -87 30q-86 0 -86 -30v-1q0 -31 86 -31q87 0 87 31z" />
    <glyph glyph-name="nine.sup" unicode="&#x2079;" horiz-adv-x="589" 
d="M574 556q0 -32 -9.5 -60t-35 -59t-81.5 -49.5t-138 -18.5h-28q-78 0 -132.5 12t-79.5 32.5t-34.5 39t-9.5 38.5v1h181q7 -26 82 -26q31 0 52 8t30 21t12.5 24t3.5 23v2q-53 -34 -155 -34h-6q-123 0 -170 30t-47 80v5q0 25 8 44t32 39.5t80 32t140 11.5h33
q85 0 142.5 -17.5t84 -48t36 -58t9.5 -59.5v-13zM376 623q0 33 -89 33q-90 0 -90 -33v-1q0 -33 90 -33q89 0 89 32v2z" />
    <glyph glyph-name="zero.sub" unicode="&#x2080;" horiz-adv-x="621" 
d="M300 282h23q72 0 125.5 -12.5t83 -31t47.5 -45t23.5 -48.5t5.5 -47v-15q0 -24 -5 -46t-23 -48.5t-47.5 -45t-83.5 -31.5t-126 -13h-23q-72 0 -126 13t-84 31.5t-48 45t-23 48.5t-5 46v15q0 184 286 184zM415 96q0 31 -23.5 53.5t-80.5 22.5t-80.5 -22.5t-23.5 -53.5v-6
q0 -32 23.5 -56t80.5 -24t80.5 24t23.5 56v6z" />
    <glyph glyph-name="one.sub" unicode="&#x2081;" horiz-adv-x="328" 
d="M112 110h-100v93q103 4 132 71h154v-368h-186v204z" />
    <glyph glyph-name="two.sub" unicode="&#x2082;" horiz-adv-x="548" 
d="M534 16v-110h-524v47q0 32 7.5 53.5t31.5 47t77.5 44.5t137.5 33q34 6 53 11.5t24.5 10t5.5 11.5v1q0 22 -70 22q-76 0 -79 -43h-182v4q0 134 249 134h19q77 0 128.5 -9t77 -26.5t35.5 -37t10 -45.5v-5q0 -52 -51.5 -75.5t-184.5 -38.5h-1h-1h-1l-1 -1h-1h-1h-1h-1h-1h-1
h-2q-105 -14 -119 -25l-3 -3h369z" />
    <glyph glyph-name="three.sub" unicode="&#x2083;" horiz-adv-x="563" 
d="M558 26q0 -26 -10 -46t-37 -39.5t-82.5 -30.5t-137.5 -11h-33q-66 0 -115 11t-74.5 26t-40.5 36t-19 35.5t-4 30.5v5h184q4 -40 86 -40q87 0 87 28v2q0 21 -43 21h-112v90h107q41 0 41 17v2q0 7 -5 11.5t-24.5 7.5t-54.5 3q-78 0 -82 -31h-178v5q0 13 2.5 24.5t16.5 31
t37.5 33t71.5 24t113 10.5h34q82 0 136.5 -8t78.5 -23t32.5 -29.5t8.5 -33.5v-4q0 -26 -21.5 -43t-55.5 -21q41 -6 67 -29.5t26 -60.5v-4z" />
    <glyph glyph-name="four.sub" unicode="&#x2084;" horiz-adv-x="550" 
d="M9 73l256 202h201v-190h75v-107h-75v-72h-185v72h-272v95zM154 85h127v100z" />
    <glyph glyph-name="five.sub" unicode="&#x2085;" horiz-adv-x="545" 
d="M534 35q0 -27 -9 -48.5t-33 -43t-74.5 -33t-124.5 -11.5h-35q-241 0 -241 121v3h182q7 -26 76 -26q74 0 74 36v3q0 35 -74 35q-70 0 -76 -25h-175v228h482v-95h-306v-56q37 32 139 32h3q109 0 150.5 -30.5t41.5 -85.5v-4z" />
    <glyph glyph-name="six.sub" unicode="&#x2086;" horiz-adv-x="588" 
d="M580 29q0 -25 -9 -45t-34 -41t-81.5 -32.5t-140.5 -11.5h-33q-268 0 -268 186v12q0 185 264 185h27q77 0 131.5 -11.5t80 -31.5t36 -39t10.5 -40v-2h-181q-10 26 -82 26q-31 0 -52.5 -8t-31 -21t-13 -24t-3.5 -23v-2q52 35 160 35h7q65 0 109 -8t65.5 -23.5t30 -33.5
t8.5 -42v-5zM212 27q0 -33 90 -33q88 0 88 33v2q0 33 -88 33q-90 0 -90 -33v-2z" />
    <glyph glyph-name="seven.sub" unicode="&#x2087;" horiz-adv-x="544" 
d="M14 274h519v-94q-60 -64 -87 -99q-36 -46 -46 -80t-10 -91v-4h-210v45q0 39 20 68t77 77q76 61 81 70q3 3 3 6h-170v-72h-177v174z" />
    <glyph glyph-name="eight.sub" unicode="&#x2088;" horiz-adv-x="567" 
d="M550 183v-6q0 -30 -26.5 -49.5t-64.5 -26.5q43 -6 72 -28t29 -55v-8q0 -111 -264 -111h-24q-265 0 -265 111v8q0 33 29 55t72 28q-39 6 -65 26t-26 50v6q0 19 8 33.5t31.5 30.5t78.5 25t137 9h24q82 0 136.5 -9t78 -25t31.5 -30.5t8 -33.5zM361 167v2q0 26 -78 26
q-77 0 -77 -26v-2q0 -27 77 -27q78 0 78 27zM370 26v1q0 30 -87 30q-86 0 -86 -30v-1q0 -31 86 -31q87 0 87 31z" />
    <glyph glyph-name="nine.sub" unicode="&#x2089;" horiz-adv-x="589" 
d="M574 86q0 -32 -9.5 -60t-35 -59t-81.5 -49.5t-138 -18.5h-28q-78 0 -132.5 12t-79.5 32.5t-34.5 39t-9.5 38.5v1h181q7 -26 82 -26q31 0 52 8t30 21t12.5 24t3.5 23v2q-53 -34 -155 -34h-6q-123 0 -170 30t-47 80v5q0 25 8 44t32 39.5t80 32t140 11.5h33
q85 0 142.5 -17.5t84 -48t36 -58t9.5 -59.5v-13zM376 153q0 33 -89 33q-90 0 -90 -33v-1q0 -33 90 -33q89 0 89 32v2z" />
    <glyph glyph-name="Euro" unicode="&#x20ac;" horiz-adv-x="1155" 
d="M1137 293q0 -23 -5.5 -48t-20 -56t-37.5 -58.5t-62 -54.5t-89 -46.5t-122.5 -31.5t-158.5 -12h-40q-96 0 -174.5 16.5t-131 43.5t-91.5 64t-60 75t-32 80h-105v88h92v48h-92v88h105q15 53 46 98t86 85t146.5 63t210.5 23h40q119 0 211 -22t144 -54.5t85 -75.5t44 -78
t11 -68v-12h-295q-2 13 -11 28t-31 37t-69.5 36.5t-113.5 14.5q-154 0 -205 -75h292v-88h-317q0 -2 -0.5 -8t-0.5 -9v-12q0 -4 0.5 -10t0.5 -9h317v-88h-290q52 -84 204 -84q54 0 96.5 11.5t65 26t37.5 34.5t19 31t6 21h295v-12z" />
    <glyph glyph-name="uni20B4" unicode="&#x20b4;" horiz-adv-x="1128" 
d="M1121 498v-88h-1114v88h722q17 14 17 38v2q0 59 -164 59h-10q-75 0 -117 -10.5t-51.5 -21.5t-11.5 -28h-309v8q0 48 19.5 83.5t67.5 66t140 46.5t225 16h89q120 0 206.5 -16t133 -45t67.5 -62.5t21 -73.5v-9q0 -27 -13 -53h82zM1063 227q0 -35 -7 -63t-34.5 -63
t-74.5 -58.5t-133.5 -40t-204.5 -16.5h-91q-110 0 -194.5 14t-133.5 35.5t-80.5 51.5t-42 58t-10.5 58v13q0 30 12 57h-62v88h1114v-88h-732q-15 -17 -15 -46v-2q0 -73 182 -73h9q60 0 99.5 7t56.5 21t23 26t7 31h312v-10z" />
    <glyph glyph-name="uni20B8" unicode="&#x20b8;" horiz-adv-x="971" 
d="M22 656v88h926v-88h-926zM22 405v203h926v-203h-321v-405h-284v405h-321z" />
    <glyph glyph-name="uni20BD" unicode="&#x20bd;" horiz-adv-x="1092" 
d="M1079 482q0 -249 -353 -249h-337v-49h390v-88h-390v-96h-283v96h-100v88h100v49h-100v87h100v424h620q353 0 353 -246v-16zM389 558v-163h302q94 0 94 80v3q0 80 -94 80h-302z" />
    <glyph glyph-name="uni2116" unicode="&#x2116;" horiz-adv-x="1768" 
d="M1422 321q-73 0 -128.5 15t-87 36.5t-50.5 51.5t-25 55t-6 52v16q0 34 11.5 65.5t40.5 65t92 54t153 20.5h22q73 0 128.5 -14.5t86.5 -35.5t50 -50t25 -54t6 -51v-16q0 -27 -6 -52t-25 -55t-50 -51.5t-86.5 -36.5t-128.5 -15h-22zM1432 453q60 0 87.5 24t27.5 58v6
q0 81 -115 81q-60 0 -87 -22.5t-27 -58.5v-5q0 -35 27.5 -59t86.5 -24zM1135 158v131h602v-131h-602zM45 744h318l432 -423v423h282v-744h-284l-466 451v-451h-282v744z" />
    <glyph glyph-name="trademark" unicode="&#x2122;" horiz-adv-x="1106" 
d="M12 627v117h429v-117h-127v-241h-175v241h-127zM478 386v358h236l69 -176l70 176h225v-358h-153v223l-94 -223h-108l-94 223v-223h-151z" />
    <glyph glyph-name="onethird" unicode="&#x2153;" horiz-adv-x="1099" 
d="M1094 120q0 -26 -10 -46t-37 -39.5t-82.5 -30.5t-137.5 -11h-33q-66 0 -115 11t-74.5 26t-40.5 36t-19 35.5t-4 30.5v5h184q4 -40 86 -40q87 0 87 28v2q0 21 -43 21h-112v90h107q41 0 41 17v2q0 7 -5 11.5t-24.5 7.5t-54.5 3q-78 0 -82 -31h-178v5q0 13 2.5 24.5t16.5 31
t37.5 33t71.5 24t113 10.5h34q82 0 136.5 -8t78.5 -23t32.5 -29.5t8.5 -33.5v-4q0 -26 -21.5 -43t-55.5 -21q41 -6 67 -29.5t26 -60.5v-4zM112 580h-100v93q103 4 132 71h154v-368h-186v204zM769 744h195l-820 -744h-189z" />
    <glyph glyph-name="twothirds" unicode="&#x2154;" horiz-adv-x="1323" 
d="M1317 120q0 -26 -10 -46t-37 -39.5t-82.5 -30.5t-137.5 -11h-33q-66 0 -115 11t-74.5 26t-40.5 36t-19 35.5t-4 30.5v5h184q4 -40 86 -40q87 0 87 28v2q0 21 -43 21h-112v90h107q41 0 41 17v2q0 7 -5 11.5t-24.5 7.5t-54.5 3q-78 0 -82 -31h-178v5q0 13 2.5 24.5t16.5 31
t37.5 33t71.5 24t113 10.5h34q82 0 136.5 -8t78.5 -23t32.5 -29.5t8.5 -33.5v-4q0 -26 -21.5 -43t-55.5 -21q41 -6 67 -29.5t26 -60.5v-4zM534 486v-110h-524v47q0 32 7.5 53.5t31.5 47t77.5 44.5t137.5 33q34 6 53 11.5t24.5 10t5.5 11.5v1q0 22 -70 22q-76 0 -79 -43h-182
v4q0 134 249 134h19q77 0 128.5 -9t77 -26.5t35.5 -37t10 -45.5v-5q0 -52 -51.5 -75.5t-184.5 -38.5q-113 -14 -129 -24q-3 -2 -5 -5h369zM993 744h195l-820 -744h-189z" />
    <glyph glyph-name="oneeighth" unicode="&#x215b;" horiz-adv-x="1112" 
d="M1094 271v6q0 19 -8 33.5t-31.5 30.5t-78 25t-136.5 9h-24q-82 0 -137 -9t-78.5 -25t-31.5 -30.5t-8 -33.5v-6q0 -30 26 -50t65 -26q-43 -6 -72 -28t-29 -55v-8q0 -111 265 -111h24q264 0 264 111v8q0 33 -29 55t-72 28q38 7 64.5 26.5t26.5 49.5zM905 263v-2
q0 -27 -78 -27q-77 0 -77 27v2q0 26 77 26q78 0 78 -26zM914 121v-1q0 -31 -87 -31q-86 0 -86 31v1q0 30 86 30q87 0 87 -30zM112 580h-100v93q103 4 132 71h154v-368h-186v204zM769 744h195l-820 -744h-189z" />
    <glyph glyph-name="threeeighths" unicode="&#x215c;" horiz-adv-x="1304" 
d="M1286 271v6q0 19 -8 33.5t-31.5 30.5t-78 25t-136.5 9h-24q-82 0 -137 -9t-78.5 -25t-31.5 -30.5t-8 -33.5v-6q0 -30 26 -50t65 -26q-43 -6 -72 -28t-29 -55v-8q0 -111 265 -111h24q264 0 264 111v8q0 33 -29 55t-72 28q38 7 64.5 26.5t26.5 49.5zM1097 263v-2
q0 -27 -78 -27q-77 0 -77 27v2q0 26 77 26q78 0 78 -26zM1106 121v-1q0 -31 -87 -31q-86 0 -86 31v1q0 30 86 30q87 0 87 -30zM959 744h195l-820 -744h-189zM558 497q0 -26 -10 -46t-37 -39.5t-82.5 -30.5t-137.5 -11h-33q-66 0 -115 11t-74.5 26t-40.5 36t-19 35.5t-4 30.5
v5h184q4 -40 86 -40q87 0 87 28v2q0 21 -43 21h-112v90h107q41 0 41 17v2q0 7 -5 11.5t-24.5 7.5t-54.5 3q-78 0 -82 -31h-178v5q0 13 2.5 24.5t16.5 31t37.5 33t71.5 24t113 10.5h34q82 0 136.5 -8t78.5 -23t32.5 -29.5t8.5 -33.5v-4q0 -26 -21.5 -43t-55.5 -21
q41 -6 67 -29.5t26 -60.5v-4z" />
    <glyph glyph-name="fiveeighths" unicode="&#x215d;" horiz-adv-x="1276" 
d="M1258 271v6q0 19 -8 33.5t-31.5 30.5t-78 25t-136.5 9h-24q-82 0 -137 -9t-78.5 -25t-31.5 -30.5t-8 -33.5v-6q0 -30 26 -50t65 -26q-43 -6 -72 -28t-29 -55v-8q0 -111 265 -111h24q264 0 264 111v8q0 33 -29 55t-72 28q38 7 64.5 26.5t26.5 49.5zM1069 263v-2
q0 -27 -78 -27q-77 0 -77 27v2q0 26 77 26q78 0 78 -26zM1078 121v-1q0 -31 -87 -31q-86 0 -86 31v1q0 30 86 30q87 0 87 -30zM931 744h195l-820 -744h-189zM534 505q0 -27 -9 -48.5t-33 -43t-74.5 -33t-124.5 -11.5h-35q-241 0 -241 121v3h182q7 -26 76 -26q74 0 74 36v3
q0 35 -74 35q-70 0 -76 -25h-175v228h482v-95h-306v-56q37 32 139 32h3q109 0 150.5 -30.5t41.5 -85.5v-4z" />
    <glyph glyph-name="seveneighths" unicode="&#x215e;" horiz-adv-x="1204" 
d="M1186 271v6q0 19 -8 33.5t-31.5 30.5t-78 25t-136.5 9h-24q-82 0 -137 -9t-78.5 -25t-31.5 -30.5t-8 -33.5v-6q0 -30 26 -50t65 -26q-43 -6 -72 -28t-29 -55v-8q0 -111 265 -111h24q264 0 264 111v8q0 33 -29 55t-72 28q38 7 64.5 26.5t26.5 49.5zM997 263v-2
q0 -27 -78 -27q-77 0 -77 27v2q0 26 77 26q78 0 78 -26zM1006 121v-1q0 -31 -87 -31q-86 0 -86 31v1q0 30 86 30q87 0 87 -30zM14 744h519v-94q-60 -64 -87 -99q-36 -46 -46 -80t-10 -91v-4h-210v45q0 39 20 68t77 77q76 61 81 70q3 3 3 6h-170v-72h-177v174zM859 744h195
l-820 -744h-189z" />
    <glyph glyph-name="minus" unicode="&#x2212;" horiz-adv-x="579" 
d="M27 385h525v-153h-525v153z" />
    <glyph glyph-name="uni24C5" unicode="&#x24c5;" horiz-adv-x="1179" 
d="M1159 359q0 -371 -558 -371h-23q-558 0 -558 371v28q0 60 15 111t53.5 100t99.5 83t160.5 54.5t228.5 20.5h24q129 0 228.5 -21t161 -55t100 -83t53.5 -99.5t15 -110.5v-28zM579 82h21q425 0 425 282v17q0 64 -20.5 113t-67.5 88.5t-131.5 60t-205.5 20.5h-21
q-121 0 -205.5 -20.5t-131.5 -60t-67.5 -88.5t-20.5 -113v-17q0 -282 425 -282zM681 267h-153v-109h-207v432h360q138 0 190.5 -40.5t52.5 -115.5v-10q0 -74 -53.5 -115.5t-189.5 -41.5zM528 473v-90h129q59 0 59 44v3q0 43 -59 43h-129z" />
    <glyph glyph-name="zero.den" unicode="&#xe402;" horiz-adv-x="621" 
d="M300 376h23q72 0 125.5 -12.5t83 -31t47.5 -45t23.5 -48.5t5.5 -47v-15q0 -24 -5 -46t-23 -48.5t-47.5 -45t-83.5 -31.5t-126 -13h-23q-72 0 -126 13t-84 31.5t-48 45t-23 48.5t-5 46v15q0 184 286 184zM415 190q0 31 -23.5 53.5t-80.5 22.5t-80.5 -22.5t-23.5 -53.5v-6
q0 -32 23.5 -56t80.5 -24t80.5 24t23.5 56v6z" />
    <glyph glyph-name="one.den" unicode="&#xe403;" horiz-adv-x="328" 
d="M112 204h-100v93q103 4 132 71h154v-368h-186v204z" />
    <glyph glyph-name="two.den" unicode="&#xe404;" horiz-adv-x="548" 
d="M534 0h-524v47q0 32 7.5 53.5t31.5 47t77.5 44.5t137.5 33q34 6 53 11.5t24.5 10t5.5 11.5v1q0 22 -70 22q-76 0 -79 -43h-182v4q0 134 249 134h19q77 0 128.5 -9t77 -26.5t35.5 -37t10 -45.5v-5q0 -52 -51.5 -75.5t-184.5 -38.5q-124 -16 -135 -29h370v-110z" />
    <glyph glyph-name="three.den" unicode="&#xe405;" horiz-adv-x="563" 
d="M558 120q0 -26 -10 -46t-37 -39.5t-82.5 -30.5t-137.5 -11h-33q-66 0 -115 11t-74.5 26t-40.5 36t-19 35.5t-4 30.5v5h184q4 -40 86 -40q87 0 87 28v2q0 21 -43 21h-112v90h107q41 0 41 17v2q0 7 -5 11.5t-24.5 7.5t-54.5 3q-78 0 -82 -31h-178v5q0 13 2.5 24.5t16.5 31
t37.5 33t71.5 24t113 10.5h34q82 0 136.5 -8t78.5 -23t32.5 -29.5t8.5 -33.5v-4q0 -26 -21.5 -43t-55.5 -21q41 -6 67 -29.5t26 -60.5v-4z" />
    <glyph glyph-name="four.den" unicode="&#xe406;" horiz-adv-x="550" 
d="M9 167l256 202h201v-190h75v-107h-75v-72h-185v72h-272v95zM154 179h127v100z" />
    <glyph glyph-name="five.den" unicode="&#xe407;" horiz-adv-x="545" 
d="M534 129q0 -27 -9 -48.5t-33 -43t-74.5 -33t-124.5 -11.5h-35q-241 0 -241 121v3h182q7 -26 76 -26q74 0 74 36v3q0 35 -74 35q-70 0 -76 -25h-175v228h482v-95h-306v-56q37 32 139 32h3q109 0 150.5 -30.5t41.5 -85.5v-4z" />
    <glyph glyph-name="six.den" unicode="&#xe408;" horiz-adv-x="588" 
d="M580 123q0 -25 -9 -45t-34 -41t-81.5 -32.5t-140.5 -11.5h-33q-268 0 -268 186v12q0 185 264 185h27q77 0 131.5 -11.5t80 -31.5t36 -39t10.5 -40v-2h-181q-10 26 -82 26q-31 0 -52.5 -8t-31 -21t-13 -24t-3.5 -23v-2q52 35 160 35h7q65 0 109 -8t65.5 -23.5t30 -33.5
t8.5 -42v-5zM212 121q0 -33 90 -33q88 0 88 33v2q0 33 -88 33q-90 0 -90 -33v-2z" />
    <glyph glyph-name="seven.den" unicode="&#xe409;" horiz-adv-x="544" 
d="M14 368h519v-94q-60 -64 -87 -99q-36 -46 -46 -80t-10 -91v-4h-210v45q0 39 20 68t77 77q76 61 81 70q3 3 3 6h-170v-72h-177v174z" />
    <glyph glyph-name="eight.den" unicode="&#xe40a;" horiz-adv-x="567" 
d="M550 277v-6q0 -30 -26.5 -49.5t-64.5 -26.5q43 -6 72 -28t29 -55v-8q0 -111 -264 -111h-24q-265 0 -265 111v8q0 33 29 55t72 28q-39 6 -65 26t-26 50v6q0 19 8 33.5t31.5 30.5t78.5 25t137 9h24q82 0 136.5 -9t78 -25t31.5 -30.5t8 -33.5zM361 261v2q0 26 -78 26
q-77 0 -77 -26v-2q0 -27 77 -27q78 0 78 27zM370 120v1q0 30 -87 30q-86 0 -86 -30v-1q0 -31 86 -31q87 0 87 31z" />
    <glyph glyph-name="nine.den" unicode="&#xe40b;" horiz-adv-x="589" 
d="M574 180q0 -32 -9.5 -60t-35 -59t-81.5 -49.5t-138 -18.5h-28q-78 0 -132.5 12t-79.5 32.5t-34.5 39t-9.5 38.5v1h181q7 -26 82 -26q31 0 52 8t30 21t12.5 24t3.5 23v2q-53 -34 -155 -34h-6q-123 0 -170 30t-47 80v5q0 25 8 44t32 39.5t80 32t140 11.5h33
q85 0 142.5 -17.5t84 -48t36 -58t9.5 -59.5v-13zM376 247q0 33 -89 33q-90 0 -90 -33v-1q0 -33 90 -33q89 0 89 32v2z" />
    <glyph glyph-name="zero.num" unicode="&#xe416;" horiz-adv-x="621" 
d="M300 752h23q72 0 125.5 -12.5t83 -31t47.5 -45t23.5 -48.5t5.5 -47v-15q0 -24 -5 -46t-23 -48.5t-47.5 -45t-83.5 -31.5t-126 -13h-23q-72 0 -126 13t-84 31.5t-48 45t-23 48.5t-5 46v15q0 184 286 184zM415 566q0 31 -23.5 53.5t-80.5 22.5t-80.5 -22.5t-23.5 -53.5v-6
q0 -32 23.5 -56t80.5 -24t80.5 24t23.5 56v6z" />
    <glyph glyph-name="one.num" unicode="&#xe417;" horiz-adv-x="328" 
d="M112 580h-100v93q103 4 132 71h154v-368h-186v204z" />
    <glyph glyph-name="two.num" unicode="&#xe418;" horiz-adv-x="548" 
d="M534 486v-110h-524v47q0 32 7.5 53.5t31.5 47t77.5 44.5t137.5 33q34 6 53 11.5t24.5 10t5.5 11.5v1q0 22 -70 22q-76 0 -79 -43h-182v4q0 134 249 134h19q77 0 128.5 -9t77 -26.5t35.5 -37t10 -45.5v-5q0 -52 -51.5 -75.5t-184.5 -38.5q-113 -14 -129 -24q-3 -2 -5 -5
h369z" />
    <glyph glyph-name="three.num" unicode="&#xe419;" horiz-adv-x="563" 
d="M558 496q0 -26 -10 -46t-37 -39.5t-82.5 -30.5t-137.5 -11h-33q-66 0 -115 11t-74.5 26t-40.5 36t-19 35.5t-4 30.5v5h184q4 -40 86 -40q87 0 87 28v2q0 21 -43 21h-112v90h107q41 0 41 17v2q0 7 -5 11.5t-24.5 7.5t-54.5 3q-78 0 -82 -31h-178v5q0 13 2.5 24.5t16.5 31
t37.5 33t71.5 24t113 10.5h34q82 0 136.5 -8t78.5 -23t32.5 -29.5t8.5 -33.5v-4q0 -26 -21.5 -43t-55.5 -21q41 -6 67 -29.5t26 -60.5v-4z" />
    <glyph glyph-name="four.num" unicode="&#xe41a;" horiz-adv-x="550" 
d="M9 543l256 202h201v-190h75v-107h-75v-72h-185v72h-272v95zM154 555h127v100z" />
    <glyph glyph-name="five.num" unicode="&#xe41b;" horiz-adv-x="545" 
d="M534 505q0 -27 -9 -48.5t-33 -43t-74.5 -33t-124.5 -11.5h-35q-241 0 -241 121v3h182q7 -26 76 -26q74 0 74 36v3q0 35 -74 35q-70 0 -76 -25h-175v228h482v-95h-306v-56q37 32 139 32h3q109 0 150.5 -30.5t41.5 -85.5v-4z" />
    <glyph glyph-name="six.num" unicode="&#xe41c;" horiz-adv-x="588" 
d="M580 499q0 -25 -9 -45t-34 -41t-81.5 -32.5t-140.5 -11.5h-33q-268 0 -268 186v12q0 185 264 185h27q77 0 131.5 -11.5t80 -31.5t36 -39t10.5 -40v-2h-181q-10 26 -82 26q-31 0 -52.5 -8t-31 -21t-13 -24t-3.5 -23v-2q52 35 160 35h7q65 0 109 -8t65.5 -23.5t30 -33.5
t8.5 -42v-5zM212 497q0 -33 90 -33q88 0 88 33v2q0 33 -88 33q-90 0 -90 -33v-2z" />
    <glyph glyph-name="seven.num" unicode="&#xe41d;" horiz-adv-x="544" 
d="M14 744h519v-94q-60 -64 -87 -99q-36 -46 -46 -80t-10 -91v-4h-210v45q0 39 20 68t77 77q76 61 81 70q3 3 3 6h-170v-72h-177v174z" />
    <glyph glyph-name="eight.num" unicode="&#xe41e;" horiz-adv-x="567" 
d="M550 653v-6q0 -30 -26.5 -49.5t-64.5 -26.5q43 -6 72 -28t29 -55v-8q0 -111 -264 -111h-24q-265 0 -265 111v8q0 33 29 55t72 28q-39 6 -65 26t-26 50v6q0 19 8 33.5t31.5 30.5t78.5 25t137 9h24q82 0 136.5 -9t78 -25t31.5 -30.5t8 -33.5zM361 637v2q0 26 -78 26
q-77 0 -77 -26v-2q0 -27 77 -27q78 0 78 27zM370 496v1q0 30 -87 30q-86 0 -86 -30v-1q0 -31 86 -31q87 0 87 31z" />
    <glyph glyph-name="nine.num" unicode="&#xe41f;" horiz-adv-x="589" 
d="M574 556q0 -32 -9.5 -60t-35 -59t-81.5 -49.5t-138 -18.5h-28q-78 0 -132.5 12t-79.5 32.5t-34.5 39t-9.5 38.5v1h181q7 -26 82 -26q31 0 52 8t30 21t12.5 24t3.5 23v2q-53 -34 -155 -34h-6q-123 0 -170 30t-47 80v5q0 25 8 44t32 39.5t80 32t140 11.5h33
q85 0 142.5 -17.5t84 -48t36 -58t9.5 -59.5v-13zM376 623q0 33 -89 33q-90 0 -90 -33v-1q0 -33 90 -33q89 0 89 32v2z" />
    <glyph glyph-name="f_f_i" unicode="&#xfb03;" horiz-adv-x="1308" 
d="M1271 744v-161h-272v161h272zM1271 538v-538h-272v538h272zM558 0v373h-172v-373h-270v373h-106v165h106v53q0 153 197 153h193v-144h-83q-22 0 -29.5 -9t-7.5 -30v-23h172v53q0 153 197 153h191v-144h-81q-22 0 -29.5 -9t-7.5 -30v-23h118v-165h-118v-373h-270z" />
    <glyph glyph-name="f_f_l" unicode="&#xfb04;" horiz-adv-x="1308" 
d="M558 0v373h-172v-373h-270v373h-106v165h106v53q0 153 197 153h193v-144h-83q-22 0 -29.5 -9t-7.5 -30v-23h172v53q0 153 197 153h191v-144h-81q-22 0 -29.5 -9t-7.5 -30v-23h118v-165h-118v-373h-270zM1271 744v-744h-272v744h272z" />
    <glyph glyph-name="idotaccent" horiz-adv-x="346" 
d="M309 744v-161h-272v161h272zM309 538v-538h-272v538h272z" />
    <glyph glyph-name="space_uni0326" 
d="M429 -296h-130q28 56 35 92h-113v159h258v-125q0 -54 -50 -126z" />
    <glyph glyph-name="J.alt" horiz-adv-x="528" 
d="M23 0v212h95q47 0 68.5 24t21.5 81v427h284v-489q0 -255 -253 -255h-216z" />
    <glyph glyph-name="IJ.alt" horiz-adv-x="902" 
d="M328 744v-744h-283v744h283zM396 0v212h95q47 0 68.5 24t21.5 81v427h284v-489q0 -255 -253 -255h-216z" />
    <glyph glyph-name="a.alt" horiz-adv-x="820" 
d="M523 72q-79 -82 -252 -82h-11q-126 0 -187.5 50t-61.5 123v12q0 70 50.5 108t167.5 48l259 23q30 3 30 26q0 12 -6.5 19.5t-34 14.5t-76.5 7h-4q-40 0 -66 -5.5t-37 -16t-14 -17t-4 -16.5h-252v6q0 27 4.5 47t24.5 47t54.5 44t102 29.5t159.5 12.5h56q97 0 166 -11.5
t105.5 -27.5t57.5 -42.5t25.5 -47.5t4.5 -51v-190q0 -133 14 -177v-5h-263q-12 22 -12 72zM518 231v23l-180 -32q-36 -6 -51 -16t-15 -30v-1q0 -22 20 -38.5t65 -16.5q72 0 116.5 33t44.5 78z" />
    <glyph glyph-name="a.alt2" horiz-adv-x="904" 
d="M595 538h272v-538h-271v79q-14 -17 -38 -34t-82 -36t-128 -19h-16q-156 0 -236 78t-80 194v21q0 110 78.5 187.5t228.5 77.5h18q169 0 254 -78v68zM595 269v5q0 48 -43 86t-115 38h-5q-73 0 -106.5 -36.5t-33.5 -87.5v-5q0 -49 36 -88t106 -39h5q72 0 114 39t42 88z" />
    <glyph glyph-name="r.alt" horiz-adv-x="583" 
d="M309 208v-208h-272v538h270v-128q73 140 252 140v-246q-51 11 -102 11q-148 0 -148 -107z" />
    <glyph glyph-name="Jcircumflex.alt" horiz-adv-x="528" 
d="M487 944l164 -155h-244l-62 58l-61 -58h-241l162 155h282zM23 0v212h95q47 0 68.5 24t21.5 81v427h284v-489q0 -255 -253 -255h-216z" />
    <glyph glyph-name="aacute.alt" horiz-adv-x="820" 
d="M275 585l87 159h269l-111 -159h-245zM523 72q-79 -82 -252 -82h-11q-126 0 -187.5 50t-61.5 123v12q0 70 50.5 108t167.5 48l259 23q30 3 30 26q0 12 -6.5 19.5t-34 14.5t-76.5 7h-4q-40 0 -66 -5.5t-37 -16t-14 -17t-4 -16.5h-252v6q0 27 4.5 47t24.5 47t54.5 44
t102 29.5t159.5 12.5h56q97 0 166 -11.5t105.5 -27.5t57.5 -42.5t25.5 -47.5t4.5 -51v-190q0 -133 14 -177v-5h-263q-12 22 -12 72zM518 231v23l-180 -32q-36 -6 -51 -16t-15 -30v-1q0 -22 20 -38.5t65 -16.5q72 0 116.5 33t44.5 78z" />
    <glyph glyph-name="aacute.alt2" horiz-adv-x="904" 
d="M308 583l89 161h268l-111 -161h-246zM595 538h272v-538h-271v79q-14 -17 -38 -34t-82 -36t-128 -19h-16q-156 0 -236 78t-80 194v21q0 110 78.5 187.5t228.5 77.5h18q169 0 254 -78v68zM595 269v5q0 48 -43 86t-115 38h-5q-73 0 -106.5 -36.5t-33.5 -87.5v-5
q0 -49 36 -88t106 -39h5q72 0 114 39t42 88z" />
    <glyph glyph-name="abreve.alt" horiz-adv-x="820" 
d="M523 72q-79 -82 -252 -82h-11q-126 0 -187.5 50t-61.5 123v12q0 70 50.5 108t167.5 48l259 23q30 3 30 26q0 12 -6.5 19.5t-34 14.5t-76.5 7h-4q-40 0 -66 -5.5t-37 -16t-14 -17t-4 -16.5h-252v6q0 27 4.5 47t24.5 47t54.5 44t102 29.5t159.5 12.5h56q97 0 166 -11.5
t105.5 -27.5t57.5 -42.5t25.5 -47.5t4.5 -51v-190q0 -133 14 -177v-5h-263q-12 22 -12 72zM642 742q0 -22 -11 -48t-34 -53t-69 -45t-107 -18h-40q-54 0 -96 12.5t-65 30t-38 41.5t-19.5 43t-4.5 37v2h181q4 -47 63 -47q24 0 39 9.5t18.5 19t4.5 18.5h178v-2zM518 231v23
l-180 -32q-36 -6 -51 -16t-15 -30v-1q0 -22 20 -38.5t65 -16.5q72 0 116.5 33t44.5 78z" />
    <glyph glyph-name="abreve.alt2" horiz-adv-x="904" 
d="M595 538h272v-538h-271v79q-14 -17 -38 -34t-82 -36t-128 -19h-16q-156 0 -236 78t-80 194v21q0 110 78.5 187.5t228.5 77.5h18q169 0 254 -78v68zM595 269v5q0 48 -43 86t-115 38h-5q-73 0 -106.5 -36.5t-33.5 -87.5v-5q0 -49 36 -88t106 -39h5q72 0 114 39t42 88z
M671 742q0 -23 -10.5 -49t-34 -53.5t-69.5 -45t-107 -17.5h-40q-67 0 -114.5 17.5t-69.5 45.5t-30.5 52.5t-8.5 49.5v2h181q0 -9 3.5 -18.5t19 -19.5t40.5 -10q24 0 39 10t18.5 19t4.5 19h178v-2z" />
    <glyph glyph-name="acircumflex.alt" horiz-adv-x="820" 
d="M538 744l153 -160h-236l-58 64l-58 -64h-234l153 160h280zM523 72q-79 -82 -252 -82h-11q-126 0 -187.5 50t-61.5 123v12q0 70 50.5 108t167.5 48l259 23q30 3 30 26q0 12 -6.5 19.5t-34 14.5t-76.5 7h-4q-40 0 -66 -5.5t-37 -16t-14 -17t-4 -16.5h-252v6q0 27 4.5 47
t24.5 47t54.5 44t102 29.5t159.5 12.5h56q97 0 166 -11.5t105.5 -27.5t57.5 -42.5t25.5 -47.5t4.5 -51v-190q0 -133 14 -177v-5h-263q-12 22 -12 72zM518 231v23l-180 -32q-36 -6 -51 -16t-15 -30v-1q0 -22 20 -38.5t65 -16.5q72 0 116.5 33t44.5 78z" />
    <glyph glyph-name="acircumflex.alt2" horiz-adv-x="904" 
d="M570 744l153 -162h-237l-58 66l-58 -66h-233l152 162h281zM595 538h272v-538h-271v79q-14 -17 -38 -34t-82 -36t-128 -19h-16q-156 0 -236 78t-80 194v21q0 110 78.5 187.5t228.5 77.5h18q169 0 254 -78v68zM595 269v5q0 48 -43 86t-115 38h-5q-73 0 -106.5 -36.5
t-33.5 -87.5v-5q0 -49 36 -88t106 -39h5q72 0 114 39t42 88z" />
    <glyph glyph-name="adieresis.alt" horiz-adv-x="820" 
d="M375 744v-159h-238v159h238zM660 744v-159h-239v159h239zM523 72q-79 -82 -252 -82h-11q-126 0 -187.5 50t-61.5 123v12q0 70 50.5 108t167.5 48l259 23q30 3 30 26q0 12 -6.5 19.5t-34 14.5t-76.5 7h-4q-40 0 -66 -5.5t-37 -16t-14 -17t-4 -16.5h-252v6q0 27 4.5 47
t24.5 47t54.5 44t102 29.5t159.5 12.5h56q97 0 166 -11.5t105.5 -27.5t57.5 -42.5t25.5 -47.5t4.5 -51v-190q0 -133 14 -177v-5h-263q-12 22 -12 72zM518 231v23l-180 -32q-36 -6 -51 -16t-15 -30v-1q0 -22 20 -38.5t65 -16.5q72 0 116.5 33t44.5 78z" />
    <glyph glyph-name="adieresis.alt2" horiz-adv-x="904" 
d="M407 744v-161h-237v161h237zM691 744v-161h-238v161h238zM595 538h272v-538h-271v79q-14 -17 -38 -34t-82 -36t-128 -19h-16q-156 0 -236 78t-80 194v21q0 110 78.5 187.5t228.5 77.5h18q169 0 254 -78v68zM595 269v5q0 48 -43 86t-115 38h-5q-73 0 -106.5 -36.5
t-33.5 -87.5v-5q0 -49 36 -88t106 -39h5q72 0 114 39t42 88z" />
    <glyph glyph-name="agrave.alt" horiz-adv-x="820" 
d="M527 585h-247l-111 159h270zM523 72q-79 -82 -252 -82h-11q-126 0 -187.5 50t-61.5 123v12q0 70 50.5 108t167.5 48l259 23q30 3 30 26q0 12 -6.5 19.5t-34 14.5t-76.5 7h-4q-40 0 -66 -5.5t-37 -16t-14 -17t-4 -16.5h-252v6q0 27 4.5 47t24.5 47t54.5 44t102 29.5
t159.5 12.5h56q97 0 166 -11.5t105.5 -27.5t57.5 -42.5t25.5 -47.5t4.5 -51v-190q0 -133 14 -177v-5h-263q-12 22 -12 72zM518 231v23l-180 -32q-36 -6 -51 -16t-15 -30v-1q0 -22 20 -38.5t65 -16.5q72 0 116.5 33t44.5 78z" />
    <glyph glyph-name="agrave.alt2" horiz-adv-x="904" 
d="M595 538h272v-538h-271v79q-14 -17 -38 -34t-82 -36t-128 -19h-16q-156 0 -236 78t-80 194v21q0 110 78.5 187.5t228.5 77.5h18q169 0 254 -78v68zM595 269v5q0 48 -43 86t-115 38h-5q-73 0 -106.5 -36.5t-33.5 -87.5v-5q0 -49 36 -88t106 -39h5q72 0 114 39t42 88z
M555 583h-247l-111 161h270z" />
    <glyph glyph-name="amacron.alt" horiz-adv-x="820" 
d="M523 72q-79 -82 -252 -82h-11q-126 0 -187.5 50t-61.5 123v12q0 70 50.5 108t167.5 48l259 23q30 3 30 26q0 12 -6.5 19.5t-34 14.5t-76.5 7h-4q-40 0 -66 -5.5t-37 -16t-14 -17t-4 -16.5h-252v6q0 27 4.5 47t24.5 47t54.5 44t102 29.5t159.5 12.5h56q97 0 166 -11.5
t105.5 -27.5t57.5 -42.5t25.5 -47.5t4.5 -51v-190q0 -133 14 -177v-5h-263q-12 22 -12 72zM518 231v23l-180 -32q-36 -6 -51 -16t-15 -30v-1q0 -22 20 -38.5t65 -16.5q72 0 116.5 33t44.5 78zM173 594v129h452v-129h-452z" />
    <glyph glyph-name="amacron.alt2" horiz-adv-x="904" 
d="M206 593v129h452v-129h-452zM595 538h272v-538h-271v79q-14 -17 -38 -34t-82 -36t-128 -19h-16q-156 0 -236 78t-80 194v21q0 110 78.5 187.5t228.5 77.5h18q169 0 254 -78v68zM595 269v5q0 48 -43 86t-115 38h-5q-73 0 -106.5 -36.5t-33.5 -87.5v-5q0 -49 36 -88
t106 -39h5q72 0 114 39t42 88z" />
    <glyph glyph-name="aogonek.alt" horiz-adv-x="820" 
d="M490 -116v3q0 38 47 64t146 49h-148q-12 22 -12 72q-79 -82 -252 -82h-11q-126 0 -187.5 50t-61.5 123v12q0 70 50.5 108t167.5 48l259 23q30 3 30 26q0 12 -6.5 19.5t-34 14.5t-76.5 7h-4q-40 0 -66 -5.5t-37 -16t-14 -17t-4 -16.5h-252v6q0 27 4.5 47t24.5 47t54.5 44
t102 29.5t159.5 12.5h56q97 0 166 -11.5t105.5 -27.5t57.5 -42.5t25.5 -47.5t4.5 -51v-190q0 -133 14 -177v-5h-1q-60 -39 -60 -61q0 -21 33 -21h27v-106h-160q-147 0 -147 72zM518 231v23l-180 -32q-36 -6 -51 -16t-15 -30v-1q0 -22 20 -38.5t65 -16.5q72 0 116.5 33
t44.5 78z" />
    <glyph glyph-name="aogonek.alt2" horiz-adv-x="904" 
d="M595 538h272v-538h-1q-60 -39 -60 -61q0 -21 33 -21h27v-106h-160q-147 0 -147 72v3q0 38 47 64t146 49h-156v79q-14 -17 -38 -34t-82 -36t-128 -19h-16q-156 0 -236 78t-80 194v21q0 110 78.5 187.5t228.5 77.5h18q169 0 254 -78v68zM595 269v5q0 48 -43 86t-115 38h-5
q-73 0 -106.5 -36.5t-33.5 -87.5v-5q0 -49 36 -88t106 -39h5q72 0 114 39t42 88z" />
    <glyph glyph-name="aring.alt" horiz-adv-x="820" 
d="M200 696q0 118 198 118q195 0 195 -118q0 -119 -195 -119q-198 0 -198 119zM323 696q0 -45 75 -45q73 0 73 45q0 44 -73 44q-75 0 -75 -44zM523 72q-79 -82 -252 -82h-11q-126 0 -187.5 50t-61.5 123v12q0 70 50.5 108t167.5 48l259 23q30 3 30 26q0 12 -6.5 19.5
t-34 14.5t-76.5 7h-4q-40 0 -66 -5.5t-37 -16t-14 -17t-4 -16.5h-252v6q0 27 4.5 47t24.5 47t54.5 44t102 29.5t159.5 12.5h56q97 0 166 -11.5t105.5 -27.5t57.5 -42.5t25.5 -47.5t4.5 -51v-190q0 -133 14 -177v-5h-263q-12 22 -12 72zM518 231v23l-180 -32q-36 -6 -51 -16
t-15 -30v-1q0 -22 20 -38.5t65 -16.5q72 0 116.5 33t44.5 78z" />
    <glyph glyph-name="aring.alt2" horiz-adv-x="904" 
d="M232 695q0 118 198 118q195 0 195 -118q0 -119 -195 -119q-198 0 -198 119zM355 695q0 -45 75 -45q73 0 73 45q0 44 -73 44q-75 0 -75 -44zM595 538h272v-538h-271v79q-14 -17 -38 -34t-82 -36t-128 -19h-16q-156 0 -236 78t-80 194v21q0 110 78.5 187.5t228.5 77.5h18
q169 0 254 -78v68zM595 269v5q0 48 -43 86t-115 38h-5q-73 0 -106.5 -36.5t-33.5 -87.5v-5q0 -49 36 -88t106 -39h5q72 0 114 39t42 88z" />
    <glyph glyph-name="aringacute.alt" horiz-adv-x="820" 
d="M281 839l89 161h268l-111 -161h-246zM202 696q0 118 198 118q195 0 195 -118q0 -119 -195 -119q-198 0 -198 119zM325 696q0 -45 75 -45q73 0 73 45q0 44 -73 44q-75 0 -75 -44zM523 72q-79 -82 -252 -82h-11q-126 0 -187.5 50t-61.5 123v12q0 70 50.5 108t167.5 48
l259 23q30 3 30 26q0 12 -6.5 19.5t-34 14.5t-76.5 7h-4q-40 0 -66 -5.5t-37 -16t-14 -17t-4 -16.5h-252v6q0 27 4.5 47t24.5 47t54.5 44t102 29.5t159.5 12.5h56q97 0 166 -11.5t105.5 -27.5t57.5 -42.5t25.5 -47.5t4.5 -51v-190q0 -133 14 -177v-5h-263q-12 22 -12 72z
M518 231v23l-180 -32q-36 -6 -51 -16t-15 -30v-1q0 -22 20 -38.5t65 -16.5q72 0 116.5 33t44.5 78z" />
    <glyph glyph-name="aringacute.alt2" horiz-adv-x="904" 
d="M311 837l89 161h268l-111 -161h-246zM232 695q0 118 198 118q195 0 195 -118q0 -119 -195 -119q-198 0 -198 119zM355 695q0 -45 75 -45q73 0 73 45q0 44 -73 44q-75 0 -75 -44zM595 538h272v-538h-271v79q-14 -17 -38 -34t-82 -36t-128 -19h-16q-156 0 -236 78t-80 194
v21q0 110 78.5 187.5t228.5 77.5h18q169 0 254 -78v68zM595 269v5q0 48 -43 86t-115 38h-5q-73 0 -106.5 -36.5t-33.5 -87.5v-5q0 -49 36 -88t106 -39h5q72 0 114 39t42 88z" />
    <glyph glyph-name="atilde.alt" horiz-adv-x="820" 
d="M523 72q-79 -82 -252 -82h-11q-126 0 -187.5 50t-61.5 123v12q0 70 50.5 108t167.5 48l259 23q30 3 30 26q0 12 -6.5 19.5t-34 14.5t-76.5 7h-4q-40 0 -66 -5.5t-37 -16t-14 -17t-4 -16.5h-252v6q0 27 4.5 47t24.5 47t54.5 44t102 29.5t159.5 12.5h56q97 0 166 -11.5
t105.5 -27.5t57.5 -42.5t25.5 -47.5t4.5 -51v-190q0 -133 14 -177v-5h-263q-12 22 -12 72zM518 231v23l-180 -32q-36 -6 -51 -16t-15 -30v-1q0 -22 20 -38.5t65 -16.5q72 0 116.5 33t44.5 78zM522 587q-42 0 -132 29q-45 14 -56 14q-16 0 -16 -21v-27h-159v81q0 40 24 68.5
t86 28.5h4q49 0 133 -28q43 -15 55 -15q15 0 15 20v29h160v-76q0 -103 -110 -103h-4z" />
    <glyph glyph-name="atilde.alt2" horiz-adv-x="904" 
d="M595 538h272v-538h-271v79q-14 -17 -38 -34t-82 -36t-128 -19h-16q-156 0 -236 78t-80 194v21q0 110 78.5 187.5t228.5 77.5h18q169 0 254 -78v68zM595 269v5q0 48 -43 86t-115 38h-5q-73 0 -106.5 -36.5t-33.5 -87.5v-5q0 -49 36 -88t106 -39h5q72 0 114 39t42 88z
M565 585q-42 0 -132 29q-45 14 -56 14q-16 0 -16 -21v-27h-159v81q0 40 24 68.5t86 28.5h4q49 0 133 -28q43 -15 55 -15q15 0 15 20v29h160v-76q0 -103 -110 -103h-4z" />
    <glyph glyph-name="racute.alt" horiz-adv-x="583" 
d="M185 583l89 161h268l-111 -161h-246zM309 208v-208h-272v538h270v-128q73 140 252 140v-246q-51 11 -102 11q-148 0 -148 -107z" />
    <glyph glyph-name="rcaron.alt" horiz-adv-x="583" 
d="M166 583l-153 161h236l58 -65l58 65h234l-152 -161h-281zM309 208v-208h-272v538h270v-128q73 140 252 140v-246q-51 11 -102 11q-148 0 -148 -107z" />
    <glyph glyph-name="rcommaaccent.alt" horiz-adv-x="583" 
d="M253 -296h-130q28 56 35 92h-113v159h258v-125q0 -54 -50 -126zM309 208v-208h-272v538h270v-128q73 140 252 140v-246q-51 11 -102 11q-148 0 -148 -107z" />
    <glyph glyph-name="space_uni0326.alt" 
d="M271 834h130q-28 -56 -35 -92h113v-159h-258v125q0 27 16 63.5t34 62.5z" />
    <glyph glyph-name="ordfeminine.alt" horiz-adv-x="582" 
d="M369 436q-60 -57 -176 -57h-8q-92 0 -133 32.5t-41 82.5v7q0 91 166 105l161 14q21 3 21 17q0 25 -72 25h-6q-25 0 -40.5 -3.5t-22 -9.5t-8 -10t-2.5 -10h-188v4q0 17 2.5 30t16 31t38 29t72.5 19.5t115 8.5h39q67 0 115 -7.5t74 -18.5t40.5 -28t18 -31t3.5 -33v-128
q0 -79 9 -115v-4h-186q-8 16 -8 50zM205 502q0 -31 53 -31q46 0 73.5 21.5t27.5 50.5v11l-111 -20q-43 -9 -43 -32z" />
    <glyph glyph-name="ordfeminine.alt2" horiz-adv-x="637" 
d="M407 744h202v-359h-201v49q-60 -56 -166 -56h-13q-110 0 -164 52t-54 130v14q0 74 53 125t159 51h14q109 0 170 -49v43zM404 564v4q0 31 -26 53t-73 22h-3q-88 0 -88 -76v-3q0 -32 22 -55t67 -23h4q47 0 72 23t25 55z" />
    <glyph glyph-name="caron.alt" 
d="M240 575l14 169h205l-28 -169h-191z" />
    <glyph glyph-name="plus.uc" horiz-adv-x="620" 
d="M593 276h-192v-176h-183v176h-191v151h191v175h183v-175h192v-151z" />
    <glyph glyph-name="minus.uc" horiz-adv-x="579" 
d="M27 428h525v-153h-525v153z" />
    <glyph glyph-name="multiply.uc" horiz-adv-x="545" 
d="M535 221l-107 -117l-156 139l-154 -139l-109 118l143 129l-142 126l106 120l155 -139l154 139l110 -118l-144 -129z" />
    <glyph glyph-name="divide.uc" horiz-adv-x="608" 
d="M404 635v-160h-200v160h200zM27 427h554v-151h-554v151zM404 226v-160h-200v160h200z" />
    <glyph glyph-name="equal.uc" horiz-adv-x="587" 
d="M31 521h525v-140h-525v140zM31 323h525v-139h-525v139z" />
    <glyph glyph-name="less.uc" horiz-adv-x="542" 
d="M513 106l-486 155v170l486 156v-162l-319 -80l319 -78v-161z" />
    <glyph glyph-name="greater.uc" horiz-adv-x="535" 
d="M29 587l479 -156v-170l-479 -155v161l315 78l-315 80v162z" />
    <glyph glyph-name="questiondown.uc" horiz-adv-x="901" 
d="M362 490v5h272v-67q0 -59 -29.5 -92t-126.5 -55l-99 -23q-52 -12 -70 -24.5t-18 -29.5q0 -15 7 -23t42 -15t101 -7q48 0 82 6.5t51 14.5t26.5 22t11 22t2.5 21h275v-12q0 -25 -1.5 -42.5t-10.5 -45.5t-24.5 -47t-46.5 -41t-74 -35.5t-110 -22.5t-151 -9h-53
q-101 0 -176 12.5t-118.5 32.5t-69 49t-34 56.5t-8.5 61.5v7q0 152 189 197l101 24q38 9 49 21.5t11 38.5zM355 549v195h281v-195h-281z" />
    <glyph glyph-name="exclamdown.uc" horiz-adv-x="375" 
d="M362 0h-349l91 504h166zM329 744v-195h-283v195h283z" />
    <glyph glyph-name="hyphen.uc" horiz-adv-x="390" 
d="M30 433h330v-186h-330v186z" />
    <glyph glyph-name="endash.uc" horiz-adv-x="914" 
d="M30 412h854v-142h-854v142z" />
    <glyph glyph-name="emdash.uc" horiz-adv-x="1367" 
d="M30 412h1307v-142h-1307v142z" />
    <glyph glyph-name="guilsinglleft.uc" horiz-adv-x="345" 
d="M210 308l121 -173h-196l-127 173l128 170h198z" />
    <glyph glyph-name="guilsinglright.uc" horiz-adv-x="345" 
d="M337 308l-126 -173h-197l121 173l-124 170h198z" />
    <glyph glyph-name="guillemotleft.uc" horiz-adv-x="564" 
d="M439 308l110 -173h-185l-116 173l119 170h186zM198 308l116 -173h-185l-121 173l121 170h187z" />
    <glyph glyph-name="guillemotright.uc" horiz-adv-x="564" 
d="M556 308l-121 -173h-185l116 173l-118 170h187zM125 308l-114 170h186l119 -170l-116 -173h-185z" />
    <glyph glyph-name="parenleft.uc" horiz-adv-x="355" 
d="M24 371q0 244 205 445h136q-131 -211 -131 -445q0 -227 131 -452h-136q-205 201 -205 452z" />
    <glyph glyph-name="parenright.uc" horiz-adv-x="355" 
d="M331 371q0 -251 -205 -452h-135q130 223 130 452q0 233 -130 445h135q205 -201 205 -445z" />
    <glyph glyph-name="bracketleft.uc" horiz-adv-x="368" 
d="M45 -81v898h312v-119h-111v-661h111v-118h-312z" />
    <glyph glyph-name="bracketright.uc" horiz-adv-x="368" 
d="M11 698v119h312v-898h-312v118h111v661h-111z" />
    <glyph glyph-name="braceleft.uc" horiz-adv-x="387" 
d="M84 312h-67v117h67q44 0 44 36q0 21 -43 107t-43 130q0 115 176 115h159v-119h-84q-46 0 -46 -34q0 -18 33 -89.5t33 -99.5q0 -42 -24 -66.5t-81 -37.5q56 -10 80.5 -31.5t24.5 -57.5q0 -32 -33 -110t-33 -95q0 -40 52 -40h78v-117h-159q-88 0 -132 26t-44 84
q0 42 43 130.5t43 108.5q0 43 -44 43z" />
    <glyph glyph-name="braceright.uc" horiz-adv-x="387" 
d="M303 429h67v-117h-67q-43 0 -43 -43q0 -20 42.5 -108.5t42.5 -130.5q0 -58 -43.5 -84t-131.5 -26h-159v117h78q51 0 51 40q0 17 -32.5 94.5t-32.5 110.5q0 36 24 57.5t80 31.5q-57 12 -80.5 37t-23.5 67q0 28 32.5 99.5t32.5 89.5q0 34 -46 34h-83v119h159
q175 0 175 -115q0 -44 -42.5 -130t-42.5 -107q0 -36 43 -36z" />
    <glyph glyph-name="slash.uc" horiz-adv-x="485" 
d="M503 816l-325 -897h-201l323 897h203z" />
    <glyph glyph-name="backslash.uc" horiz-adv-x="485" 
d="M508 -81h-201l-324 897h202z" />
    <glyph glyph-name="bar.uc" horiz-adv-x="364" 
d="M276 816v-897h-187v897h187z" />
    <glyph glyph-name="at.uc" horiz-adv-x="1327" 
d="M1217 -19q-162 -86 -545 -86q-115 0 -209.5 13.5t-161 37t-117 58t-81 72t-49.5 84.5t-26 90t-7 93v12q0 72 15 131.5t58 118.5t112.5 99t185 64.5t269.5 24.5h14q100 0 183.5 -8.5t144 -22.5t109 -36.5t80 -44.5t54.5 -52.5t34.5 -55.5t18 -58.5t8 -55.5t1.5 -52v-11
q0 -57 -15.5 -107t-51 -97t-104.5 -74.5t-164 -27.5h-17q-148 0 -190 77q-81 -77 -225 -77h-14q-76 0 -130 23t-79.5 61.5t-34.5 81.5t-3 90l7 54q5 35 19 67t40.5 62t73.5 47.5t108 17.5h15q153 0 242 -80l9 71h265l-46 -358q-5 -37 32 -37q55 0 90.5 56.5t35.5 155.5v3
q0 28 -1 45t-5.5 44t-13 44t-26 40t-42 37.5t-62 30.5t-86 24.5t-114.5 14.5t-146 6h-14q-123 0 -213.5 -18t-143.5 -47.5t-85 -75t-42.5 -91.5t-10.5 -106v-11q0 -55 10.5 -100t43 -92t86.5 -79t147.5 -52.5t218.5 -20.5q338 0 504 86zM763 332l2 16q7 52 -22 79t-88 27
q-93 0 -105 -91l-3 -23q-6 -45 16.5 -76.5t77.5 -31.5q109 0 122 100z" />
    <glyph glyph-name="grave.uc" 
d="M450 944l79 -155h-257l-101 155h279z" />
    <glyph glyph-name="dieresis.uc" 
d="M326 944v-155h-246v155h246zM619 944v-155h-245v155h245z" />
    <glyph glyph-name="macron.uc" 
d="M115 797v132h469v-132h-469z" />
    <glyph glyph-name="acute.uc" 
d="M171 789l79 155h279l-101 -155h-257z" />
    <glyph glyph-name="circumflex.uc" 
d="M490 944l164 -155h-244l-62 58l-61 -58h-241l162 155h282z" />
    <glyph glyph-name="caron.uc" 
d="M211 789l-165 155h244l62 -58l61 58h241l-161 -155h-282z" />
    <glyph glyph-name="breve.uc" 
d="M594 952q0 -23 -10.5 -49.5t-33.5 -55t-69.5 -47t-109.5 -18.5h-40q-68 0 -116.5 18.5t-70 47.5t-30.5 54.5t-9 49.5v2h183q1 -10 4.5 -19t19 -19.5t40.5 -10.5t40 10.5t18.5 20t3.5 18.5h180v-2z" />
    <glyph glyph-name="dotaccent.uc" 
d="M485 950v-161h-271v161h271z" />
    <glyph glyph-name="ring.uc" 
d="M152 899q0 119 200 119q197 0 197 -119t-197 -119q-200 0 -200 119zM275 900q0 -46 77 -46q75 0 75 46q0 44 -75 44q-77 0 -77 -44z" />
    <glyph glyph-name="tilde.uc" 
d="M478 793q-45 0 -135 29q-47 15 -60 15q-18 0 -18 -21v-29h-161v85q0 40 24.5 69t88.5 29h4q22 0 44.5 -4t36 -8t56.5 -17q45 -15 59 -15q17 0 17 20v29h161v-79q0 -103 -112 -103h-5z" />
    <glyph glyph-name="hungarumlaut.uc" 
d="M57 789l53 155h245l-59 -155h-239zM339 789l59 155h245l-65 -155h-239z" />
    <glyph glyph-name="emdash.altuc" horiz-adv-x="2674" 
d="M2644 411v-142h-2614v142h2614z" />
    <glyph glyph-name="f.short" horiz-adv-x="521" 
d="M504 744v-144h-81q-22 0 -29.5 -9t-7.5 -30v-23h118v-165h-118v-373h-270v373h-106v165h106v53q0 153 197 153h191z" />
    <glyph glyph-name="f_f.short" horiz-adv-x="963" 
d="M558 0v373h-172v-373h-270v373h-106v165h106v53q0 153 197 153h193v-144h-83q-22 0 -29.5 -9t-7.5 -30v-23h172v53q0 153 197 153h191v-144h-81q-22 0 -29.5 -9t-7.5 -30v-23h118v-165h-118v-373h-270z" />
    <glyph glyph-name="j.short" horiz-adv-x="346" 
d="M309 744v-161h-272v161h272zM-19 -27h24q19 0 25.5 7t6.5 30v528h272v-578q0 -77 -31 -112.5t-81 -35.5h-216v161z" />
    <glyph glyph-name="uni0408.alt" horiz-adv-x="528" 
d="M23 0v212h95q47 0 68.5 24t21.5 81v427h284v-489q0 -255 -253 -255h-216z" />
    <glyph glyph-name="uni0414.bgr" horiz-adv-x="1133" 
d="M272 0v-130h-267v328h103l260 546h377l280 -546h103v-328h-266v130h-590zM393 198h320l-165 334z" />
    <glyph glyph-name="uni0416.bgr" horiz-adv-x="1611" 
d="M664 0v317l-310 -317h-368l411 404l-401 340h355l313 -277v277h284v-277l313 277h353l-399 -339l413 -405h-370l-310 317v-317h-284z" />
    <glyph glyph-name="uni041A.bgr" horiz-adv-x="1040" 
d="M692 0l-363 333v-333h-284v744h284v-294l366 294h353l-433 -338l447 -406h-370z" />
    <glyph glyph-name="uni041B.bgr" horiz-adv-x="1067" 
d="M-17 0l349 744h377l376 -744h-322l-250 519l-235 -519h-295z" />
    <glyph glyph-name="uni042F.alt" horiz-adv-x="1064" 
d="M736 0v233h-265q-80 0 -113.5 -30.5t-33.5 -98.5v-65q0 -29 -9 -39h-290v5q14 26 14 84v65q0 73 34.5 118.5t100.5 58.5q-57 16 -106.5 62.5t-49.5 120.5v11q0 105 78.5 162t237.5 57h685v-744h-283zM736 411v147h-335q-89 0 -89 -72v-1q0 -74 89 -74h335z" />
    <glyph glyph-name="uni0430.alt" horiz-adv-x="820" 
d="M523 72q-79 -82 -252 -82h-11q-126 0 -187.5 50t-61.5 123v12q0 70 50.5 108t167.5 48l259 23q30 3 30 26q0 12 -6.5 19.5t-34 14.5t-76.5 7h-4q-40 0 -66 -5.5t-37 -16t-14 -17t-4 -16.5h-252v6q0 27 4.5 47t24.5 47t54.5 44t102 29.5t159.5 12.5h56q97 0 166 -11.5
t105.5 -27.5t57.5 -42.5t25.5 -47.5t4.5 -51v-190q0 -133 14 -177v-5h-263q-12 22 -12 72zM518 231v23l-180 -32q-36 -6 -51 -16t-15 -30v-1q0 -22 20 -38.5t65 -16.5q72 0 116.5 33t44.5 78z" />
    <glyph glyph-name="uni0430.alt2" horiz-adv-x="904" 
d="M595 538h272v-538h-271v79q-14 -17 -38 -34t-82 -36t-128 -19h-16q-156 0 -236 78t-80 194v21q0 110 78.5 187.5t228.5 77.5h18q169 0 254 -78v68zM595 269v5q0 48 -43 86t-115 38h-5q-73 0 -106.5 -36.5t-33.5 -87.5v-5q0 -49 36 -88t106 -39h5q72 0 114 39t42 88z" />
    <glyph glyph-name="uni0431.alt" horiz-adv-x="901" 
d="M886 245q0 -125 -108 -192.5t-306 -67.5h-41q-195 0 -305 76.5t-110 231.5v66q0 184 101 279t328 95h179q146 0 211 26v-175q-51 -28 -212 -28h-160q-206 0 -208 -139q37 37 111.5 62t175.5 25h10q97 0 170 -24t118.5 -79.5t45.5 -136.5v-19zM452 138q79 0 118.5 32
t39.5 79v7q0 47 -39 76.5t-119 29.5t-120 -29.5t-40 -76.5v-8q0 -47 40 -78.5t120 -31.5z" />
    <glyph glyph-name="uni0431.locl" horiz-adv-x="921" 
d="M905 241q0 -39 -10.5 -73t-39 -68.5t-73 -59t-117.5 -40t-167 -15.5h-74q-112 0 -194.5 22.5t-127.5 61t-65.5 81.5t-20.5 91v13q0 60 36 110t110 75q-50 17 -76.5 51.5t-26.5 77.5q0 81 64.5 123t217.5 42h210q24 0 38 5.5t17 10t3 8.5h260q-1 -106 -61 -153.5
t-209 -47.5h-209q-50 0 -68.5 -5t-18.5 -22q0 -27 108 -27h88q99 0 173.5 -15.5t118 -39.5t70 -58t35.5 -65.5t9 -68.5v-14zM462 138q85 0 126.5 30t41.5 78v3q0 48 -41.5 77t-127.5 29q-83 0 -126 -29.5t-43 -76.5v-3q0 -48 43 -78t127 -30z" />
    <glyph glyph-name="uni0431.loclalt" horiz-adv-x="921" 
d="M905 241q0 -39 -10.5 -73t-39 -68.5t-73 -59t-117.5 -40t-167 -15.5h-74q-112 0 -194.5 22.5t-127.5 61t-65.5 81.5t-20.5 91v13q0 60 36 110t110 75q-50 16 -76.5 51t-26.5 78q0 81 64.5 123t217.5 42h283q146 0 211 26v-175q-51 -28 -212 -28h-233q-50 0 -68.5 -5
t-18.5 -22q0 -27 102 -27h94q99 0 173.5 -15.5t118 -39.5t70 -58t35.5 -65.5t9 -68.5v-14zM462 138q85 0 126.5 30t41.5 78v3q0 48 -41.5 77t-127.5 29q-83 0 -126 -29.5t-43 -76.5v-3q0 -48 43 -78t127 -30z" />
    <glyph glyph-name="uni0432.bgr" horiz-adv-x="856" 
d="M16 278v157q0 52 9.5 96t35 86.5t67 71.5t109.5 47t158 18h44q92 0 160.5 -12.5t106 -31.5t60.5 -46t29.5 -51t6.5 -52v-7q0 -56 -38.5 -99.5t-92.5 -54.5q73 -13 119 -55t46 -107v-12q0 -45 -19.5 -85.5t-62 -76.5t-124 -57.5t-193.5 -21.5h-36q-190 0 -287.5 77
t-97.5 216zM289 482v-19h147q100 0 100 68v1q0 69 -112 69h-12q-60 0 -91.5 -31t-31.5 -88zM289 258q0 -61 33 -90.5t108 -29.5q132 0 132 83v2q0 70 -115 70h-158v-35z" />
    <glyph glyph-name="uni0433.bgr" horiz-adv-x="807" 
d="M797 176q0 -191 -359 -191h-55q-92 0 -159.5 9.5t-107.5 25t-64 39.5t-32 48t-8 54v7q0 83 63.5 124t228.5 52l114 8q57 4 76.5 13t19.5 27v2q0 18 -20.5 26.5t-80.5 8.5h-1q-34 0 -57.5 -5t-33 -13.5t-13 -15.5t-4.5 -16h-272v7q0 35 15 63t52 52.5t109.5 38t176.5 13.5
h53q106 0 178 -13t108 -37t50 -50.5t14 -62.5v-6q0 -150 -276 -169l-113 -8q-64 -4 -83.5 -14t-19.5 -32v-2q0 -13 7 -21t33 -14.5t71 -6.5h2q108 0 111 66h277v-7z" />
    <glyph glyph-name="uni0433.locl" horiz-adv-x="614" 
d="M37 0v538h558v-164h-286v-374h-272z" />
    <glyph glyph-name="uni0434.bgr" horiz-adv-x="937" 
d="M900 90q0 -37 -8.5 -72t-34.5 -75t-67.5 -69.5t-115.5 -49t-170 -19.5h-77q-95 0 -167 15t-110.5 36t-62.5 49.5t-30.5 49.5t-6.5 42v3h273q7 -45 140 -45h3q163 0 163 137v11q-83 -80 -262 -80h-16q-172 0 -253 73t-81 183v18q0 50 16.5 93t52 79.5t99 57.5t148.5 21h22
q185 0 273 -79v69h272v-448zM454 396h-6q-84 0 -120 -30.5t-36 -77.5v-5q0 -48 37.5 -81t118.5 -33h6q84 0 128 33.5t44 80.5v3q0 46 -44 78t-128 32z" />
    <glyph glyph-name="uni0434.locl" horiz-adv-x="985" 
d="M5 -127v291h79q23 45 33.5 127t12.5 247h735v-374h106v-291h-249v127h-468v-127h-249zM338 164h259v215h-228q-5 -141 -31 -215z" />
    <glyph glyph-name="uni0436.bgr" horiz-adv-x="1214" 
d="M469 0v239l-183 -239h-303l231 293l-204 245h292l167 -206v412h272v-413l167 207h289l-201 -241l234 -297h-306l-183 240v-240h-272z" />
    <glyph glyph-name="uni0437.bgr" horiz-adv-x="850" 
d="M828 37q0 -103 -90 -167.5t-290 -64.5h-29q-202 0 -302.5 75.5t-100.5 212.5v5h270q0 -147 144 -147q119 0 119 89v3q0 78 -120 78h-110v142h104q105 0 105 72v4q0 31 -28.5 49.5t-79.5 18.5q-70 0 -100.5 -29t-33.5 -68v-3h-270v10q0 100 103.5 168t290.5 68h26
q176 0 270 -51.5t94 -135.5v-8q0 -55 -37.5 -95.5t-105.5 -55.5q171 -35 171 -161v-9z" />
    <glyph glyph-name="uni0438.bgr" horiz-adv-x="881" 
d="M844 538v-538h-270v96q-108 -108 -273 -108h-7q-71 0 -124 20t-80.5 53t-40.5 67t-13 70v340h273v-257q0 -56 30 -90t94 -34q65 0 102.5 37t37.5 94v250h271z" />
    <glyph glyph-name="uni0439.bgr" horiz-adv-x="881" 
d="M844 0v538h-271v-250q0 -57 -37.5 -94t-102.5 -37q-64 0 -94 34t-30 90v257h-273v-340q0 -36 13 -70t40.5 -67t80.5 -53t124 -20h7q165 0 273 108v-96h270zM682 742q0 -23 -10.5 -49t-34 -53.5t-69.5 -45t-107 -17.5h-40q-67 0 -114.5 17.5t-69.5 45.5t-30.5 52.5
t-8.5 49.5v2h181q0 -9 3.5 -18.5t19 -19.5t40.5 -10q24 0 39 10t18.5 19t4.5 19h178v-2z" />
    <glyph glyph-name="uni043A.bgr" horiz-adv-x="801" 
d="M509 0l-200 242v-242h-272v744h272v-416l184 210h293l-219 -238l251 -300h-309z" />
    <glyph glyph-name="uni043B.bgr" horiz-adv-x="831" 
d="M-14 0l245 538h359l255 -538h-291l-148 350l-141 -350h-279z" />
    <glyph glyph-name="uni043D.bgr" horiz-adv-x="883" 
d="M309 0h-272v538h272v-188h265v188h272v-538h-272v185h-265v-185z" />
    <glyph glyph-name="uni043F.bgr" horiz-adv-x="891" 
d="M37 0v538h270v-95q111 107 278 107h6q72 0 125.5 -19.5t82.5 -51t42.5 -65t13.5 -68.5v-346h-273v257q0 57 -31.5 90.5t-98.5 33.5t-105 -36.5t-38 -94.5v-250h-272z" />
    <glyph glyph-name="uni043F.locl" horiz-adv-x="866" 
d="M37 0v538h792v-538h-271v374h-249v-374h-272z" />
    <glyph glyph-name="uni0442.bgr" horiz-adv-x="1376" 
d="M309 251v-251h-272v538h270v-96q104 108 267 108h6q164 0 222 -111q117 111 282 111h7q68 0 119 -19.5t78 -51.5t39.5 -65.5t12.5 -67.5v-346h-272v258q0 123 -111 123q-62 0 -97 -36.5t-35 -93.5v-251h-273v258q0 123 -111 123q-62 0 -97 -36.5t-35 -93.5z" />
    <glyph glyph-name="uni0442.locl" horiz-adv-x="751" 
d="M240 0v374h-220v164h711v-164h-220v-374h-271z" />
    <glyph glyph-name="uni0446.bgr" horiz-adv-x="957" 
d="M844 538v-374h107v-291h-250v127h-127v96q-108 -108 -273 -108h-7q-71 0 -124 20t-80.5 53t-40.5 67t-13 70v340h273v-257q0 -56 30 -90t94 -34q65 0 102.5 37t37.5 94v250h271z" />
    <glyph glyph-name="uni0447.bgr" horiz-adv-x="829" 
d="M520 538h272v-538h-272v176q-70 -14 -165 -14q-86 0 -144.5 9.5t-105 34t-68.5 70t-22 113.5v149h272v-123q0 -52 30 -70t104 -18q67 0 99 9v202z" />
    <glyph glyph-name="uni0448.bgr" horiz-adv-x="1376" 
d="M1067 287v251h272v-538h-270v96q-104 -108 -267 -108h-6q-164 0 -222 111q-117 -111 -282 -111h-7q-68 0 -119 19.5t-78 51.5t-39.5 65.5t-12.5 67.5v346h272v-258q0 -123 111 -123q62 0 97 36.5t35 93.5v251h273v-258q0 -123 111 -123q62 0 97 36.5t35 93.5z" />
    <glyph glyph-name="uni0449.bgr" horiz-adv-x="1452" 
d="M1067 287v251h272v-374h107v-291h-250v127h-127v96q-104 -108 -267 -108h-6q-164 0 -222 111q-117 -111 -282 -111h-7q-68 0 -119 19.5t-78 51.5t-39.5 65.5t-12.5 67.5v346h272v-258q0 -123 111 -123q62 0 97 36.5t35 93.5v251h273v-258q0 -123 111 -123q62 0 97 36.5
t35 93.5z" />
    <glyph glyph-name="uni044A.bgr" horiz-adv-x="1010" 
d="M545 -15q-102 0 -173.5 17.5t-111 51t-56.5 76t-17 98.5v151h-175v159h447v-134h230q157 0 230 -53.5t73 -140.5v-13q0 -91 -82.5 -151.5t-267.5 -60.5h-97zM459 260v-32q0 -97 137 -97q120 0 120 66v4q0 59 -107 59h-150z" />
    <glyph glyph-name="uni044C.bgr" horiz-adv-x="860" 
d="M395 -15q-102 0 -173.5 17.5t-111 51t-56.5 76t-17 98.5v310h272v-134h230q157 0 230 -53.5t73 -140.5v-13q0 -91 -82.5 -151.5t-267.5 -60.5h-97zM309 260v-32q0 -97 137 -97q120 0 120 66v4q0 59 -107 59h-150z" />
    <glyph glyph-name="uni044E.bgr" horiz-adv-x="1236" 
d="M1220 263q0 -278 -397 -278h-54q-329 0 -388 202h-72v-187h-272v744h272v-396h70q11 41 35 75t68 64.5t117 48t169 17.5h56q99 0 173 -18t115.5 -45t67 -65.5t33 -72t7.5 -71.5v-18zM796 401q-82 0 -115 -36.5t-33 -89.5v-4q0 -54 33.5 -93.5t114.5 -39.5h1
q81 0 114.5 40t33.5 93v4q0 53 -33.5 89.5t-114.5 36.5h-1z" />
    <glyph glyph-name="uni044F.alt" horiz-adv-x="849" 
d="M312 61q0 -43 -11 -61h-271v5q11 24 11 55v61q0 99 100 120q-119 33 -119 126v10q0 83 63.5 122t204.5 39h522v-538h-272v154h-168q-41 0 -50.5 -12.5t-9.5 -55.5v-25zM540 394h-169q-76 0 -76 -52v-3q0 -51 77 -51h168v106z" />
    <glyph glyph-name="uni0458.short" horiz-adv-x="346" 
d="M309 744v-161h-272v161h272zM-19 -27h24q19 0 25.5 7t6.5 30v528h272v-578q0 -77 -31 -112.5t-81 -35.5h-216v161z" />
    <glyph glyph-name="f_b" horiz-adv-x="1449" 
d="M557 744h272v-279q103 83 261 83h21q88 0 152.5 -21.5t99.5 -60t51.5 -84t16.5 -100.5v-21q0 -54 -17.5 -101t-55 -86t-103.5 -61.5t-154 -22.5h-20q-159 0 -257 81q-11 -32 -14 -71h-253v744zM829 272v-4q0 -51 43 -89.5t120 -38.5h6q83 0 120 37.5t37 90.5v4
q0 55 -36.5 91.5t-120.5 36.5h-6q-79 0 -121 -37.5t-42 -90.5zM504 744v-144h-81q-22 0 -29.5 -9t-7.5 -30v-23h118v-165h-118v-373h-270v373h-106v165h106v53q0 153 197 153h191z" />
    <glyph glyph-name="f_h" horiz-adv-x="1411" 
d="M557 0v744h272v-300q106 106 276 106h6q72 0 125.5 -19.5t82.5 -51t42.5 -65t13.5 -68.5v-346h-273v257q0 57 -31.5 90.5t-98.5 33.5t-105 -36.5t-38 -94.5v-250h-272zM504 744v-144h-81q-22 0 -29.5 -9t-7.5 -30v-23h118v-165h-118v-373h-270v373h-106v165h106v53
q0 153 197 153h191z" />
    <glyph glyph-name="f_k" horiz-adv-x="1322" 
d="M1029 0l-200 242v-242h-272v744h272v-416l184 210h293l-219 -238l251 -300h-309zM504 744v-144h-81q-22 0 -29.5 -9t-7.5 -30v-23h118v-165h-118v-373h-270v373h-106v165h106v53q0 153 197 153h191z" />
    <glyph glyph-name="f_j" horiz-adv-x="866" 
d="M829 744v-161h-272v161h272zM489 -27h36q19 0 25.5 7t6.5 30v528h272v-578q0 -77 -31 -112.5t-81 -35.5h-228v161zM504 744v-144h-81q-22 0 -29.5 -9t-7.5 -30v-23h118v-165h-118v-373h-270v373h-106v165h106v53q0 153 197 153h191z" />
    <glyph glyph-name="f_f_b" horiz-adv-x="1891" 
d="M999 744h272v-279q103 83 261 83h21q88 0 152.5 -21.5t99.5 -60t51.5 -84t16.5 -100.5v-21q0 -54 -17.5 -101t-55 -86t-103.5 -61.5t-154 -22.5h-20q-159 0 -257 81q-11 -32 -14 -71h-253v744zM1271 272v-4q0 -51 43 -89.5t120 -38.5h6q83 0 120 37.5t37 90.5v4
q0 55 -36.5 91.5t-120.5 36.5h-6q-79 0 -121 -37.5t-42 -90.5zM558 0v373h-172v-373h-270v373h-106v165h106v53q0 153 197 153h193v-144h-83q-22 0 -29.5 -9t-7.5 -30v-23h172v53q0 153 197 153h191v-144h-81q-22 0 -29.5 -9t-7.5 -30v-23h118v-165h-118v-373h-270z" />
    <glyph glyph-name="f_f_h" horiz-adv-x="1853" 
d="M999 0v744h272v-300q106 106 276 106h6q72 0 125.5 -19.5t82.5 -51t42.5 -65t13.5 -68.5v-346h-273v257q0 57 -31.5 90.5t-98.5 33.5t-105 -36.5t-38 -94.5v-250h-272zM558 0v373h-172v-373h-270v373h-106v165h106v53q0 153 197 153h193v-144h-83q-22 0 -29.5 -9
t-7.5 -30v-23h172v53q0 153 197 153h191v-144h-81q-22 0 -29.5 -9t-7.5 -30v-23h118v-165h-118v-373h-270z" />
    <glyph glyph-name="f_f_k" horiz-adv-x="1764" 
d="M1471 0l-200 242v-242h-272v744h272v-416l184 210h293l-219 -238l251 -300h-309zM558 0v373h-172v-373h-270v373h-106v165h106v53q0 153 197 153h193v-144h-83q-22 0 -29.5 -9t-7.5 -30v-23h172v53q0 153 197 153h191v-144h-81q-22 0 -29.5 -9t-7.5 -30v-23h118v-165
h-118v-373h-270z" />
    <glyph glyph-name="f_f_j" horiz-adv-x="1308" 
d="M1271 744v-161h-272v161h272zM931 -27h36q19 0 25.5 7t6.5 30v528h272v-578q0 -77 -31 -112.5t-81 -35.5h-228v161zM558 0v373h-172v-373h-270v373h-106v165h106v53q0 153 197 153h193v-144h-83q-22 0 -29.5 -9t-7.5 -30v-23h172v53q0 153 197 153h191v-144h-81
q-22 0 -29.5 -9t-7.5 -30v-23h118v-165h-118v-373h-270z" />
    </font>
</defs>
</svg>
